<?xml version="1.0" standalone="no"?>
<!DOCTYPE svg PUBLIC "-//W3C//DTD SVG 1.1//EN" "http://www.w3.org/Graphics/SVG/1.1/DTD/svg11.dtd" >
<svg xmlns="http://www.w3.org/2000/svg" xmlns:xlink="http://www.w3.org/1999/xlink" version="1.1">
<metadata>
Created by FontForge 20170731 at Mon Oct 25 17:33:40 2021
 By Aleksey,,,
Copyright 2011 The Montserrat Project Authors (https://github.com/JulietaUla/Montserrat)
</metadata>
<defs>
<font id="Montserrat-ThinItalic" horiz-adv-x="0" >
  <font-face 
    font-family="Montserrat Thin"
    font-weight="250"
    font-style="italic"
    font-stretch="normal"
    units-per-em="1000"
    panose-1="0 0 0 0 0 0 0 0 0 0"
    ascent="800"
    descent="-200"
    x-height="517"
    cap-height="700"
    bbox="-222 -259 1545 1021"
    underline-thickness="50"
    underline-position="-175"
    slope="-11.3"
    unicode-range="U+000D-FB02"
  />
<missing-glyph horiz-adv-x="587" 
d="M-12 0l140 700h507l-140 -700h-507zM82 70h347l112 560h-347z" />
    <glyph glyph-name="fi" unicode="fi" horiz-adv-x="561" 
d="M71 0l123 615q13 65 50.5 97.5t97.5 32.5q29 0 54.5 -9.5t40.5 -27.5l-14 -13q-29 31 -82 31t-84.5 -27.5t-43.5 -89.5l-19 -95l-2 -10l-101 -504h-20zM71 498l3 19h295l-3 -19h-295zM374 0l103 517h20l-103 -517h-20zM519 660q-10 0 -17 7t-7 17q0 11 8.5 19.5t19.5 8.5
q10 0 17 -7t7 -17q0 -11 -8.5 -19.5t-19.5 -8.5z" />
    <glyph glyph-name="fl" unicode="fl" horiz-adv-x="561" 
d="M71 0l123 615q13 65 50.5 97.5t97.5 32.5q29 0 54.5 -9.5t40.5 -27.5l-14 -13q-29 31 -82 31t-84.5 -27.5t-43.5 -89.5l-19 -95l-2 -10l-101 -504h-20zM71 498l3 19h295l-3 -19h-295zM374 0l148 742h20l-148 -742h-20z" />
    <glyph glyph-name=".notdef" horiz-adv-x="587" 
d="M-12 0l140 700h507l-140 -700h-507zM82 70h347l112 560h-347z" />
    <glyph glyph-name=".null" 
 />
    <glyph glyph-name="nonmarkingreturn" horiz-adv-x="333" 
 />
    <glyph glyph-name="NULL" 
 />
    <glyph glyph-name="NULL" 
 />
    <glyph glyph-name="CR" unicode="&#xd;" horiz-adv-x="250" 
 />
    <glyph glyph-name="space" unicode=" " horiz-adv-x="250" 
 />
    <glyph glyph-name="exclam" unicode="!" horiz-adv-x="242" 
d="M100 188l98 512h22l-106 -512h-14zM74 -3q-10 0 -18 8t-8 18q0 11 8 18.5t18 7.5q11 0 18.5 -7.5t7.5 -18.5q0 -7 -3.5 -13t-9.5 -9.5t-13 -3.5z" />
    <glyph glyph-name="quotedbl" unicode="&#x22;" horiz-adv-x="334" 
d="M121 450l48 250h22l-52 -250h-18zM271 450l48 250h22l-52 -250h-18z" />
    <glyph glyph-name="numbersign" unicode="#" horiz-adv-x="682" 
d="M366 0l225 700h21l-225 -700h-21zM26 210l4 19h580l-4 -19h-580zM106 0l225 700h21l-225 -700h-21zM109 471l4 19h580l-4 -19h-580z" />
    <glyph glyph-name="dollar" unicode="$" horiz-adv-x="601" 
d="M216 -120l188 940h19l-188 -940h-19zM263 -3q-49 0 -96.5 13t-84.5 35t-56 50l16 13q19 -26 54 -47t79 -33t89 -12q71 0 126 20.5t86 60.5t31 97q0 41 -20.5 66.5t-54 41.5t-73.5 27t-80 23.5t-73.5 30t-54 46.5t-20.5 74q0 65 34 109.5t92 67.5t131 23q57 0 111 -16
t91 -46l-13 -17q-37 29 -85.5 44.5t-103.5 15.5q-69 0 -123 -21t-84.5 -61t-30.5 -97q0 -41 20.5 -67t54 -42.5t74 -28t80.5 -23.5t73.5 -30t54 -46t20.5 -73q0 -66 -35.5 -110t-95 -66t-133.5 -22z" />
    <glyph glyph-name="percent" unicode="%" horiz-adv-x="800" 
d="M98 0l616 700h24l-616 -700h-24zM223 328q-58 0 -92 38.5t-34 105.5q0 58 22 110.5t62.5 86t95.5 33.5q59 0 92.5 -38.5t33.5 -105.5q0 -58 -22 -110.5t-62 -86t-96 -33.5zM224 346q51 0 86.5 31.5t54 80t18.5 98.5q0 60 -28 94t-79 34q-50 0 -86 -31.5t-54.5 -80
t-18.5 -98.5q0 -60 28 -94t79 -34zM559 -3q-58 0 -92 38.5t-34 105.5q0 58 22 110.5t62.5 86t95.5 33.5q59 0 92.5 -38.5t33.5 -105.5q0 -58 -22 -110.5t-62 -86t-96 -33.5zM560 15q51 0 86.5 31.5t54 80t18.5 98.5q0 60 -28 94t-79 34q-50 0 -86 -31.5t-54.5 -80
t-18.5 -98.5q0 -60 28 -94t79 -34z" />
    <glyph glyph-name="ampersand" unicode="&#x26;" horiz-adv-x="634" 
d="M223 -3q-58 0 -100 19t-65 52.5t-23 78.5q0 44 22 82.5t74 78t143 85.5q80 41 126.5 71t66 60t19.5 69q0 38 -29 64.5t-83 26.5q-68 0 -109 -37.5t-41 -99.5q0 -32 14 -66t42 -73l295 -407l-15 -11l-297 410q-28 39 -43.5 74t-15.5 71q0 48 21 83.5t59 55t90 19.5
q40 0 69.5 -14t45.5 -38.5t16 -57.5q0 -42 -20.5 -75t-68.5 -66t-132 -75q-89 -45 -139 -81.5t-70 -72t-20 -76.5q0 -59 45 -96t124 -37q75 0 138.5 30t114.5 91t87 155l18 -4q-38 -99 -92 -163t-121 -95t-146 -31z" />
    <glyph glyph-name="quotesingle" unicode="'" horiz-adv-x="184" 
d="M121 450l48 250h22l-52 -250h-18z" />
    <glyph glyph-name="parenleft" unicode="(" horiz-adv-x="311" 
d="M144 -194q-13 39 -22 81t-13.5 85t-4.5 83q0 93 16 188t46 185.5t71 170.5t92 143h20q-50 -61 -91.5 -141.5t-72 -172.5t-47 -187.5t-16.5 -185.5q0 -64 9.5 -124t29.5 -125h-17z" />
    <glyph glyph-name="parenright" unicode=")" horiz-adv-x="311" 
d="M33 -194q50 61 91.5 141.5t72 172.5t47 187.5t16.5 185.5q0 64 -9.5 124t-29.5 125h17q13 -38 22 -80.5t13.5 -85t4.5 -83.5q0 -93 -16 -188t-46 -185.5t-71 -170.5t-92 -143h-20z" />
    <glyph glyph-name="asterisk" unicode="*" horiz-adv-x="358" 
d="M410 648l-159 -82l1 11l126 -82l-11 -15l-126 82l8 3l-33 -163h-18l33 163l9 -4l-158 -82l-8 16l159 82l-1 -9l-126 82l11 15l125 -82l-8 -4l32 163h18l-32 -163l-8 3l159 83z" />
    <glyph glyph-name="plus" unicode="+" horiz-adv-x="560" 
d="M248 150l80 400h20l-80 -400h-20zM91 340l4 19h411l-4 -19h-411z" />
    <glyph glyph-name="comma" unicode="," horiz-adv-x="182" 
d="M-18 -140l61 148l1 -11q-10 0 -18 8t-8 18q0 11 8 18.5t18 7.5q11 0 18.5 -7.5t7.5 -18.5q0 -8 -2.5 -14.5t-6.5 -14.5l-61 -134h-18z" />
    <glyph glyph-name="hyphen" unicode="-" horiz-adv-x="380" 
d="M64 255l4 19h250l-4 -19h-250z" />
    <glyph glyph-name="period" unicode="." horiz-adv-x="182" 
d="M44 -3q-10 0 -18 8t-8 18q0 11 8 18.5t18 7.5q11 0 18.5 -7.5t7.5 -18.5q0 -7 -3.5 -13t-9.5 -9.5t-13 -3.5z" />
    <glyph glyph-name="slash" unicode="/" horiz-adv-x="300" 
d="M-92 -100l516 942h22l-516 -942h-22z" />
    <glyph glyph-name="zero" unicode="0" horiz-adv-x="652" 
d="M278 -3q-66 0 -113.5 29.5t-72.5 84.5t-25 132q0 86 23.5 167.5t67.5 148t107.5 105.5t144.5 39q67 0 114 -29.5t72 -84.5t25 -132q0 -85 -23.5 -167t-67.5 -148.5t-107.5 -105.5t-144.5 -39zM281 16q76 0 136 38.5t101.5 102.5t63 142.5t21.5 158.5q0 107 -51.5 166.5
t-144.5 59.5q-76 0 -136 -38.5t-101.5 -102.5t-63 -142.5t-21.5 -158.5q0 -107 51.5 -166.5t144.5 -59.5z" />
    <glyph glyph-name="one" unicode="1" horiz-adv-x="342" 
d="M138 0l138 689l7 -8h-189l4 19h199l-140 -700h-19z" />
    <glyph glyph-name="two" unicode="2" horiz-adv-x="555" 
d="M-9 0l3 15l370 306q57 47 88.5 84.5t44.5 71.5t13 71q0 62 -43.5 99t-135.5 37q-64 0 -122 -22t-96 -63l-15 14q42 44 104 67t130 23q67 0 111 -19.5t65.5 -54t21.5 -80.5q0 -39 -14 -76t-47 -77.5t-91 -88.5l-361 -298l-11 10h457l-4 -19h-468z" />
    <glyph glyph-name="three" unicode="3" horiz-adv-x="548" 
d="M215 -3q-82 0 -143 28t-87 71l17 13q23 -40 78.5 -66.5t135.5 -26.5q75 0 130 25t84.5 70t29.5 105q0 74 -49 113t-151 39h-28l3 15l290 304l3 -6h-403l4 19h423l-3 -15l-291 -305l-3 7h5q73 0 121.5 -20t73.5 -58t25 -93q0 -65 -33 -114.5t-92.5 -77t-139.5 -27.5z" />
    <glyph glyph-name="four" unicode="4" horiz-adv-x="644" 
d="M36 208l3 15l486 477h27l-486 -477l-16 4h571l-4 -19h-581zM399 0l42 208l3 19l37 183h20l-82 -410h-20z" />
    <glyph glyph-name="five" unicode="5" horiz-adv-x="548" 
d="M230 -3q-83 0 -143.5 28t-86.5 71l17 13q23 -40 78.5 -66.5t136.5 -26.5q114 0 178.5 54.5t64.5 149.5q0 74 -52.5 116t-177.5 42h-145l101 322h355l-4 -19h-344l11 8l-96 -302l-6 10h131q129 0 188 -47t59 -130q0 -69 -32.5 -119t-91.5 -77t-141 -27z" />
    <glyph glyph-name="six" unicode="6" horiz-adv-x="592" 
d="M306 -3q-70 0 -124.5 29t-85 87.5t-30.5 146.5q0 61 12 123.5t38.5 119.5t69 102t104 71.5t143.5 26.5q43 0 82 -7.5t70 -27.5l-12 -18q-28 19 -65 26.5t-77 7.5q-78 0 -136 -25.5t-98 -69.5t-64.5 -99.5t-35.5 -116t-11 -119.5q0 -16 0.5 -26t1.5 -18l-9 -7
q11 73 49 117.5t91 65t107 20.5q64 0 113.5 -22.5t78 -65t28.5 -103.5q0 -68 -30 -117t-84 -75t-126 -26zM307 16q100 0 159.5 53t59.5 144q0 85 -56.5 129.5t-144.5 44.5q-67 0 -118.5 -26.5t-80 -71t-28.5 -98.5q0 -41 23 -81.5t69.5 -67t116.5 -26.5z" />
    <glyph glyph-name="seven" unicode="7" horiz-adv-x="570" 
d="M134 0l450 688l13 -7h-466l11 8l-30 -149h-20l32 160h486l-3 -15l-448 -685h-25z" />
    <glyph glyph-name="eight" unicode="8" horiz-adv-x="624" 
d="M283 -3q-76 0 -130.5 21.5t-83 61t-28.5 94.5q0 61 32.5 105.5t93 69t144.5 24.5q77 0 131.5 -20.5t83.5 -59t29 -92.5q0 -62 -33.5 -108t-94.5 -71t-144 -25zM285 16q117 0 184 50t67 134q0 72 -60 114t-167 42q-117 0 -183 -50t-66 -133q0 -73 59 -115t166 -42z
M355 358q-70 0 -119.5 19t-75 54t-25.5 83q0 58 29.5 100.5t84.5 65.5t130 23q67 0 116.5 -19.5t77 -56t27.5 -86.5q0 -55 -29 -96.5t-84 -64t-132 -22.5zM357 375q104 0 163.5 45t59.5 118q0 68 -54.5 107t-148.5 39q-101 0 -161 -45t-60 -121q0 -65 52 -104t149 -39z" />
    <glyph glyph-name="nine" unicode="9" horiz-adv-x="592" 
d="M322 703q71 0 125 -29t84.5 -87t30.5 -147q0 -61 -12 -123.5t-38.5 -119.5t-69 -102t-104 -71.5t-143.5 -26.5q-43 0 -81.5 8t-70.5 27l12 18q29 -19 65.5 -26.5t76.5 -7.5q78 0 136 25.5t98 69.5t64.5 99.5t35.5 116.5t11 119q0 16 -0.5 26t-1.5 18l9 7
q-10 -72 -48.5 -117t-91 -65.5t-107.5 -20.5q-63 0 -113 22.5t-78.5 65t-28.5 103.5q0 68 30 117t84 75t126 26zM321 684q-100 0 -159.5 -53t-59.5 -144q0 -85 56.5 -129.5t144.5 -44.5q68 0 119 26.5t79.5 71.5t28.5 98q0 42 -23 82t-69 66.5t-117 26.5z" />
    <glyph glyph-name="colon" unicode=":" horiz-adv-x="182" 
d="M139 468q-10 0 -18 8t-8 18q0 11 8 18.5t18 7.5q11 0 18.5 -7.5t7.5 -18.5q0 -7 -3.5 -13t-9.5 -9.5t-13 -3.5zM44 -3q-10 0 -18 8t-8 18q0 11 8 18.5t18 7.5q11 0 18.5 -7.5t7.5 -18.5q0 -7 -3.5 -13t-9.5 -9.5t-13 -3.5z" />
    <glyph glyph-name="semicolon" unicode=";" horiz-adv-x="182" 
d="M139 468q-10 0 -18 8t-8 18q0 11 8 18.5t18 7.5q11 0 18.5 -7.5t7.5 -18.5q0 -7 -3.5 -13t-9.5 -9.5t-13 -3.5zM-18 -140l61 148l1 -11q-10 0 -18 8t-8 18q0 11 8 18.5t18 7.5q11 0 18.5 -7.5t7.5 -18.5q0 -8 -2.5 -14.5t-6.5 -14.5l-61 -134h-18z" />
    <glyph glyph-name="less" unicode="&#x3c;" horiz-adv-x="560" 
d="M538 532l-5 -23l-430 -164l2 8l365 -165l-4 -20l-376 171l4 22z" />
    <glyph glyph-name="equal" unicode="=" horiz-adv-x="560" 
d="M114 450l4 19h410l-4 -19h-410zM70 231l4 19h410l-4 -19h-410z" />
    <glyph glyph-name="greater" unicode="&#x3e;" horiz-adv-x="560" 
d="M58 168l5 23l430 164l-2 -8l-365 165l4 20l376 -171l-4 -22z" />
    <glyph glyph-name="question" unicode="?" horiz-adv-x="554" 
d="M236 188q9 50 32 84t53 59t61.5 46.5t58.5 45.5t44 56t17 79q0 60 -44 93t-125 33q-77 0 -132.5 -21t-98.5 -64l-13 15q44 44 104.5 66.5t139.5 22.5q60 0 102 -17t64 -49t22 -79q0 -50 -17 -84.5t-44 -60t-58.5 -47.5t-61.5 -45.5t-52.5 -55t-31.5 -77.5h-20zM213 -3
q-10 0 -18 8t-8 18q0 11 8 18.5t18 7.5q11 0 18.5 -7.5t7.5 -18.5q0 -7 -3.5 -13t-9.5 -9.5t-13 -3.5z" />
    <glyph glyph-name="at" unicode="@" horiz-adv-x="1032" 
d="M432 -197q-121 0 -207 46t-132 128t-46 189t36.5 203.5t106 171.5t168.5 118.5t224 43.5q130 0 219 -45t135.5 -126t46.5 -189q0 -69 -16 -131t-44 -110.5t-64 -76.5t-76 -28t-61.5 25.5t-13.5 66.5l18 91l26 70l3 77l38 190h20l-83 -418q-9 -46 7.5 -64.5t47.5 -18.5
q35 0 67 27t57 73.5t39.5 105.5t14.5 123q0 101 -43 177t-128 119t-212 43q-117 0 -211.5 -41t-162 -113t-103.5 -166t-36 -199q0 -101 42.5 -178t125 -120.5t201.5 -43.5q56 0 108 12t89 34l5 -20q-41 -22 -94.5 -34t-111.5 -12zM474 -3q-67 0 -116.5 25.5t-76.5 73
t-27 111.5q0 67 21.5 124t60.5 99.5t92.5 66t117.5 23.5q104 0 159.5 -55t56.5 -153q1 -89 -35.5 -160.5t-101.5 -113t-151 -41.5zM477 16q78 0 138.5 38t95.5 104.5t35 150.5q0 92 -53.5 142t-149.5 50q-77 0 -138 -38.5t-96 -104.5t-35 -150q0 -91 53.5 -141.5
t149.5 -50.5z" />
    <glyph glyph-name="A" unicode="A" horiz-adv-x="688" 
d="M-43 0l465 700h20l185 -700h-21l-180 684h9l-454 -684h-24zM106 211l14 19h435l6 -19h-455z" />
    <glyph glyph-name="B" unicode="B" horiz-adv-x="748" 
d="M81 0l140 700h277q94 0 148.5 -35.5t54.5 -105.5q0 -69 -33.5 -115.5t-90 -69.5t-125.5 -23l19 11q94 0 147.5 -36.5t53.5 -111.5q0 -68 -34 -116t-98.5 -73t-157.5 -25h-301zM105 19h281q128 0 197 50t69 143q0 72 -49.5 103t-147.5 31h-290l4 19h266q71 0 126.5 21.5
t87.5 64t32 105.5q0 62 -48 93.5t-135 31.5h-261z" />
    <glyph glyph-name="C" unicode="C" horiz-adv-x="711" 
d="M386 -3q-102 0 -172 35.5t-106.5 99.5t-36.5 148t28.5 160t83 135.5t132.5 93.5t177 34q79 0 139.5 -23t95.5 -65l-14 -13q-36 41 -91.5 61.5t-131.5 20.5q-91 0 -165 -32t-126 -88t-80 -129t-28 -155q0 -78 33.5 -137.5t99.5 -93t164 -33.5q77 0 138.5 22.5t105.5 63.5
l12 -16q-43 -40 -111 -64.5t-147 -24.5z" />
    <glyph glyph-name="D" unicode="D" horiz-adv-x="826" 
d="M81 0l140 700h251q105 0 176.5 -35t108 -98t36.5 -147q0 -91 -30.5 -168t-87.5 -133.5t-137.5 -87.5t-180.5 -31h-276zM105 19h254q127 0 219.5 51.5t143.5 142t51 207.5q0 78 -33.5 137t-100.5 91.5t-169 32.5h-233z" />
    <glyph glyph-name="E" unicode="E" horiz-adv-x="668" 
d="M169 365h391l-4 -19h-391zM105 19h446l-4 -19h-466l140 700h451l-4 -19h-431z" />
    <glyph glyph-name="F" unicode="F" horiz-adv-x="629" 
d="M165 345h391l-4 -19h-391zM101 0h-20l140 700h451l-4 -19h-431z" />
    <glyph glyph-name="G" unicode="G" horiz-adv-x="774" 
d="M386 -3q-102 0 -172 35.5t-106.5 99.5t-36.5 148t28.5 160t83 135.5t132.5 93.5t177 34q80 0 142.5 -23.5t97.5 -65.5l-14 -13q-36 41 -93.5 62t-134.5 21q-91 0 -165 -32t-126 -88t-80 -129t-28 -155q0 -78 33.5 -137.5t99.5 -93t164 -33.5q71 0 127.5 23t102.5 63
l10 -15q-44 -40 -106.5 -65t-135.5 -25zM609 87l51 256h19l-51 -256h-19z" />
    <glyph glyph-name="H" unicode="H" horiz-adv-x="816" 
d="M751 700h20l-140 -700h-20zM101 0h-20l140 700h20zM685 346h-520l4 19h520z" />
    <glyph glyph-name="I" unicode="I" horiz-adv-x="286" 
d="M81 0l140 700h20l-140 -700h-20z" />
    <glyph glyph-name="J" unicode="J" horiz-adv-x="477" 
d="M137 -3q-59 0 -103.5 27.5t-63.5 71.5l18 10q19 -41 58 -65.5t94 -24.5q70 0 113.5 40t63.5 140l97 485h-262l4 19h282l-102 -510q-14 -70 -40.5 -112.5t-66 -61.5t-92.5 -19z" />
    <glyph glyph-name="K" unicode="K" horiz-adv-x="693" 
d="M133 182l7 31l572 487h30l-381 -324l-8 -7zM81 0l140 700h20l-140 -700h-20zM601 0l-261 377l17 10l268 -387h-24z" />
    <glyph glyph-name="L" unicode="L" horiz-adv-x="580" 
d="M81 0l140 700h20l-136 -681h417l-4 -19h-437z" />
    <glyph glyph-name="M" unicode="M" horiz-adv-x="956" 
d="M81 0l140 700h17l222 -582l-9 3l441 579h19l-140 -700h-20l134 671l9 -2l-436 -570h-12l-219 573l8 -1l-134 -671h-20z" />
    <glyph glyph-name="N" unicode="N" horiz-adv-x="816" 
d="M81 0l140 700h17l386 -678l-8 3l135 675h20l-140 -700h-17l-386 678l8 -3l-135 -675h-20z" />
    <glyph glyph-name="O" unicode="O" horiz-adv-x="836" 
d="M386 -3q-102 0 -172 35.5t-106.5 99.5t-36.5 148t28.5 160t82.5 135.5t131 93.5t174 34q102 0 172.5 -35.5t106.5 -99t36 -148.5q0 -84 -28.5 -160t-82.5 -135.5t-131 -93.5t-174 -34zM388 16q90 0 162.5 32t124 88t79.5 129t28 155q0 79 -33.5 138t-99.5 92.5t-164 33.5
q-90 0 -162.5 -32t-124 -88t-79.5 -129t-28 -155q0 -78 33.5 -137.5t99.5 -93t164 -33.5z" />
    <glyph glyph-name="P" unicode="P" horiz-adv-x="710" 
d="M81 0l140 700h235q111 0 172.5 -48.5t61.5 -137.5q0 -90 -38.5 -151t-109.5 -92t-169 -31h-233l11 9l-50 -249h-20zM151 251l-7 8h228q142 0 220 64t78 191q0 80 -55 123.5t-158 43.5h-229l11 10z" />
    <glyph glyph-name="Q" unicode="Q" horiz-adv-x="836" 
d="M386 -3q-102 0 -172 35.5t-106.5 99.5t-36.5 148t28.5 160t82.5 135.5t131 93.5t174 34q102 0 172.5 -35.5t106.5 -99t36 -148.5q0 -84 -28.5 -160t-82.5 -135.5t-131 -93.5t-174 -34zM584 -124q-62 0 -112.5 33t-95.5 94l25 5q38 -55 83.5 -84t100.5 -29q44 0 81 17.5
t65 52.5l14 -13q-31 -38 -73.5 -57t-87.5 -19zM388 16q90 0 162.5 32t124 88t79.5 129t28 155q0 79 -33.5 138t-99.5 92.5t-164 33.5q-90 0 -162.5 -32t-124 -88t-79.5 -129t-28 -155q0 -78 33.5 -137.5t99.5 -93t164 -33.5z" />
    <glyph glyph-name="R" unicode="R" horiz-adv-x="716" 
d="M81 0l140 700h235q111 0 172.5 -48.5t61.5 -137.5q0 -90 -38.5 -151t-109.5 -92t-169 -31h-233l11 9l-50 -249h-20zM580 0l-144 254h23l144 -254h-23zM151 251l-7 8h228q142 0 220 64t78 191q0 80 -55 123.5t-158 43.5h-229l11 8z" />
    <glyph glyph-name="S" unicode="S" horiz-adv-x="601" 
d="M263 -3q-49 0 -96.5 13t-84.5 35t-56 50l16 13q19 -26 54 -47t79 -33t89 -12q71 0 126 20.5t86 60.5t31 97q0 41 -20.5 66.5t-54 41.5t-73.5 27t-80 23.5t-73.5 30t-54 46.5t-20.5 74q0 65 34 109.5t92 67.5t131 23q57 0 111 -16t91 -46l-13 -17q-37 29 -85.5 44.5
t-103.5 15.5q-69 0 -123 -21t-84.5 -61t-30.5 -97q0 -41 20.5 -67t54 -42.5t74 -28t80.5 -23.5t73.5 -30t54 -46t20.5 -73q0 -66 -35.5 -110t-95 -66t-133.5 -22z" />
    <glyph glyph-name="T" unicode="T" horiz-adv-x="548" 
d="M212 0l136 681h-260l4 19h540l-4 -19h-260l-136 -681h-20z" />
    <glyph glyph-name="U" unicode="U" horiz-adv-x="794" 
d="M354 -3q-93 0 -147.5 40.5t-72 107.5t-0.5 146l81 409h20l-82 -410q-11 -52 -6.5 -101t27.5 -88t68 -62t116 -23q87 0 146 32t94.5 90.5t51.5 136.5l85 425h20l-85 -426q-25 -129 -103 -203t-213 -74z" />
    <glyph glyph-name="V" unicode="V" horiz-adv-x="670" 
d="M273 0l-175 700h21l170 -683h-9l444 683h24l-455 -700h-20z" />
    <glyph glyph-name="W" unicode="W" horiz-adv-x="1080" 
d="M233 0l-100 700h20l97 -683h-9l376 683h20l103 -683h-10l371 683h22l-380 -700h-20l-102 676l5 1l-373 -677h-20z" />
    <glyph glyph-name="X" unicode="X" horiz-adv-x="621" 
d="M-27 0l351 369l-1 -10l-190 341h21l184 -331l-9 5l311 326h24l-324 -340v6l204 -366h-21l-196 353l5 -2l-335 -351h-24z" />
    <glyph glyph-name="Y" unicode="Y" horiz-adv-x="610" 
d="M243 0l49 245l2 -15l-196 470h22l186 -447l-7 -1l364 448h25l-384 -472l8 17l-49 -245h-20z" />
    <glyph glyph-name="Z" unicode="Z" horiz-adv-x="639" 
d="M-2 0l3 15l649 673l-1 -7h-510l4 19h535l-3 -15l-650 -673l2 7h525l-4 -19h-550z" />
    <glyph glyph-name="bracketleft" unicode="[" horiz-adv-x="288" 
d="M42 -194l187 936h130l-4 -19h-110l-179 -898h110l-4 -19h-130z" />
    <glyph glyph-name="backslash" unicode="\" horiz-adv-x="300" 
d="M248 -100h-19l-143 942h19z" />
    <glyph glyph-name="bracketright" unicode="]" horiz-adv-x="288" 
d="M66 -194h-130l4 19h110l179 898h-110l4 19h130z" />
    <glyph glyph-name="asciicircum" unicode="^" horiz-adv-x="562" 
d="M76 145l253 410h22l89 -410h-21l-84 397h8l-244 -397h-23z" />
    <glyph glyph-name="underscore" unicode="_" horiz-adv-x="500" 
d="M-55 -19l4 19h500l-4 -19h-500z" />
    <glyph glyph-name="grave" unicode="`" horiz-adv-x="600" 
d="M384 607l-128 110h40l118 -110h-30z" />
    <glyph glyph-name="a" unicode="a" horiz-adv-x="671" 
d="M269 -3q-67 0 -116.5 25.5t-76.5 73t-27 111.5q0 67 21.5 124t60.5 99.5t92.5 66t117.5 23.5q69 0 117 -25t73.5 -71.5t25.5 -111.5q1 -89 -35.5 -160.5t-101.5 -113t-151 -41.5zM272 16q78 0 138.5 38t95.5 104.5t35 150.5q0 92 -53.5 142t-149.5 50q-77 0 -138 -38.5
t-96 -104.5t-35 -150q0 -91 53.5 -141.5t149.5 -50.5zM485 0l36 180l26 70l3 77l38 190h20l-103 -517h-20z" />
    <glyph glyph-name="b" unicode="b" horiz-adv-x="671" 
d="M63 0l148 742h20l-81 -405l-26 -70l-3 -77l-38 -190h-20zM330 -3q-69 0 -117 25t-73 71.5t-26 111.5q0 67 20.5 124.5t59 100t91.5 66.5t117 24q68 0 117 -25.5t76 -72.5t27 -112q0 -67 -21.5 -124t-60.5 -99.5t-92.5 -66t-117.5 -23.5zM333 16q78 0 138.5 38t95.5 104.5
t35 150.5q0 92 -53.5 142t-149.5 50q-77 0 -138 -38t-96 -104t-35 -151q0 -91 53.5 -141.5t149.5 -50.5z" />
    <glyph glyph-name="c" unicode="c" horiz-adv-x="545" 
d="M274 -3q-70 0 -120.5 25.5t-77.5 73t-27 111.5q0 91 38 161.5t104 111t151 40.5q65 0 112.5 -22t72.5 -65l-15 -12q-26 41 -69 60.5t-102 19.5q-79 0 -140.5 -38.5t-96.5 -104.5t-35 -150q0 -91 54 -141.5t154 -50.5q56 0 104 20.5t79 57.5l12 -14q-32 -40 -85 -61.5
t-113 -21.5z" />
    <glyph glyph-name="d" unicode="d" horiz-adv-x="671" 
d="M269 -3q-67 0 -116.5 25.5t-76.5 73t-27 111.5q0 67 21.5 124t60.5 99.5t92.5 66t117.5 23.5q69 0 117 -25t73.5 -71.5t25.5 -111.5q0 -67 -20.5 -124.5t-59 -100t-91.5 -66.5t-117 -24zM272 16q78 0 138.5 38t95.5 104.5t35 150.5q0 92 -53.5 142t-149.5 50
q-77 0 -138 -38.5t-96 -104.5t-35 -150q0 -91 53.5 -141.5t149.5 -50.5zM485 0l36 180l26 70l3 77l83 415h20l-148 -742h-20z" />
    <glyph glyph-name="e" unicode="e" horiz-adv-x="589" 
d="M278 -3q-71 0 -122.5 25t-78.5 72.5t-27 115.5q0 88 36 158t98.5 111t141.5 41q66 0 113 -25t72.5 -72t25.5 -113q0 -13 -1.5 -26.5t-3.5 -24.5h-466l4 19h453l-8 -11q12 76 -10 128t-68.5 79t-110.5 27q-73 0 -131.5 -38t-92 -103.5t-33.5 -149.5q0 -94 54 -144t156 -50
q59 0 108 20.5t80 56.5l12 -13q-31 -37 -84.5 -60t-116.5 -23z" />
    <glyph glyph-name="f" unicode="f" horiz-adv-x="311" 
d="M71 0l123 615q13 65 50.5 97.5t97.5 32.5q29 0 54.5 -9.5t40.5 -27.5l-14 -13q-29 31 -82 31t-84.5 -27.5t-43.5 -89.5l-19 -95l-2 -10l-101 -504h-20zM71 498l3 19h295l-3 -19h-295z" />
    <glyph glyph-name="g" unicode="g" horiz-adv-x="677" 
d="M237 -197q-70 0 -126 23t-90 63l18 14q32 -40 83.5 -60.5t115.5 -20.5q112 0 176.5 53t86.5 168l33 166l22 60l2 60l37 188h20l-94 -471q-25 -128 -93.5 -185.5t-190.5 -57.5zM274 17q-69 0 -119 24.5t-77 70t-27 107.5q0 65 21.5 119.5t61 95.5t93.5 63.5t118 22.5
q69 0 118 -24t75 -69t26 -109q1 -85 -36 -153t-102.5 -108t-151.5 -40zM276 36q79 0 140 36.5t96.5 100t35.5 144.5q0 88 -54 136t-151 48q-78 0 -139.5 -36.5t-97 -100t-35.5 -144.5q0 -88 54 -136t151 -48z" />
    <glyph glyph-name="h" unicode="h" horiz-adv-x="668" 
d="M393 520q72 0 115 -27.5t58 -76t2 -111.5l-61 -305h-20l61 305q18 91 -21.5 143.5t-135.5 52.5q-98 0 -164 -54.5t-87 -159.5l-57 -287h-20l148 742h20l-75 -375l-10 -5q37 83 101 120.5t146 37.5z" />
    <glyph glyph-name="i" unicode="i" horiz-adv-x="250" 
d="M63 0l103 517h20l-103 -517h-20zM208 660q-10 0 -17 7t-7 17q0 11 8.5 19.5t19.5 8.5q10 0 17 -7t7 -17q0 -11 -8.5 -19.5t-19.5 -8.5z" />
    <glyph glyph-name="j" unicode="j" horiz-adv-x="255" 
d="M-70 -197q-30 0 -56 9.5t-43 26.5l15 15q34 -32 86 -32q50 0 80.5 27t42.5 88l116 580h20l-117 -586q-25 -128 -144 -128zM213 660q-10 0 -17 7t-7 17q0 11 8.5 19.5t19.5 8.5q10 0 17 -7t7 -17q0 -11 -8.5 -19.5t-19.5 -8.5z" />
    <glyph glyph-name="k" unicode="k" horiz-adv-x="557" 
d="M107 153l2 25l439 339h32l-269 -207l-14 -11zM63 0l148 742h20l-148 -742h-20zM476 0l-183 304l16 12l191 -316h-24z" />
    <glyph glyph-name="l" unicode="l" horiz-adv-x="250" 
d="M63 0l148 742h20l-148 -742h-20z" />
    <glyph glyph-name="m" unicode="m" horiz-adv-x="1068" 
d="M798 520q71 0 112.5 -27.5t56 -76t1.5 -111.5l-61 -305h-20l61 305q18 91 -19.5 143.5t-131.5 52.5q-91 0 -156 -50t-85 -147l-61 -304h-20l61 305q18 91 -19.5 143.5t-131.5 52.5t-159 -55t-86 -159l-57 -287h-20l103 517h20l-30 -150l-10 -5q38 83 100 120.5t141 37.5
q58 0 96.5 -19.5t58.5 -54.5t20 -82l-7 2q36 78 99.5 116t143.5 38z" />
    <glyph glyph-name="n" unicode="n" horiz-adv-x="668" 
d="M393 520q72 0 115 -27.5t58 -76t2 -111.5l-61 -305h-20l61 305q18 91 -21.5 143.5t-135.5 52.5q-98 0 -164 -54.5t-87 -159.5l-57 -287h-20l103 517h20l-30 -150l-10 -5q37 83 101 120.5t146 37.5z" />
    <glyph glyph-name="o" unicode="o" horiz-adv-x="610" 
d="M269 -3q-67 0 -116.5 25.5t-76.5 73t-27 111.5q0 90 37.5 160.5t103.5 111.5t151 41q68 0 117 -25.5t76 -72.5t27 -112q0 -90 -37.5 -160.5t-103.5 -111.5t-151 -41zM272 16q78 0 138.5 38t95.5 104.5t35 150.5q0 92 -53.5 142t-149.5 50q-77 0 -138 -38.5t-96 -104.5
t-35 -150q0 -91 53.5 -141.5t149.5 -50.5z" />
    <glyph glyph-name="p" unicode="p" horiz-adv-x="671" 
d="M330 -3q-69 0 -117 25t-73 71.5t-26 111.5q0 90 36 161t101.5 112.5t150.5 41.5q68 0 117 -25.5t76 -72.5t27 -112q0 -67 -21.5 -124t-60.5 -99.5t-92.5 -66t-117.5 -23.5zM24 -194l142 711h20l-36 -180l-26 -70l-3 -77l-77 -384h-20zM333 16q78 0 138.5 38t95.5 104.5
t35 150.5q0 92 -53.5 142t-149.5 50q-77 0 -138 -38t-96 -104t-35 -151q0 -91 53.5 -141.5t149.5 -50.5z" />
    <glyph glyph-name="q" unicode="q" horiz-adv-x="671" 
d="M269 -3q-67 0 -116.5 25.5t-76.5 73t-27 111.5q0 67 21.5 124t60.5 99.5t92.5 66t117.5 23.5q69 0 117 -25t73.5 -71.5t25.5 -111.5q1 -89 -35.5 -160.5t-101.5 -113t-151 -41.5zM272 16q78 0 138.5 38t95.5 104.5t35 150.5q0 92 -53.5 142t-149.5 50q-77 0 -138 -38.5
t-96 -104.5t-35 -150q0 -91 53.5 -141.5t149.5 -50.5zM446 -194l75 374l26 70l3 77l38 190h20l-142 -711h-20z" />
    <glyph glyph-name="r" unicode="r" horiz-adv-x="383" 
d="M63 0l103 517h20l-32 -160l-5 5q32 74 91 116t150 42l-4 -20h-4.5h-4.5q-95 0 -156 -58.5t-84 -171.5l-54 -270h-20z" />
    <glyph glyph-name="s" unicode="s" horiz-adv-x="463" 
d="M189 -3q-58 0 -111 19.5t-81 49.5l15 16q29 -31 77 -48.5t101 -17.5q89 0 140 34t51 94q0 38 -22 58t-57 30t-74.5 17.5t-74.5 19t-57 35.5t-22 67q0 45 25.5 78.5t71.5 52t107 18.5q47 0 92.5 -14t71.5 -39l-14 -15q-28 24 -68 36.5t-83 12.5q-83 0 -133 -35t-50 -94
q0 -38 22 -58.5t57 -30.5t74.5 -17.5t74.5 -19.5t57 -35t22 -66q0 -46 -26 -79t-73.5 -51t-112.5 -18z" />
    <glyph glyph-name="t" unicode="t" horiz-adv-x="388" 
d="M200 -3q-41 0 -67 16.5t-34.5 47t-0.5 73.5l99 496h20l-98 -491q-13 -62 8 -92.5t75 -30.5q26 0 49 8t42 24l11 -14q-21 -19 -49 -28t-55 -9zM71 498l3 19h295l-3 -19h-295z" />
    <glyph glyph-name="u" unicode="u" horiz-adv-x="664" 
d="M273 -3q-71 0 -113.5 27.5t-57 76t-2.5 111.5l61 305h20l-61 -305q-18 -91 21 -143.5t134 -52.5q98 0 163 54.5t86 159.5l57 287h20l-103 -517h-20l30 150l10 5q-37 -82 -100.5 -120t-144.5 -38z" />
    <glyph glyph-name="v" unicode="v" horiz-adv-x="508" 
d="M193 0l-135 517h21l130 -503h-8l329 503h24l-341 -517h-20z" />
    <glyph glyph-name="w" unicode="w" horiz-adv-x="835" 
d="M166 0l-107 517h19l102 -503h-7l287 503h17l106 -503h-8l283 503h22l-294 -517h-18l-106 498h8l-286 -498h-18z" />
    <glyph glyph-name="x" unicode="x" horiz-adv-x="498" 
d="M-24 0l265 271l-2 -6l-148 252h23l141 -241l-7 2l232 239h26l-250 -257l2 11l160 -271h-24l-149 256h7l-249 -256h-27z" />
    <glyph glyph-name="y" unicode="y" horiz-adv-x="508" 
d="M-3 -197q-33 0 -62.5 12t-46.5 34l16 15q17 -22 41 -32t55 -10q36 0 68 20.5t69 76.5l58 88l6 7l329 503h24l-399 -607q-28 -41 -52.5 -64.5t-50 -33t-55.5 -9.5zM196 -11l-138 528h21l130 -503z" />
    <glyph glyph-name="z" unicode="z" horiz-adv-x="491" 
d="M-6 0l3 15l463 489l11 -6h-372l3 19h387l-3 -15l-463 -489l-14 6h386l-4 -19h-397z" />
    <glyph glyph-name="braceleft" unicode="{" horiz-adv-x="300" 
d="M159 -194q-29 0 -51 11.5t-31 36t-1 64.5l59 294q5 28 -3.5 40.5t-30.5 12.5h-35l4 19h35q25 0 37.5 12t17.5 40l63 314q9 45 38.5 68.5t84.5 23.5h25l-4 -19h-32q-40 0 -62.5 -20.5t-29.5 -52.5l-63 -314q-4 -20 -10.5 -33t-16 -20.5t-23.5 -11.5l1 4q14 -5 22 -19
t2 -44l-59 -294q-10 -51 8.5 -72t51.5 -21h32l-4 -19h-25z" />
    <glyph glyph-name="bar" unicode="|" horiz-adv-x="286" 
d="M43 -194l187 936h20l-187 -936h-20z" />
    <glyph glyph-name="braceright" unicode="}" horiz-adv-x="300" 
d="M-65 -194l4 19h32q41 0 63 20.5t29 52.5l63 314q5 22 11 35t15.5 20t23.5 10l-1 -4q-14 5 -22 19t-2 44l59 294q11 51 -8 72t-52 21h-32l4 19h25q30 0 51.5 -11.5t30.5 -36t1 -64.5l-59 -294q-5 -28 3.5 -40.5t30.5 -12.5h35l-4 -19h-35q-25 0 -37.5 -12t-17.5 -40
l-63 -314q-9 -45 -38 -68.5t-85 -23.5h-25z" />
    <glyph glyph-name="asciitilde" unicode="~" horiz-adv-x="560" 
d="M390 286q-36 0 -58.5 16.5t-40 38.5t-37 38.5t-49.5 16.5q-41 0 -70.5 -29t-40.5 -78h-19q10 39 28 67t44.5 43t58.5 15q36 0 58.5 -16.5t40 -38.5t37 -38.5t49.5 -16.5q41 0 70.5 29t40.5 78h19q-10 -39 -28 -67t-44 -43t-59 -15z" />
    <glyph glyph-name="uni00A0" unicode="&#xa0;" horiz-adv-x="250" 
 />
    <glyph glyph-name="exclamdown" unicode="&#xa1;" horiz-adv-x="242" 
d="M27 -154l101 483h14l-93 -483h-22zM168 468q-10 0 -18 8t-8 18q0 7 3.5 13t9.5 9.5t13 3.5q11 0 18.5 -7.5t7.5 -18.5q0 -10 -7.5 -18t-18.5 -8z" />
    <glyph glyph-name="cent" unicode="&#xa2;" horiz-adv-x="545" 
d="M274 -3q-70 0 -120.5 25.5t-77.5 73t-27 111.5q0 91 38 161.5t104 111t151 40.5q65 0 112.5 -22t72.5 -65l-15 -12q-26 41 -69 60.5t-102 19.5q-79 0 -140.5 -38.5t-96.5 -104.5t-35 -150q0 -91 54 -141.5t154 -50.5q56 0 104 20.5t79 57.5l12 -14q-32 -40 -85 -61.5
t-113 -21.5zM217 -120l151 757h19l-151 -757h-19z" />
    <glyph glyph-name="sterling" unicode="&#xa3;" horiz-adv-x="618" 
d="M100 10l94 472q15 75 53 124t96.5 73t134.5 24q60 0 111.5 -14.5t84.5 -46.5l-15 -16q-32 31 -78 44.5t-103 13.5q-109 0 -176 -50t-88 -155l-94 -469h-20zM-22 0l4 19h560l-4 -19h-560zM46 341l4 18h439l-4 -18h-439z" />
    <glyph glyph-name="currency" unicode="&#xa4;" horiz-adv-x="700" 
d="M170 494l-120 121l14 14l121 -121zM552 494l-15 14l121 121l14 -14zM658 6l-121 121l15 14l120 -121zM64 6l-14 14l120 121l15 -14zM361 46q-58 0 -108.5 21t-89 58.5t-60.5 86.5t-22 104q0 56 22 105.5t60.5 87t89 59t108.5 21.5q59 0 110 -21.5t90 -59t61 -87
t22 -105.5q0 -55 -22 -104t-61 -86.5t-90 -58.5t-110 -21zM361 66q73 0 132.5 34t95 90.5t35.5 125.5q0 70 -35.5 127t-95 91.5t-132.5 34.5q-71 0 -130.5 -34.5t-94.5 -91.5t-35 -127q0 -69 35 -125.5t94.5 -90.5t130.5 -34z" />
    <glyph glyph-name="yen" unicode="&#xa5;" horiz-adv-x="670" 
d="M273 0l61 304l4 -14l-240 410h22l228 -390h-5l381 390h24l-401 -411l7 15l-61 -304h-20zM64 157l4 18h500l-4 -18h-500zM92 295l4 18h500l-4 -18h-500z" />
    <glyph glyph-name="brokenbar" unicode="&#xa6;" horiz-adv-x="286" 
d="M160 392l70 350h20l-70 -350h-20zM43 -194l70 350h20l-70 -350h-20z" />
    <glyph glyph-name="section" unicode="&#xa7;" horiz-adv-x="471" 
d="M291 149l-22 13q71 9 110 46t39 91q0 40 -21 62t-54 34t-70.5 21.5t-70.5 23t-54 38t-21 68.5t26 79.5t74 56.5t112 21q34 0 67 -6.5t60.5 -18t44.5 -28.5l-14 -15q-28 24 -70 36.5t-89 12.5q-88 0 -139.5 -40t-51.5 -97q0 -39 21 -61t54 -33.5t70.5 -21t70.5 -23
t54 -38.5t21 -70q0 -58 -39.5 -98t-107.5 -53zM151 -103q-59 0 -104 19.5t-73 49.5l15 16q29 -31 69 -48.5t94 -17.5q90 0 141 39t51 99q0 38 -21 60t-54 34t-70.5 22t-70.5 24t-54 39t-21 68q0 54 37.5 94.5t104.5 54.5l21 -13q-67 -10 -105 -47.5t-38 -87.5q0 -38 21 -60
t54 -34.5t70.5 -22.5t70.5 -24t54 -38.5t21 -67.5q0 -46 -26 -81.5t-73.5 -56t-113.5 -20.5z" />
    <glyph glyph-name="dieresis" unicode="&#xa8;" horiz-adv-x="600" 
d="M462 641q-10 0 -17.5 7t-7.5 17q0 11 8 19.5t19 8.5q10 0 17.5 -7t7.5 -17q0 -11 -8 -19.5t-19 -8.5zM298 641q-10 0 -17.5 7t-7.5 17q0 11 8 19.5t19 8.5q10 0 17.5 -7t7.5 -17q0 -11 -8 -19.5t-19 -8.5z" />
    <glyph glyph-name="copyright" unicode="&#xa9;" horiz-adv-x="824" 
d="M429 -3q-75 0 -139 27t-112 75.5t-74.5 112.5t-26.5 138t27 138t75 112.5t112.5 75.5t139.5 27t139.5 -26.5t112 -74.5t74 -111.5t26.5 -138.5t-27 -139.5t-75.5 -113t-112.5 -75.5t-139 -27zM429 16q71 0 131.5 26t106.5 71.5t71.5 107t25.5 131.5q0 71 -25 131
t-70 105.5t-106 70.5t-132 25t-132 -25.5t-106.5 -71.5t-71 -106.5t-25.5 -130.5t25.5 -130.5t70.5 -106.5t106 -71.5t131 -25.5zM437 139q-59 0 -105.5 27t-73 74.5t-26.5 109.5t26.5 109.5t73 74.5t105.5 27q45 0 84.5 -17t66.5 -51l-15 -15q-24 32 -60 48t-77 16
q-53 0 -94.5 -24t-65.5 -67.5t-24 -100.5t24 -100.5t65.5 -67.5t94.5 -24q41 0 77 16t60 48l15 -15q-27 -34 -66.5 -51t-84.5 -17z" />
    <glyph glyph-name="ordfeminine" unicode="&#xaa;" horiz-adv-x="394" 
d="M327 434l14 72l2 10l23 114q11 51 -14 73.5t-75 22.5q-32 0 -65 -10.5t-58 -30.5l-10 15q25 20 60.5 32t74.5 12q59 0 88.5 -29t18.5 -86l-39 -195h-20zM205 432q-49 0 -77 19.5t-28 54.5q0 30 15.5 51.5t44 33t68.5 11.5h140l-3 -15h-140q-49 0 -77.5 -21t-28.5 -58
q0 -60 88 -60q47 0 81 19.5t57 55.5l5 -12q-20 -37 -57.5 -58t-87.5 -21z" />
    <glyph glyph-name="guillemotleft" unicode="&#xab;" horiz-adv-x="423" 
d="M168 74l-110 185l184 185h24l-189 -190l-1 12l114 -192h-22zM318 74l-110 185l184 185h24l-189 -190l-1 12l114 -192h-22z" />
    <glyph glyph-name="logicalnot" unicode="&#xac;" horiz-adv-x="560" 
d="M506 359l-40 -200h-20l36 181h-391l4 19h411z" />
    <glyph glyph-name="uni00AD" unicode="&#xad;" horiz-adv-x="380" 
d="M64 255l4 19h250l-4 -19h-250z" />
    <glyph glyph-name="registered" unicode="&#xae;" horiz-adv-x="824" 
d="M429 -3q-75 0 -139 27t-112 75.5t-74.5 112.5t-26.5 138t27 138t75 112.5t112.5 75.5t139.5 27t139.5 -26.5t112 -74.5t74 -111.5t26.5 -138.5t-27 -139.5t-75.5 -113t-112.5 -75.5t-139 -27zM580 142l-105 162h24l105 -162h-24zM429 16q71 0 131.5 26t106.5 71.5
t71.5 107t25.5 131.5q0 71 -25 131t-70 105.5t-106 70.5t-132 25t-132 -25.5t-106.5 -71.5t-71 -106.5t-25.5 -130.5t25.5 -130.5t70.5 -106.5t106 -71.5t131 -25.5zM301 142v416h150q71 0 112 -36t41 -97t-41 -97t-112 -36h-130v-150h-20zM320 311h129q64 0 99.5 30
t35.5 84t-35.5 84t-99.5 30h-129v-228z" />
    <glyph glyph-name="macron" unicode="&#xaf;" horiz-adv-x="600" 
d="M242 652l4 20h272l-4 -20h-272z" />
    <glyph glyph-name="degree" unicode="&#xb0;" horiz-adv-x="420" 
d="M269 403q-41 0 -75.5 20t-54.5 54t-20 76t20 76t54.5 54t75.5 20q42 0 76 -20t54 -54t20 -76t-20 -76t-54 -54t-76 -20zM269 421q37 0 66.5 18t47 48t17.5 66q0 37 -17.5 66.5t-47 47.5t-66.5 18t-66.5 -18t-47 -47.5t-17.5 -66.5q0 -36 17.5 -66t47 -48t66.5 -18z" />
    <glyph glyph-name="plusminus" unicode="&#xb1;" horiz-adv-x="560" 
d="M23 0l4 19h410l-4 -19h-410zM248 150l80 400h20l-80 -400h-20zM91 340l4 19h411l-4 -19h-411z" />
    <glyph glyph-name="uni00B2" unicode="&#xb2;" horiz-adv-x="430" 
d="M65 327l3 14l231 170q43 32 65 55t30 42t8 39q0 38 -30.5 58.5t-86.5 20.5q-46 0 -83.5 -12.5t-65.5 -37.5l-11 14q29 27 70.5 40.5t90.5 13.5q65 0 100 -26t35 -71q0 -22 -9 -44t-32 -46.5t-67 -56.5l-220 -162l-12 7h304l-4 -18h-316z" />
    <glyph glyph-name="uni00B3" unicode="&#xb3;" horiz-adv-x="430" 
d="M222 325q-55 0 -96.5 16.5t-61.5 41.5l14 13q20 -22 56.5 -37.5t88.5 -15.5q73 0 115 29t42 84q0 40 -29 62.5t-88 22.5h-37l3 15l186 175l3 -7h-281l4 18h299l-3 -14l-186 -175l-6 5h18q66 0 101 -27.5t35 -74.5q0 -41 -22 -70.5t-61.5 -45t-93.5 -15.5z" />
    <glyph glyph-name="acute" unicode="&#xb4;" horiz-adv-x="600" 
d="M323 607l152 110h42l-162 -110h-32z" />
    <glyph glyph-name="uni00B5" unicode="&#xb5;" horiz-adv-x="670" 
d="M25 -194l142 711h20l-61 -305q-18 -91 21 -143.5t134 -52.5q98 0 163 54.5t86 159.5l57 287h20l-103 -517h-20l30 150l10 5q-24 -55 -61 -90t-83.5 -51.5t-100.5 -16.5q-71 0 -117.5 30.5t-58.5 93.5l8 14l-66 -329h-20z" />
    <glyph glyph-name="paragraph" unicode="&#xb6;" horiz-adv-x="600" 
d="M153 -100l104 519q-49 0 -87.5 16t-60.5 47t-22 76q0 61 30 102t83 61.5t121 20.5h242l-168 -842h-20l164 823h-202l-164 -823h-20z" />
    <glyph glyph-name="periodcentered" unicode="&#xb7;" horiz-adv-x="222" 
d="M112 238q-10 0 -18 8t-8 18q0 11 8 18.5t18 7.5q11 0 18.5 -7.5t7.5 -18.5q0 -7 -3.5 -13t-9.5 -9.5t-13 -3.5z" />
    <glyph glyph-name="cedilla" unicode="&#xb8;" horiz-adv-x="600" 
d="M199 -213q-22 0 -42.5 6.5t-35.5 20.5l14 15q12 -11 28 -17t37 -6q35 0 56 19.5t21 50.5q0 23 -16.5 36.5t-45.5 13.5h-14l38 79h19l-29 -61q32 -3 50.5 -21t18.5 -47q0 -37 -27.5 -63t-71.5 -26z" />
    <glyph glyph-name="uni00B9" unicode="&#xb9;" horiz-adv-x="430" 
d="M238 337l79 396l7 -9h-135l4 18h145l-81 -405h-19zM103 327l4 18h272l-4 -18h-272z" />
    <glyph glyph-name="ordmasculine" unicode="&#xba;" horiz-adv-x="407" 
d="M247 432q-43 0 -75 16.5t-50 46t-18 69.5q0 51 24 91.5t66.5 64.5t97.5 24q43 0 74.5 -16.5t49.5 -46t18 -69.5q0 -50 -24 -91t-66 -65t-97 -24zM249 450q49 0 86 22t58.5 59t21.5 81q0 52 -34.5 83t-90.5 31q-49 0 -86.5 -22t-59 -58.5t-21.5 -81.5q0 -52 35 -83t91 -31
z" />
    <glyph glyph-name="guillemotright" unicode="&#xbb;" horiz-adv-x="423" 
d="M105 444l110 -185l-184 -185h-24l189 190l1 -12l-114 192h22zM255 444l110 -185l-184 -185h-24l189 190l1 -12l-114 192h22z" />
    <glyph glyph-name="onequarter" unicode="&#xbc;" horiz-adv-x="1020" 
d="M230 295l79 396l7 -9h-135l4 18h145l-81 -405h-19zM95 285l4 18h272l-4 -18h-272zM208 0l615 700h25l-615 -700h-25zM598 120l3 14l270 281h25l-271 -281l-12 4h347l-4 -18h-358zM812 0l24 120l4 18l21 105h19l-49 -243h-19z" />
    <glyph glyph-name="onehalf" unicode="&#xbd;" horiz-adv-x="1020" 
d="M230 295l79 396l7 -9h-135l4 18h145l-81 -405h-19zM95 285l4 18h272l-4 -18h-272zM208 0l615 700h25l-615 -700h-25zM590 0l3 14l231 170q43 32 65 55t30 42t8 39q0 38 -30.5 58.5t-86.5 20.5q-46 0 -83.5 -12.5t-65.5 -37.5l-11 14q29 27 70.5 40.5t90.5 13.5
q65 0 100 -26t35 -71q0 -22 -9 -44t-32 -46.5t-67 -56.5l-220 -162l-12 7h304l-4 -18h-316z" />
    <glyph glyph-name="threequarters" unicode="&#xbe;" horiz-adv-x="1020" 
d="M214 283q-55 0 -96.5 16.5t-61.5 41.5l14 13q20 -22 56.5 -37.5t88.5 -15.5q73 0 115 29t42 84q0 40 -29 62.5t-88 22.5h-37l3 15l186 175l3 -7h-281l4 18h299l-3 -14l-186 -175l-6 5h18q66 0 101 -27.5t35 -74.5q0 -41 -22 -70.5t-61.5 -45t-93.5 -15.5zM208 0l615 700
h25l-615 -700h-25zM598 120l3 14l270 281h25l-271 -281l-12 4h347l-4 -18h-358zM812 0l24 120l4 18l21 105h19l-49 -243h-19z" />
    <glyph glyph-name="questiondown" unicode="&#xbf;" horiz-adv-x="554" 
d="M226 -157q-59 0 -101.5 17t-64.5 49.5t-22 78.5t17 79t44 57.5t58 45.5t60.5 43t51.5 50t29 66h20q-8 -43 -30 -73t-51.5 -53t-60.5 -43t-58 -43t-44 -54t-17 -75q0 -60 44 -93t125 -33q77 0 132.5 21t98.5 64l13 -15q-44 -43 -104 -66t-140 -23zM341 468q-10 0 -18 8
t-8 18q0 7 3.5 13t9.5 9.5t13 3.5q11 0 18.5 -7.5t7.5 -18.5q0 -10 -7.5 -18t-18.5 -8z" />
    <glyph glyph-name="Agrave" unicode="&#xc0;" horiz-adv-x="688" 
d="M-43 0l465 700h20l185 -700h-21l-180 684h9l-454 -684h-24zM106 211l14 19h435l6 -19h-455zM458 757l-128 110h40l118 -110h-30z" />
    <glyph glyph-name="Aacute" unicode="&#xc1;" horiz-adv-x="688" 
d="M-43 0l465 700h20l185 -700h-21l-180 684h9l-454 -684h-24zM106 211l14 19h435l6 -19h-455zM397 757l152 110h42l-162 -110h-32z" />
    <glyph glyph-name="Acircumflex" unicode="&#xc2;" horiz-adv-x="688" 
d="M-43 0l465 700h20l185 -700h-21l-180 684h9l-454 -684h-24zM106 211l14 19h435l6 -19h-455zM305 757l134 110h32l110 -110h-25l-105 96h6l-123 -96h-29z" />
    <glyph glyph-name="Atilde" unicode="&#xc3;" horiz-adv-x="688" 
d="M-43 0l465 700h20l185 -700h-21l-180 684h9l-454 -684h-24zM106 211l14 19h435l6 -19h-455zM517 769q-22 0 -38 10.5t-29.5 24t-27 24t-31.5 10.5q-23 0 -39 -18t-21 -49h-19q5 39 27 62.5t53 23.5q22 0 37.5 -10.5t29 -24t27 -24t31.5 -10.5q23 0 40 18t21 47h19
q-6 -37 -27 -60.5t-53 -23.5z" />
    <glyph glyph-name="Adieresis" unicode="&#xc4;" horiz-adv-x="688" 
d="M-43 0l465 700h20l185 -700h-21l-180 684h9l-454 -684h-24zM106 211l14 19h435l6 -19h-455zM536 791q-10 0 -17.5 7t-7.5 17q0 11 8 19.5t19 8.5q10 0 17.5 -7t7.5 -17q0 -11 -8 -19.5t-19 -8.5zM372 791q-10 0 -17.5 7t-7.5 17q0 11 8 19.5t19 8.5q10 0 17.5 -7t7.5 -17
q0 -11 -8 -19.5t-19 -8.5z" />
    <glyph glyph-name="Aring" unicode="&#xc5;" horiz-adv-x="688" 
d="M-43 0l465 700h20l185 -700h-21l-180 684h9l-454 -684h-24zM106 211l14 19h435l6 -19h-455zM467 780q-27 0 -47.5 12.5t-32.5 33t-12 44.5q0 25 12 46t33 34t47 13q27 0 48 -13t33 -34t12 -46q0 -24 -12 -44.5t-33 -33t-48 -12.5zM467 799q32 0 52.5 21t20.5 50
q0 30 -20.5 52t-52.5 22q-31 0 -51.5 -21.5t-20.5 -52.5q0 -30 20 -50.5t52 -20.5z" />
    <glyph glyph-name="AE" unicode="&#xc6;" horiz-adv-x="1005" 
d="M-43 0l583 700h23l-4 -19h-22l16 4l-571 -685h-25zM143 211l14 19h312l-4 -19h-322zM418 0l140 700h451l-4 -19h-431l-132 -662h446l-4 -19h-466zM502 346l4 19h391l-4 -19h-391z" />
    <glyph glyph-name="Ccedilla" unicode="&#xc7;" horiz-adv-x="711" 
d="M386 -3q-102 0 -172 35.5t-106.5 99.5t-36.5 148t28.5 160t83 135.5t132.5 93.5t177 34q79 0 139.5 -23t95.5 -65l-14 -13q-36 41 -91.5 61.5t-131.5 20.5q-91 0 -165 -32t-126 -88t-80 -129t-28 -155q0 -78 33.5 -137.5t99.5 -93t164 -33.5q77 0 138.5 22.5t105.5 63.5
l12 -16q-43 -40 -111 -64.5t-147 -24.5zM317 -213q-22 0 -42.5 6.5t-35.5 20.5l14 15q12 -11 28 -17t37 -6q35 0 56 19.5t21 50.5q0 23 -16.5 36.5t-45.5 13.5h-14l38 79h19l-29 -61q32 -3 50.5 -21t18.5 -47q0 -37 -27.5 -63t-71.5 -26z" />
    <glyph glyph-name="Egrave" unicode="&#xc8;" horiz-adv-x="668" 
d="M169 365h391l-4 -19h-391zM105 19h446l-4 -19h-466l140 700h451l-4 -19h-431zM473 757l-128 110h40l118 -110h-30z" />
    <glyph glyph-name="Eacute" unicode="&#xc9;" horiz-adv-x="668" 
d="M169 365h391l-4 -19h-391zM105 19h446l-4 -19h-466l140 700h451l-4 -19h-431zM412 757l152 110h42l-162 -110h-32z" />
    <glyph glyph-name="Ecircumflex" unicode="&#xca;" horiz-adv-x="668" 
d="M169 365h391l-4 -19h-391zM105 19h446l-4 -19h-466l140 700h451l-4 -19h-431zM320 757l134 110h32l110 -110h-25l-105 96h6l-123 -96h-29z" />
    <glyph glyph-name="Edieresis" unicode="&#xcb;" horiz-adv-x="668" 
d="M169 365h391l-4 -19h-391zM105 19h446l-4 -19h-466l140 700h451l-4 -19h-431zM551 791q-10 0 -17.5 7t-7.5 17q0 11 8 19.5t19 8.5q10 0 17.5 -7t7.5 -17q0 -11 -8 -19.5t-19 -8.5zM387 791q-10 0 -17.5 7t-7.5 17q0 11 8 19.5t19 8.5q10 0 17.5 -7t7.5 -17
q0 -11 -8 -19.5t-19 -8.5z" />
    <glyph glyph-name="Igrave" unicode="&#xcc;" horiz-adv-x="286" 
d="M81 0l140 700h20l-140 -700h-20zM257 757l-128 110h40l118 -110h-30z" />
    <glyph glyph-name="Iacute" unicode="&#xcd;" horiz-adv-x="286" 
d="M81 0l140 700h20l-140 -700h-20zM196 757l152 110h42l-162 -110h-32z" />
    <glyph glyph-name="Icircumflex" unicode="&#xce;" horiz-adv-x="286" 
d="M81 0l140 700h20l-140 -700h-20zM104 757l134 110h32l110 -110h-25l-105 96h6l-123 -96h-29z" />
    <glyph glyph-name="Idieresis" unicode="&#xcf;" horiz-adv-x="286" 
d="M81 0l140 700h20l-140 -700h-20zM335 791q-10 0 -17.5 7t-7.5 17q0 11 8 19.5t19 8.5q10 0 17.5 -7t7.5 -17q0 -11 -8 -19.5t-19 -8.5zM171 791q-10 0 -17.5 7t-7.5 17q0 11 8 19.5t19 8.5q10 0 17.5 -7t7.5 -17q0 -11 -8 -19.5t-19 -8.5z" />
    <glyph glyph-name="Eth" unicode="&#xd0;" horiz-adv-x="826" 
d="M81 0l140 700h251q105 0 176.5 -35t108 -98t36.5 -147q0 -91 -30.5 -168t-87.5 -133.5t-137.5 -87.5t-180.5 -31h-276zM105 19h254q127 0 219.5 51.5t143.5 142t51 207.5q0 78 -33.5 137t-100.5 91.5t-169 32.5h-233zM37 346l4 19h360l-4 -19h-360z" />
    <glyph glyph-name="Ntilde" unicode="&#xd1;" horiz-adv-x="816" 
d="M81 0l140 700h17l386 -678l-8 3l135 675h20l-140 -700h-17l-386 678l8 -3l-135 -675h-20zM581 769q-22 0 -38 10.5t-29.5 24t-27 24t-31.5 10.5q-23 0 -39 -18t-21 -49h-19q5 39 27 62.5t53 23.5q22 0 37.5 -10.5t29 -24t27 -24t31.5 -10.5q23 0 40 18t21 47h19
q-6 -37 -27 -60.5t-53 -23.5z" />
    <glyph glyph-name="Ograve" unicode="&#xd2;" horiz-adv-x="836" 
d="M386 -3q-102 0 -172 35.5t-106.5 99.5t-36.5 148t28.5 160t82.5 135.5t131 93.5t174 34q102 0 172.5 -35.5t106.5 -99t36 -148.5q0 -84 -28.5 -160t-82.5 -135.5t-131 -93.5t-174 -34zM388 16q90 0 162.5 32t124 88t79.5 129t28 155q0 79 -33.5 138t-99.5 92.5t-164 33.5
q-90 0 -162.5 -32t-124 -88t-79.5 -129t-28 -155q0 -78 33.5 -137.5t99.5 -93t164 -33.5zM532 757l-128 110h40l118 -110h-30z" />
    <glyph glyph-name="Oacute" unicode="&#xd3;" horiz-adv-x="836" 
d="M386 -3q-102 0 -172 35.5t-106.5 99.5t-36.5 148t28.5 160t82.5 135.5t131 93.5t174 34q102 0 172.5 -35.5t106.5 -99t36 -148.5q0 -84 -28.5 -160t-82.5 -135.5t-131 -93.5t-174 -34zM388 16q90 0 162.5 32t124 88t79.5 129t28 155q0 79 -33.5 138t-99.5 92.5t-164 33.5
q-90 0 -162.5 -32t-124 -88t-79.5 -129t-28 -155q0 -78 33.5 -137.5t99.5 -93t164 -33.5zM471 757l152 110h42l-162 -110h-32z" />
    <glyph glyph-name="Ocircumflex" unicode="&#xd4;" horiz-adv-x="836" 
d="M386 -3q-102 0 -172 35.5t-106.5 99.5t-36.5 148t28.5 160t82.5 135.5t131 93.5t174 34q102 0 172.5 -35.5t106.5 -99t36 -148.5q0 -84 -28.5 -160t-82.5 -135.5t-131 -93.5t-174 -34zM388 16q90 0 162.5 32t124 88t79.5 129t28 155q0 79 -33.5 138t-99.5 92.5t-164 33.5
q-90 0 -162.5 -32t-124 -88t-79.5 -129t-28 -155q0 -78 33.5 -137.5t99.5 -93t164 -33.5zM379 757l134 110h32l110 -110h-25l-105 96h6l-123 -96h-29z" />
    <glyph glyph-name="Otilde" unicode="&#xd5;" horiz-adv-x="836" 
d="M386 -3q-102 0 -172 35.5t-106.5 99.5t-36.5 148t28.5 160t82.5 135.5t131 93.5t174 34q102 0 172.5 -35.5t106.5 -99t36 -148.5q0 -84 -28.5 -160t-82.5 -135.5t-131 -93.5t-174 -34zM388 16q90 0 162.5 32t124 88t79.5 129t28 155q0 79 -33.5 138t-99.5 92.5t-164 33.5
q-90 0 -162.5 -32t-124 -88t-79.5 -129t-28 -155q0 -78 33.5 -137.5t99.5 -93t164 -33.5zM591 769q-22 0 -38 10.5t-29.5 24t-27 24t-31.5 10.5q-23 0 -39 -18t-21 -49h-19q5 39 27 62.5t53 23.5q22 0 37.5 -10.5t29 -24t27 -24t31.5 -10.5q23 0 40 18t21 47h19
q-6 -37 -27 -60.5t-53 -23.5z" />
    <glyph glyph-name="Odieresis" unicode="&#xd6;" horiz-adv-x="836" 
d="M386 -3q-102 0 -172 35.5t-106.5 99.5t-36.5 148t28.5 160t82.5 135.5t131 93.5t174 34q102 0 172.5 -35.5t106.5 -99t36 -148.5q0 -84 -28.5 -160t-82.5 -135.5t-131 -93.5t-174 -34zM388 16q90 0 162.5 32t124 88t79.5 129t28 155q0 79 -33.5 138t-99.5 92.5t-164 33.5
q-90 0 -162.5 -32t-124 -88t-79.5 -129t-28 -155q0 -78 33.5 -137.5t99.5 -93t164 -33.5zM610 791q-10 0 -17.5 7t-7.5 17q0 11 8 19.5t19 8.5q10 0 17.5 -7t7.5 -17q0 -11 -8 -19.5t-19 -8.5zM446 791q-10 0 -17.5 7t-7.5 17q0 11 8 19.5t19 8.5q10 0 17.5 -7t7.5 -17
q0 -11 -8 -19.5t-19 -8.5z" />
    <glyph glyph-name="multiply" unicode="&#xd7;" horiz-adv-x="560" 
d="M134 212l316 290l12 -14l-316 -290zM165 489l14 13l252 -291l-14 -13z" />
    <glyph glyph-name="Oslash" unicode="&#xd8;" horiz-adv-x="836" 
d="M386 -3q-102 0 -172 35.5t-106.5 99.5t-36.5 148t28.5 160t82.5 135.5t131 93.5t174 34q102 0 172.5 -35.5t106.5 -99t36 -148.5q0 -84 -28.5 -160t-82.5 -135.5t-131 -93.5t-174 -34zM388 16q90 0 162.5 32t124 88t79.5 129t28 155q0 79 -33.5 138t-99.5 92.5t-164 33.5
q-90 0 -162.5 -32t-124 -88t-79.5 -129t-28 -155q0 -78 33.5 -137.5t99.5 -93t164 -33.5zM32 -70l781 840h25l-781 -840h-25z" />
    <glyph glyph-name="Ugrave" unicode="&#xd9;" horiz-adv-x="794" 
d="M354 -3q-93 0 -147.5 40.5t-72 107.5t-0.5 146l81 409h20l-82 -410q-11 -52 -6.5 -101t27.5 -88t68 -62t116 -23q87 0 146 32t94.5 90.5t51.5 136.5l85 425h20l-85 -426q-25 -129 -103 -203t-213 -74zM511 757l-128 110h40l118 -110h-30z" />
    <glyph glyph-name="Uacute" unicode="&#xda;" horiz-adv-x="794" 
d="M354 -3q-93 0 -147.5 40.5t-72 107.5t-0.5 146l81 409h20l-82 -410q-11 -52 -6.5 -101t27.5 -88t68 -62t116 -23q87 0 146 32t94.5 90.5t51.5 136.5l85 425h20l-85 -426q-25 -129 -103 -203t-213 -74zM450 757l152 110h42l-162 -110h-32z" />
    <glyph glyph-name="Ucircumflex" unicode="&#xdb;" horiz-adv-x="794" 
d="M354 -3q-93 0 -147.5 40.5t-72 107.5t-0.5 146l81 409h20l-82 -410q-11 -52 -6.5 -101t27.5 -88t68 -62t116 -23q87 0 146 32t94.5 90.5t51.5 136.5l85 425h20l-85 -426q-25 -129 -103 -203t-213 -74zM358 757l134 110h32l110 -110h-25l-105 96h6l-123 -96h-29z" />
    <glyph glyph-name="Udieresis" unicode="&#xdc;" horiz-adv-x="794" 
d="M354 -3q-93 0 -147.5 40.5t-72 107.5t-0.5 146l81 409h20l-82 -410q-11 -52 -6.5 -101t27.5 -88t68 -62t116 -23q87 0 146 32t94.5 90.5t51.5 136.5l85 425h20l-85 -426q-25 -129 -103 -203t-213 -74zM589 791q-10 0 -17.5 7t-7.5 17q0 11 8 19.5t19 8.5q10 0 17.5 -7
t7.5 -17q0 -11 -8 -19.5t-19 -8.5zM425 791q-10 0 -17.5 7t-7.5 17q0 11 8 19.5t19 8.5q10 0 17.5 -7t7.5 -17q0 -11 -8 -19.5t-19 -8.5z" />
    <glyph glyph-name="Yacute" unicode="&#xdd;" horiz-adv-x="610" 
d="M243 0l49 245l2 -15l-196 470h22l186 -447l-7 -1l364 448h25l-384 -472l8 17l-49 -245h-20zM358 757l152 110h42l-162 -110h-32z" />
    <glyph glyph-name="Thorn" unicode="&#xde;" horiz-adv-x="710" 
d="M120 139l4 19h228q142 0 220 64t78 191q0 80 -55 123.5t-158 43.5h-229l4 19h224q111 0 172.5 -48.5t61.5 -137.5q0 -90 -38.5 -151t-109.5 -92t-169 -31h-233zM81 0l140 700h20l-140 -700h-20z" />
    <glyph glyph-name="germandbls" unicode="&#xdf;" horiz-adv-x="651" 
d="M322 -3q-25 0 -56 4.5t-51 12.5l8 19q23 -9 50 -13t49 -4q74 0 129.5 26.5t86 75t30.5 115.5q0 71 -49.5 104.5t-127.5 33.5h-59l4 19q72 0 127.5 25t87.5 71.5t32 110.5q0 60 -39 94.5t-116 34.5q-91 0 -156 -50.5t-89 -169.5l-101 -506h-20l101 507q17 85 54.5 137
t91.5 76.5t120 24.5q54 0 93 -18t60 -51t21 -79q0 -61 -31 -110.5t-84 -78.5t-119 -29l26 8q58 0 101 -17.5t67.5 -51.5t24.5 -85q0 -72 -34 -125t-94 -82t-138 -29z" />
    <glyph glyph-name="agrave" unicode="&#xe0;" horiz-adv-x="671" 
d="M269 -3q-67 0 -116.5 25.5t-76.5 73t-27 111.5q0 67 21.5 124t60.5 99.5t92.5 66t117.5 23.5q69 0 117 -25t73.5 -71.5t25.5 -111.5q1 -89 -35.5 -160.5t-101.5 -113t-151 -41.5zM272 16q78 0 138.5 38t95.5 104.5t35 150.5q0 92 -53.5 142t-149.5 50q-77 0 -138 -38.5
t-96 -104.5t-35 -150q0 -91 53.5 -141.5t149.5 -50.5zM485 0l36 180l26 70l3 77l38 190h20l-103 -517h-20zM401 607l-128 110h40l118 -110h-30z" />
    <glyph glyph-name="aacute" unicode="&#xe1;" horiz-adv-x="671" 
d="M269 -3q-67 0 -116.5 25.5t-76.5 73t-27 111.5q0 67 21.5 124t60.5 99.5t92.5 66t117.5 23.5q69 0 117 -25t73.5 -71.5t25.5 -111.5q1 -89 -35.5 -160.5t-101.5 -113t-151 -41.5zM272 16q78 0 138.5 38t95.5 104.5t35 150.5q0 92 -53.5 142t-149.5 50q-77 0 -138 -38.5
t-96 -104.5t-35 -150q0 -91 53.5 -141.5t149.5 -50.5zM485 0l36 180l26 70l3 77l38 190h20l-103 -517h-20zM340 607l152 110h42l-162 -110h-32z" />
    <glyph glyph-name="acircumflex" unicode="&#xe2;" horiz-adv-x="671" 
d="M269 -3q-67 0 -116.5 25.5t-76.5 73t-27 111.5q0 67 21.5 124t60.5 99.5t92.5 66t117.5 23.5q69 0 117 -25t73.5 -71.5t25.5 -111.5q1 -89 -35.5 -160.5t-101.5 -113t-151 -41.5zM272 16q78 0 138.5 38t95.5 104.5t35 150.5q0 92 -53.5 142t-149.5 50q-77 0 -138 -38.5
t-96 -104.5t-35 -150q0 -91 53.5 -141.5t149.5 -50.5zM485 0l36 180l26 70l3 77l38 190h20l-103 -517h-20zM248 607l134 110h32l110 -110h-25l-105 96h6l-123 -96h-29z" />
    <glyph glyph-name="atilde" unicode="&#xe3;" horiz-adv-x="671" 
d="M269 -3q-67 0 -116.5 25.5t-76.5 73t-27 111.5q0 67 21.5 124t60.5 99.5t92.5 66t117.5 23.5q69 0 117 -25t73.5 -71.5t25.5 -111.5q1 -89 -35.5 -160.5t-101.5 -113t-151 -41.5zM272 16q78 0 138.5 38t95.5 104.5t35 150.5q0 92 -53.5 142t-149.5 50q-77 0 -138 -38.5
t-96 -104.5t-35 -150q0 -91 53.5 -141.5t149.5 -50.5zM485 0l36 180l26 70l3 77l38 190h20l-103 -517h-20zM460 619q-22 0 -38 10.5t-29.5 24t-27 24t-31.5 10.5q-23 0 -39 -18t-21 -49h-19q5 39 27 62.5t53 23.5q22 0 37.5 -10.5t29 -24t27 -24t31.5 -10.5q23 0 40 18
t21 47h19q-6 -37 -27 -60.5t-53 -23.5z" />
    <glyph glyph-name="adieresis" unicode="&#xe4;" horiz-adv-x="671" 
d="M269 -3q-67 0 -116.5 25.5t-76.5 73t-27 111.5q0 67 21.5 124t60.5 99.5t92.5 66t117.5 23.5q69 0 117 -25t73.5 -71.5t25.5 -111.5q1 -89 -35.5 -160.5t-101.5 -113t-151 -41.5zM272 16q78 0 138.5 38t95.5 104.5t35 150.5q0 92 -53.5 142t-149.5 50q-77 0 -138 -38.5
t-96 -104.5t-35 -150q0 -91 53.5 -141.5t149.5 -50.5zM485 0l36 180l26 70l3 77l38 190h20l-103 -517h-20zM479 641q-10 0 -17.5 7t-7.5 17q0 11 8 19.5t19 8.5q10 0 17.5 -7t7.5 -17q0 -11 -8 -19.5t-19 -8.5zM315 641q-10 0 -17.5 7t-7.5 17q0 11 8 19.5t19 8.5
q10 0 17.5 -7t7.5 -17q0 -11 -8 -19.5t-19 -8.5z" />
    <glyph glyph-name="aring" unicode="&#xe5;" horiz-adv-x="671" 
d="M269 -3q-67 0 -116.5 25.5t-76.5 73t-27 111.5q0 67 21.5 124t60.5 99.5t92.5 66t117.5 23.5q69 0 117 -25t73.5 -71.5t25.5 -111.5q1 -89 -35.5 -160.5t-101.5 -113t-151 -41.5zM272 16q78 0 138.5 38t95.5 104.5t35 150.5q0 92 -53.5 142t-149.5 50q-77 0 -138 -38.5
t-96 -104.5t-35 -150q0 -91 53.5 -141.5t149.5 -50.5zM485 0l36 180l26 70l3 77l38 190h20l-103 -517h-20zM403 597q-27 0 -47.5 12.5t-32.5 33t-12 44.5q0 25 12 46t33 34t47 13q27 0 48 -13t33 -34t12 -46q0 -24 -12 -44.5t-33 -33t-48 -12.5zM403 616q32 0 52.5 21
t20.5 50q0 30 -20.5 52t-52.5 22q-31 0 -51.5 -21.5t-20.5 -52.5q0 -30 20 -50.5t52 -20.5z" />
    <glyph glyph-name="ae" unicode="&#xe6;" horiz-adv-x="983" 
d="M206 -3q-52 0 -89 15t-57 43t-20 67q0 74 56.5 116t155.5 42h203l-4 -19h-199q-91 0 -141.5 -36.5t-50.5 -101.5q0 -52 38 -79.5t110 -27.5q54 0 100.5 21.5t79.5 63t45 101.5l26 129q17 84 -17 127t-120 43q-55 0 -106.5 -19.5t-87.5 -51.5l-12 14q26 24 60 41t71.5 26
t75.5 9q92 0 131 -46t27 -124l-6 9q25 51 62.5 87t84 55t98.5 19q66 0 113.5 -25t73 -72t25.5 -113q0 -13 -2 -26t-4 -23h-465l4 19h454l-10 -13q12 76 -9.5 128t-68.5 79t-112 27q-72 0 -130.5 -38t-92.5 -103.5t-34 -149.5q0 -94 54 -144t157 -50q58 0 106 20.5t80 56.5
l13 -13q-33 -37 -85.5 -60t-115.5 -23q-66 0 -115.5 21.5t-78.5 64.5t-34 106l6 -2q-17 -67 -55 -109t-87 -61.5t-101 -19.5z" />
    <glyph glyph-name="ccedilla" unicode="&#xe7;" horiz-adv-x="545" 
d="M274 -3q-70 0 -120.5 25.5t-77.5 73t-27 111.5q0 91 38 161.5t104 111t151 40.5q65 0 112.5 -22t72.5 -65l-15 -12q-26 41 -69 60.5t-102 19.5q-79 0 -140.5 -38.5t-96.5 -104.5t-35 -150q0 -91 54 -141.5t154 -50.5q56 0 104 20.5t79 57.5l12 -14q-32 -40 -85 -61.5
t-113 -21.5zM235 -216q-22 0 -42.5 6.5t-35.5 20.5l14 15q12 -11 28 -17t37 -6q35 0 56 19.5t21 50.5q0 23 -16.5 36.5t-45.5 13.5h-14l38 79h19l-29 -61q32 -3 50.5 -21t18.5 -47q0 -37 -27.5 -63t-71.5 -26z" />
    <glyph glyph-name="egrave" unicode="&#xe8;" horiz-adv-x="589" 
d="M278 -3q-71 0 -122.5 25t-78.5 72.5t-27 115.5q0 88 36 158t98.5 111t141.5 41q66 0 113 -25t72.5 -72t25.5 -113q0 -13 -1.5 -26.5t-3.5 -24.5h-466l4 19h453l-8 -11q12 76 -10 128t-68.5 79t-110.5 27q-73 0 -131.5 -38t-92 -103.5t-33.5 -149.5q0 -94 54 -144t156 -50
q59 0 108 20.5t80 56.5l12 -13q-31 -37 -84.5 -60t-116.5 -23zM372 607l-128 110h40l118 -110h-30z" />
    <glyph glyph-name="eacute" unicode="&#xe9;" horiz-adv-x="589" 
d="M278 -3q-71 0 -122.5 25t-78.5 72.5t-27 115.5q0 88 36 158t98.5 111t141.5 41q66 0 113 -25t72.5 -72t25.5 -113q0 -13 -1.5 -26.5t-3.5 -24.5h-466l4 19h453l-8 -11q12 76 -10 128t-68.5 79t-110.5 27q-73 0 -131.5 -38t-92 -103.5t-33.5 -149.5q0 -94 54 -144t156 -50
q59 0 108 20.5t80 56.5l12 -13q-31 -37 -84.5 -60t-116.5 -23zM311 607l152 110h42l-162 -110h-32z" />
    <glyph glyph-name="ecircumflex" unicode="&#xea;" horiz-adv-x="589" 
d="M278 -3q-71 0 -122.5 25t-78.5 72.5t-27 115.5q0 88 36 158t98.5 111t141.5 41q66 0 113 -25t72.5 -72t25.5 -113q0 -13 -1.5 -26.5t-3.5 -24.5h-466l4 19h453l-8 -11q12 76 -10 128t-68.5 79t-110.5 27q-73 0 -131.5 -38t-92 -103.5t-33.5 -149.5q0 -94 54 -144t156 -50
q59 0 108 20.5t80 56.5l12 -13q-31 -37 -84.5 -60t-116.5 -23zM219 607l134 110h32l110 -110h-25l-105 96h6l-123 -96h-29z" />
    <glyph glyph-name="edieresis" unicode="&#xeb;" horiz-adv-x="589" 
d="M278 -3q-71 0 -122.5 25t-78.5 72.5t-27 115.5q0 88 36 158t98.5 111t141.5 41q66 0 113 -25t72.5 -72t25.5 -113q0 -13 -1.5 -26.5t-3.5 -24.5h-466l4 19h453l-8 -11q12 76 -10 128t-68.5 79t-110.5 27q-73 0 -131.5 -38t-92 -103.5t-33.5 -149.5q0 -94 54 -144t156 -50
q59 0 108 20.5t80 56.5l12 -13q-31 -37 -84.5 -60t-116.5 -23zM450 641q-10 0 -17.5 7t-7.5 17q0 11 8 19.5t19 8.5q10 0 17.5 -7t7.5 -17q0 -11 -8 -19.5t-19 -8.5zM286 641q-10 0 -17.5 7t-7.5 17q0 11 8 19.5t19 8.5q10 0 17.5 -7t7.5 -17q0 -11 -8 -19.5t-19 -8.5z" />
    <glyph glyph-name="igrave" unicode="&#xec;" horiz-adv-x="250" 
d="M63 0l103 517h20l-103 -517h-20zM209 607l-128 110h40l118 -110h-30z" />
    <glyph glyph-name="iacute" unicode="&#xed;" horiz-adv-x="250" 
d="M63 0l103 517h20l-103 -517h-20zM148 607l152 110h42l-162 -110h-32z" />
    <glyph glyph-name="icircumflex" unicode="&#xee;" horiz-adv-x="250" 
d="M63 0l103 517h20l-103 -517h-20zM81 607l110 110h30l86 -110h-26l-78 96h4l-98 -96h-28z" />
    <glyph glyph-name="idieresis" unicode="&#xef;" horiz-adv-x="250" 
d="M63 0l103 517h20l-103 -517h-20zM260 641q-10 0 -16.5 7t-6.5 17q0 11 8 19.5t19 8.5q10 0 16.5 -7t6.5 -17q0 -11 -8 -19.5t-19 -8.5zM148 641q-10 0 -16.5 7t-6.5 17q0 11 8 19.5t19 8.5q10 0 16.5 -7t6.5 -17q0 -11 -8 -19.5t-19 -8.5z" />
    <glyph glyph-name="eth" unicode="&#xf0;" horiz-adv-x="618" 
d="M248 -3q-63 0 -109.5 22.5t-71.5 64t-25 96.5q0 76 36 132t98.5 87t141.5 31q71 0 120.5 -29t71.5 -81t9 -121l-5 6q32 55 45 120t13 123q0 119 -63 177.5t-176 58.5q-38 0 -76.5 -6t-66.5 -17l-4 18q26 11 66.5 17.5t79.5 6.5q80 0 138.5 -28t90 -84.5t31.5 -140.5
q0 -60 -13.5 -123t-41 -122t-69 -106t-96.5 -74.5t-124 -27.5zM251 16q47 0 92.5 17.5t82 49.5t58.5 73.5t22 89.5q0 77 -50.5 121t-137.5 44q-75 0 -133 -29t-90.5 -80.5t-32.5 -120.5q0 -77 49.5 -121t139.5 -44zM201 521l-7 18l397 163l8 -18z" />
    <glyph glyph-name="ntilde" unicode="&#xf1;" horiz-adv-x="668" 
d="M393 520q72 0 115 -27.5t58 -76t2 -111.5l-61 -305h-20l61 305q18 91 -21.5 143.5t-135.5 52.5q-98 0 -164 -54.5t-87 -159.5l-57 -287h-20l103 517h20l-30 -150l-10 -5q37 83 101 120.5t146 37.5zM478 619q-22 0 -38 10.5t-29.5 24t-27 24t-31.5 10.5q-23 0 -39 -18
t-21 -49h-19q5 39 27 62.5t53 23.5q22 0 37.5 -10.5t29 -24t27 -24t31.5 -10.5q23 0 40 18t21 47h19q-6 -37 -27 -60.5t-53 -23.5z" />
    <glyph glyph-name="ograve" unicode="&#xf2;" horiz-adv-x="610" 
d="M269 -3q-67 0 -116.5 25.5t-76.5 73t-27 111.5q0 90 37.5 160.5t103.5 111.5t151 41q68 0 117 -25.5t76 -72.5t27 -112q0 -90 -37.5 -160.5t-103.5 -111.5t-151 -41zM272 16q78 0 138.5 38t95.5 104.5t35 150.5q0 92 -53.5 142t-149.5 50q-77 0 -138 -38.5t-96 -104.5
t-35 -150q0 -91 53.5 -141.5t149.5 -50.5zM389 607l-128 110h40l118 -110h-30z" />
    <glyph glyph-name="oacute" unicode="&#xf3;" horiz-adv-x="610" 
d="M269 -3q-67 0 -116.5 25.5t-76.5 73t-27 111.5q0 90 37.5 160.5t103.5 111.5t151 41q68 0 117 -25.5t76 -72.5t27 -112q0 -90 -37.5 -160.5t-103.5 -111.5t-151 -41zM272 16q78 0 138.5 38t95.5 104.5t35 150.5q0 92 -53.5 142t-149.5 50q-77 0 -138 -38.5t-96 -104.5
t-35 -150q0 -91 53.5 -141.5t149.5 -50.5zM328 607l152 110h42l-162 -110h-32z" />
    <glyph glyph-name="ocircumflex" unicode="&#xf4;" horiz-adv-x="610" 
d="M269 -3q-67 0 -116.5 25.5t-76.5 73t-27 111.5q0 90 37.5 160.5t103.5 111.5t151 41q68 0 117 -25.5t76 -72.5t27 -112q0 -90 -37.5 -160.5t-103.5 -111.5t-151 -41zM272 16q78 0 138.5 38t95.5 104.5t35 150.5q0 92 -53.5 142t-149.5 50q-77 0 -138 -38.5t-96 -104.5
t-35 -150q0 -91 53.5 -141.5t149.5 -50.5zM236 607l134 110h32l110 -110h-25l-105 96h6l-123 -96h-29z" />
    <glyph glyph-name="otilde" unicode="&#xf5;" horiz-adv-x="610" 
d="M269 -3q-67 0 -116.5 25.5t-76.5 73t-27 111.5q0 90 37.5 160.5t103.5 111.5t151 41q68 0 117 -25.5t76 -72.5t27 -112q0 -90 -37.5 -160.5t-103.5 -111.5t-151 -41zM272 16q78 0 138.5 38t95.5 104.5t35 150.5q0 92 -53.5 142t-149.5 50q-77 0 -138 -38.5t-96 -104.5
t-35 -150q0 -91 53.5 -141.5t149.5 -50.5zM448 619q-22 0 -38 10.5t-29.5 24t-27 24t-31.5 10.5q-23 0 -39 -18t-21 -49h-19q5 39 27 62.5t53 23.5q22 0 37.5 -10.5t29 -24t27 -24t31.5 -10.5q23 0 40 18t21 47h19q-6 -37 -27 -60.5t-53 -23.5z" />
    <glyph glyph-name="odieresis" unicode="&#xf6;" horiz-adv-x="610" 
d="M269 -3q-67 0 -116.5 25.5t-76.5 73t-27 111.5q0 90 37.5 160.5t103.5 111.5t151 41q68 0 117 -25.5t76 -72.5t27 -112q0 -90 -37.5 -160.5t-103.5 -111.5t-151 -41zM272 16q78 0 138.5 38t95.5 104.5t35 150.5q0 92 -53.5 142t-149.5 50q-77 0 -138 -38.5t-96 -104.5
t-35 -150q0 -91 53.5 -141.5t149.5 -50.5zM467 641q-10 0 -17.5 7t-7.5 17q0 11 8 19.5t19 8.5q10 0 17.5 -7t7.5 -17q0 -11 -8 -19.5t-19 -8.5zM303 641q-10 0 -17.5 7t-7.5 17q0 11 8 19.5t19 8.5q10 0 17.5 -7t7.5 -17q0 -11 -8 -19.5t-19 -8.5z" />
    <glyph glyph-name="divide" unicode="&#xf7;" horiz-adv-x="560" 
d="M91 340l4 19h411l-4 -19h-411zM262 144q-10 0 -18 8t-8 18q0 11 8 18.5t18 7.5q11 0 18.5 -7.5t7.5 -18.5q0 -10 -7.5 -18t-18.5 -8zM334 504q-10 0 -18 8t-8 18q0 11 8 18.5t18 7.5q11 0 18.5 -7.5t7.5 -18.5q0 -10 -7.5 -18t-18.5 -8z" />
    <glyph glyph-name="oslash" unicode="&#xf8;" horiz-adv-x="610" 
d="M269 -3q-67 0 -116.5 25.5t-76.5 73t-27 111.5q0 90 37.5 160.5t103.5 111.5t151 41q68 0 117 -25.5t76 -72.5t27 -112q0 -90 -37.5 -160.5t-103.5 -111.5t-151 -41zM272 16q78 0 138.5 38t95.5 104.5t35 150.5q0 92 -53.5 142t-149.5 50q-77 0 -138 -38.5t-96 -104.5
t-35 -150q0 -91 53.5 -141.5t149.5 -50.5zM4 -69l575 657h25l-575 -657h-25z" />
    <glyph glyph-name="ugrave" unicode="&#xf9;" horiz-adv-x="664" 
d="M273 -3q-71 0 -113.5 27.5t-57 76t-2.5 111.5l61 305h20l-61 -305q-18 -91 21 -143.5t134 -52.5q98 0 163 54.5t86 159.5l57 287h20l-103 -517h-20l30 150l10 5q-37 -82 -100.5 -120t-144.5 -38zM414 607l-128 110h40l118 -110h-30z" />
    <glyph glyph-name="uacute" unicode="&#xfa;" horiz-adv-x="664" 
d="M273 -3q-71 0 -113.5 27.5t-57 76t-2.5 111.5l61 305h20l-61 -305q-18 -91 21 -143.5t134 -52.5q98 0 163 54.5t86 159.5l57 287h20l-103 -517h-20l30 150l10 5q-37 -82 -100.5 -120t-144.5 -38zM353 607l152 110h42l-162 -110h-32z" />
    <glyph glyph-name="ucircumflex" unicode="&#xfb;" horiz-adv-x="664" 
d="M273 -3q-71 0 -113.5 27.5t-57 76t-2.5 111.5l61 305h20l-61 -305q-18 -91 21 -143.5t134 -52.5q98 0 163 54.5t86 159.5l57 287h20l-103 -517h-20l30 150l10 5q-37 -82 -100.5 -120t-144.5 -38zM261 607l134 110h32l110 -110h-25l-105 96h6l-123 -96h-29z" />
    <glyph glyph-name="udieresis" unicode="&#xfc;" horiz-adv-x="664" 
d="M273 -3q-71 0 -113.5 27.5t-57 76t-2.5 111.5l61 305h20l-61 -305q-18 -91 21 -143.5t134 -52.5q98 0 163 54.5t86 159.5l57 287h20l-103 -517h-20l30 150l10 5q-37 -82 -100.5 -120t-144.5 -38zM492 641q-10 0 -17.5 7t-7.5 17q0 11 8 19.5t19 8.5q10 0 17.5 -7t7.5 -17
q0 -11 -8 -19.5t-19 -8.5zM328 641q-10 0 -17.5 7t-7.5 17q0 11 8 19.5t19 8.5q10 0 17.5 -7t7.5 -17q0 -11 -8 -19.5t-19 -8.5z" />
    <glyph glyph-name="yacute" unicode="&#xfd;" horiz-adv-x="508" 
d="M-3 -197q-33 0 -62.5 12t-46.5 34l16 15q17 -22 41 -32t55 -10q36 0 68 20.5t69 76.5l58 88l6 7l329 503h24l-399 -607q-28 -41 -52.5 -64.5t-50 -33t-55.5 -9.5zM196 -11l-138 528h21l130 -503zM262 607l152 110h42l-162 -110h-32z" />
    <glyph glyph-name="thorn" unicode="&#xfe;" horiz-adv-x="671" 
d="M24 -194l187 936h20l-81 -405l-26 -70l-3 -77l-77 -384h-20zM330 -3q-69 0 -117 25t-73 71.5t-26 111.5q0 90 36 161t101.5 112.5t150.5 41.5q68 0 117 -25.5t76 -72.5t27 -112q0 -67 -21.5 -124t-60.5 -99.5t-92.5 -66t-117.5 -23.5zM333 16q78 0 138.5 38t95.5 104.5
t35 150.5q0 92 -53.5 142t-149.5 50q-77 0 -138 -38t-96 -104t-35 -151q0 -91 53.5 -141.5t149.5 -50.5z" />
    <glyph glyph-name="ydieresis" unicode="&#xff;" horiz-adv-x="508" 
d="M-3 -197q-33 0 -62.5 12t-46.5 34l16 15q17 -22 41 -32t55 -10q36 0 68 20.5t69 76.5l58 88l6 7l329 503h24l-399 -607q-28 -41 -52.5 -64.5t-50 -33t-55.5 -9.5zM196 -11l-138 528h21l130 -503zM401 641q-10 0 -17.5 7t-7.5 17q0 11 8 19.5t19 8.5q10 0 17.5 -7t7.5 -17
q0 -11 -8 -19.5t-19 -8.5zM237 641q-10 0 -17.5 7t-7.5 17q0 11 8 19.5t19 8.5q10 0 17.5 -7t7.5 -17q0 -11 -8 -19.5t-19 -8.5z" />
    <glyph glyph-name="Amacron" unicode="&#x100;" horiz-adv-x="688" 
d="M-43 0l465 700h20l185 -700h-21l-180 684h9l-454 -684h-24zM106 211l14 19h435l6 -19h-455zM316 802l4 20h272l-4 -20h-272z" />
    <glyph glyph-name="amacron" unicode="&#x101;" horiz-adv-x="671" 
d="M269 -3q-67 0 -116.5 25.5t-76.5 73t-27 111.5q0 67 21.5 124t60.5 99.5t92.5 66t117.5 23.5q69 0 117 -25t73.5 -71.5t25.5 -111.5q1 -89 -35.5 -160.5t-101.5 -113t-151 -41.5zM272 16q78 0 138.5 38t95.5 104.5t35 150.5q0 92 -53.5 142t-149.5 50q-77 0 -138 -38.5
t-96 -104.5t-35 -150q0 -91 53.5 -141.5t149.5 -50.5zM485 0l36 180l26 70l3 77l38 190h20l-103 -517h-20zM259 652l4 20h272l-4 -20h-272z" />
    <glyph glyph-name="Abreve" unicode="&#x102;" horiz-adv-x="688" 
d="M-43 0l465 700h20l185 -700h-21l-180 684h9l-454 -684h-24zM106 211l14 19h435l6 -19h-455zM454 754q-36 0 -64.5 14t-44.5 39.5t-13 59.5h19q-3 -43 26.5 -68.5t77.5 -25.5q45 0 80.5 25t41.5 69h19q-7 -52 -47.5 -82.5t-94.5 -30.5z" />
    <glyph glyph-name="abreve" unicode="&#x103;" horiz-adv-x="671" 
d="M269 -3q-67 0 -116.5 25.5t-76.5 73t-27 111.5q0 67 21.5 124t60.5 99.5t92.5 66t117.5 23.5q69 0 117 -25t73.5 -71.5t25.5 -111.5q1 -89 -35.5 -160.5t-101.5 -113t-151 -41.5zM272 16q78 0 138.5 38t95.5 104.5t35 150.5q0 92 -53.5 142t-149.5 50q-77 0 -138 -38.5
t-96 -104.5t-35 -150q0 -91 53.5 -141.5t149.5 -50.5zM485 0l36 180l26 70l3 77l38 190h20l-103 -517h-20zM397 604q-36 0 -64.5 14t-44.5 39.5t-13 59.5h19q-3 -43 26.5 -68.5t77.5 -25.5q45 0 80.5 25t41.5 69h19q-7 -52 -47.5 -82.5t-94.5 -30.5z" />
    <glyph glyph-name="Aogonek" unicode="&#x104;" horiz-adv-x="688" 
d="M-43 0l465 700h20l185 -700h-21l-180 684h9l-454 -684h-24zM106 211l14 19h435l6 -19h-455zM528 -213q-34 0 -55 18.5t-21 50.5q0 30 17 57.5t54.5 53.5t96.5 49l7 -16q-52 -20 -86.5 -43t-51.5 -47.5t-17 -51.5q0 -25 15 -38.5t42 -13.5q19 0 37.5 6.5t33.5 18.5l8 -17
q-17 -13 -37.5 -20t-42.5 -7z" />
    <glyph glyph-name="aogonek" unicode="&#x105;" horiz-adv-x="671" 
d="M269 -3q-67 0 -116.5 25.5t-76.5 73t-27 111.5q0 67 21.5 124t60.5 99.5t92.5 66t117.5 23.5q69 0 117 -25t73.5 -71.5t25.5 -111.5q1 -89 -35.5 -160.5t-101.5 -113t-151 -41.5zM272 16q78 0 138.5 38t95.5 104.5t35 150.5q0 92 -53.5 142t-149.5 50q-77 0 -138 -38.5
t-96 -104.5t-35 -150q0 -91 53.5 -141.5t149.5 -50.5zM485 0l36 180l26 70l3 77l38 190h20l-103 -517h-20zM405 -213q-34 0 -55 18.5t-21 50.5q0 30 17 57.5t54.5 53.5t96.5 49l7 -16q-52 -20 -86.5 -43t-51.5 -47.5t-17 -51.5q0 -25 15 -38.5t42 -13.5q19 0 37.5 6.5
t33.5 18.5l8 -17q-17 -13 -37.5 -20t-42.5 -7z" />
    <glyph glyph-name="Cacute" unicode="&#x106;" horiz-adv-x="711" 
d="M386 -3q-102 0 -172 35.5t-106.5 99.5t-36.5 148t28.5 160t83 135.5t132.5 93.5t177 34q79 0 139.5 -23t95.5 -65l-14 -13q-36 41 -91.5 61.5t-131.5 20.5q-91 0 -165 -32t-126 -88t-80 -129t-28 -155q0 -78 33.5 -137.5t99.5 -93t164 -33.5q77 0 138.5 22.5t105.5 63.5
l12 -16q-43 -40 -111 -64.5t-147 -24.5zM460 757l152 110h42l-162 -110h-32z" />
    <glyph glyph-name="cacute" unicode="&#x107;" horiz-adv-x="545" 
d="M274 -3q-70 0 -120.5 25.5t-77.5 73t-27 111.5q0 91 38 161.5t104 111t151 40.5q65 0 112.5 -22t72.5 -65l-15 -12q-26 41 -69 60.5t-102 19.5q-79 0 -140.5 -38.5t-96.5 -104.5t-35 -150q0 -91 54 -141.5t154 -50.5q56 0 104 20.5t79 57.5l12 -14q-32 -40 -85 -61.5
t-113 -21.5zM314 607l152 110h42l-162 -110h-32z" />
    <glyph glyph-name="Ccircumflex" unicode="&#x108;" horiz-adv-x="711" 
d="M386 -3q-102 0 -172 35.5t-106.5 99.5t-36.5 148t28.5 160t83 135.5t132.5 93.5t177 34q79 0 139.5 -23t95.5 -65l-14 -13q-36 41 -91.5 61.5t-131.5 20.5q-91 0 -165 -32t-126 -88t-80 -129t-28 -155q0 -78 33.5 -137.5t99.5 -93t164 -33.5q77 0 138.5 22.5t105.5 63.5
l12 -16q-43 -40 -111 -64.5t-147 -24.5zM368 757l134 110h32l110 -110h-25l-105 96h6l-123 -96h-29z" />
    <glyph glyph-name="ccircumflex" unicode="&#x109;" horiz-adv-x="545" 
d="M274 -3q-70 0 -120.5 25.5t-77.5 73t-27 111.5q0 91 38 161.5t104 111t151 40.5q65 0 112.5 -22t72.5 -65l-15 -12q-26 41 -69 60.5t-102 19.5q-79 0 -140.5 -38.5t-96.5 -104.5t-35 -150q0 -91 54 -141.5t154 -50.5q56 0 104 20.5t79 57.5l12 -14q-32 -40 -85 -61.5
t-113 -21.5zM222 607l134 110h32l110 -110h-25l-105 96h6l-123 -96h-29z" />
    <glyph glyph-name="Cdotaccent" unicode="&#x10a;" horiz-adv-x="711" 
d="M386 -3q-102 0 -172 35.5t-106.5 99.5t-36.5 148t28.5 160t83 135.5t132.5 93.5t177 34q79 0 139.5 -23t95.5 -65l-14 -13q-36 41 -91.5 61.5t-131.5 20.5q-91 0 -165 -32t-126 -88t-80 -129t-28 -155q0 -78 33.5 -137.5t99.5 -93t164 -33.5q77 0 138.5 22.5t105.5 63.5
l12 -16q-43 -40 -111 -64.5t-147 -24.5zM517 791q-10 0 -17.5 7t-7.5 17q0 11 8 19.5t19 8.5q10 0 17.5 -7t7.5 -17q0 -11 -8 -19.5t-19 -8.5z" />
    <glyph glyph-name="cdotaccent" unicode="&#x10b;" horiz-adv-x="545" 
d="M274 -3q-70 0 -120.5 25.5t-77.5 73t-27 111.5q0 91 38 161.5t104 111t151 40.5q65 0 112.5 -22t72.5 -65l-15 -12q-26 41 -69 60.5t-102 19.5q-79 0 -140.5 -38.5t-96.5 -104.5t-35 -150q0 -91 54 -141.5t154 -50.5q56 0 104 20.5t79 57.5l12 -14q-32 -40 -85 -61.5
t-113 -21.5zM371 641q-10 0 -17.5 7t-7.5 17q0 11 8 19.5t19 8.5q10 0 17.5 -7t7.5 -17q0 -11 -8 -19.5t-19 -8.5z" />
    <glyph glyph-name="Ccaron" unicode="&#x10c;" horiz-adv-x="711" 
d="M386 -3q-102 0 -172 35.5t-106.5 99.5t-36.5 148t28.5 160t83 135.5t132.5 93.5t177 34q79 0 139.5 -23t95.5 -65l-14 -13q-36 41 -91.5 61.5t-131.5 20.5q-91 0 -165 -32t-126 -88t-80 -129t-28 -155q0 -78 33.5 -137.5t99.5 -93t164 -33.5q77 0 138.5 22.5t105.5 63.5
l12 -16q-43 -40 -111 -64.5t-147 -24.5zM500 757l-110 110h25l105 -96h-6l123 96h29l-134 -110h-32z" />
    <glyph glyph-name="ccaron" unicode="&#x10d;" horiz-adv-x="545" 
d="M274 -3q-70 0 -120.5 25.5t-77.5 73t-27 111.5q0 91 38 161.5t104 111t151 40.5q65 0 112.5 -22t72.5 -65l-15 -12q-26 41 -69 60.5t-102 19.5q-79 0 -140.5 -38.5t-96.5 -104.5t-35 -150q0 -91 54 -141.5t154 -50.5q56 0 104 20.5t79 57.5l12 -14q-32 -40 -85 -61.5
t-113 -21.5zM354 607l-110 110h25l105 -96h-6l123 96h29l-134 -110h-32z" />
    <glyph glyph-name="Dcaron" unicode="&#x10e;" horiz-adv-x="826" 
d="M81 0l140 700h251q105 0 176.5 -35t108 -98t36.5 -147q0 -91 -30.5 -168t-87.5 -133.5t-137.5 -87.5t-180.5 -31h-276zM105 19h254q127 0 219.5 51.5t143.5 142t51 207.5q0 78 -33.5 137t-100.5 91.5t-169 32.5h-233zM484 756l-110 110h25l105 -96h-6l123 96h29
l-134 -110h-32z" />
    <glyph glyph-name="dcaron" unicode="&#x10f;" horiz-adv-x="671" 
d="M269 -3q-67 0 -116.5 25.5t-76.5 73t-27 111.5q0 67 21.5 124t60.5 99.5t92.5 66t117.5 23.5q69 0 117 -25t73.5 -71.5t25.5 -111.5q0 -67 -20.5 -124.5t-59 -100t-91.5 -66.5t-117 -24zM272 16q78 0 138.5 38t95.5 104.5t35 150.5q0 92 -53.5 142t-149.5 50
q-77 0 -138 -38.5t-96 -104.5t-35 -150q0 -91 53.5 -141.5t149.5 -50.5zM485 0l36 180l26 70l3 77l83 415h20l-148 -742h-20zM720 582l36 180h20l-38 -180h-18z" />
    <glyph glyph-name="Dcroat" unicode="&#x110;" horiz-adv-x="826" 
d="M81 0l140 700h251q105 0 176.5 -35t108 -98t36.5 -147q0 -91 -30.5 -168t-87.5 -133.5t-137.5 -87.5t-180.5 -31h-276zM105 19h254q127 0 219.5 51.5t143.5 142t51 207.5q0 78 -33.5 137t-100.5 91.5t-169 32.5h-233zM37 346l4 19h360l-4 -19h-360z" />
    <glyph glyph-name="dcroat" unicode="&#x111;" horiz-adv-x="671" 
d="M269 -3q-67 0 -116.5 25.5t-76.5 73t-27 111.5q0 67 21.5 124t60.5 99.5t92.5 66t117.5 23.5q69 0 117 -25t73.5 -71.5t25.5 -111.5q0 -67 -20.5 -124.5t-59 -100t-91.5 -66.5t-117 -24zM272 16q78 0 138.5 38t95.5 104.5t35 150.5q0 92 -53.5 142t-149.5 50
q-77 0 -138 -38.5t-96 -104.5t-35 -150q0 -91 53.5 -141.5t149.5 -50.5zM485 0l36 180l26 70l3 77l83 415h20l-148 -742h-20zM365 621l4 19h378l-4 -19h-378z" />
    <glyph glyph-name="Emacron" unicode="&#x112;" horiz-adv-x="668" 
d="M169 365h391l-4 -19h-391zM105 19h446l-4 -19h-466l140 700h451l-4 -19h-431zM331 802l4 20h272l-4 -20h-272z" />
    <glyph glyph-name="emacron" unicode="&#x113;" horiz-adv-x="589" 
d="M278 -3q-71 0 -122.5 25t-78.5 72.5t-27 115.5q0 88 36 158t98.5 111t141.5 41q66 0 113 -25t72.5 -72t25.5 -113q0 -13 -1.5 -26.5t-3.5 -24.5h-466l4 19h453l-8 -11q12 76 -10 128t-68.5 79t-110.5 27q-73 0 -131.5 -38t-92 -103.5t-33.5 -149.5q0 -94 54 -144t156 -50
q59 0 108 20.5t80 56.5l12 -13q-31 -37 -84.5 -60t-116.5 -23zM230 652l4 20h272l-4 -20h-272z" />
    <glyph glyph-name="Ebreve" unicode="&#x114;" horiz-adv-x="668" 
d="M169 365h391l-4 -19h-391zM105 19h446l-4 -19h-466l140 700h451l-4 -19h-431zM469 754q-36 0 -64.5 14t-44.5 39.5t-13 59.5h19q-3 -43 26.5 -68.5t77.5 -25.5q45 0 80.5 25t41.5 69h19q-7 -52 -47.5 -82.5t-94.5 -30.5z" />
    <glyph glyph-name="ebreve" unicode="&#x115;" horiz-adv-x="589" 
d="M278 -3q-71 0 -122.5 25t-78.5 72.5t-27 115.5q0 88 36 158t98.5 111t141.5 41q66 0 113 -25t72.5 -72t25.5 -113q0 -13 -1.5 -26.5t-3.5 -24.5h-466l4 19h453l-8 -11q12 76 -10 128t-68.5 79t-110.5 27q-73 0 -131.5 -38t-92 -103.5t-33.5 -149.5q0 -94 54 -144t156 -50
q59 0 108 20.5t80 56.5l12 -13q-31 -37 -84.5 -60t-116.5 -23zM368 604q-36 0 -64.5 14t-44.5 39.5t-13 59.5h19q-3 -43 26.5 -68.5t77.5 -25.5q45 0 80.5 25t41.5 69h19q-7 -52 -47.5 -82.5t-94.5 -30.5z" />
    <glyph glyph-name="Edotaccent" unicode="&#x116;" horiz-adv-x="668" 
d="M169 365h391l-4 -19h-391zM105 19h446l-4 -19h-466l140 700h451l-4 -19h-431zM469 791q-10 0 -17.5 7t-7.5 17q0 11 8 19.5t19 8.5q10 0 17.5 -7t7.5 -17q0 -11 -8 -19.5t-19 -8.5z" />
    <glyph glyph-name="edotaccent" unicode="&#x117;" horiz-adv-x="589" 
d="M278 -3q-71 0 -122.5 25t-78.5 72.5t-27 115.5q0 88 36 158t98.5 111t141.5 41q66 0 113 -25t72.5 -72t25.5 -113q0 -13 -1.5 -26.5t-3.5 -24.5h-466l4 19h453l-8 -11q12 76 -10 128t-68.5 79t-110.5 27q-73 0 -131.5 -38t-92 -103.5t-33.5 -149.5q0 -94 54 -144t156 -50
q59 0 108 20.5t80 56.5l12 -13q-31 -37 -84.5 -60t-116.5 -23zM368 641q-10 0 -17.5 7t-7.5 17q0 11 8 19.5t19 8.5q10 0 17.5 -7t7.5 -17q0 -11 -8 -19.5t-19 -8.5z" />
    <glyph glyph-name="Eogonek" unicode="&#x118;" horiz-adv-x="668" 
d="M169 365h391l-4 -19h-391zM105 19h446l-4 -19h-466l140 700h451l-4 -19h-431zM448 -213q-34 0 -55 18.5t-21 50.5q0 30 17 57.5t54.5 53.5t96.5 49l7 -16q-52 -20 -86.5 -43t-51.5 -47.5t-17 -51.5q0 -25 15 -38.5t42 -13.5q19 0 37.5 6.5t33.5 18.5l8 -17
q-17 -13 -37.5 -20t-42.5 -7z" />
    <glyph glyph-name="eogonek" unicode="&#x119;" horiz-adv-x="589" 
d="M331 -213q-32 0 -52 18.5t-20 50.5q0 25 12 51t39.5 54t72.5 58l-2 -5q-24 -8 -50 -12.5t-52 -4.5q-71 0 -122.5 25t-79 72.5t-27.5 115.5q0 88 36 158t99 111t143 41q66 0 113.5 -25t73 -72t25.5 -113q0 -13 -1.5 -26.5t-3.5 -24.5h-468l4 19h455l-9 -11q12 76 -10 128
t-68.5 79t-111.5 27q-73 0 -131.5 -38t-92 -103.5t-33.5 -149.5q0 -94 54 -144t157 -50q59 0 108 20.5t80 56.5l13 -13q-9 -10 -19.5 -19.5t-23.5 -17.5q-88 -58 -124.5 -101.5t-36.5 -83.5q0 -25 14.5 -38.5t40.5 -13.5q18 0 36 6.5t33 18.5l7 -17q-16 -13 -36 -20t-42 -7z
" />
    <glyph glyph-name="Ecaron" unicode="&#x11a;" horiz-adv-x="668" 
d="M169 365h391l-4 -19h-391zM105 19h446l-4 -19h-466l140 700h451l-4 -19h-431zM452 757l-110 110h25l105 -96h-6l123 96h29l-134 -110h-32z" />
    <glyph glyph-name="ecaron" unicode="&#x11b;" horiz-adv-x="589" 
d="M278 -3q-71 0 -122.5 25t-78.5 72.5t-27 115.5q0 88 36 158t98.5 111t141.5 41q66 0 113 -25t72.5 -72t25.5 -113q0 -13 -1.5 -26.5t-3.5 -24.5h-466l4 19h453l-8 -11q12 76 -10 128t-68.5 79t-110.5 27q-73 0 -131.5 -38t-92 -103.5t-33.5 -149.5q0 -94 54 -144t156 -50
q59 0 108 20.5t80 56.5l12 -13q-31 -37 -84.5 -60t-116.5 -23zM351 607l-110 110h25l105 -96h-6l123 96h29l-134 -110h-32z" />
    <glyph glyph-name="Gcircumflex" unicode="&#x11c;" horiz-adv-x="774" 
d="M386 -3q-102 0 -172 35.5t-106.5 99.5t-36.5 148t28.5 160t83 135.5t132.5 93.5t177 34q80 0 142.5 -23.5t97.5 -65.5l-14 -13q-36 41 -93.5 62t-134.5 21q-91 0 -165 -32t-126 -88t-80 -129t-28 -155q0 -78 33.5 -137.5t99.5 -93t164 -33.5q71 0 127.5 23t102.5 63
l10 -15q-44 -40 -106.5 -65t-135.5 -25zM609 87l51 256h19l-51 -256h-19zM363 756l134 110h32l110 -110h-25l-105 96h6l-123 -96h-29z" />
    <glyph glyph-name="gcircumflex" unicode="&#x11d;" horiz-adv-x="677" 
d="M237 -197q-70 0 -126 23t-90 63l18 14q32 -40 83.5 -60.5t115.5 -20.5q112 0 176.5 53t86.5 168l33 166l22 60l2 60l37 188h20l-94 -471q-25 -128 -93.5 -185.5t-190.5 -57.5zM274 17q-69 0 -119 24.5t-77 70t-27 107.5q0 65 21.5 119.5t61 95.5t93.5 63.5t118 22.5
q69 0 118 -24t75 -69t26 -109q1 -85 -36 -153t-102.5 -108t-151.5 -40zM276 36q79 0 140 36.5t96.5 100t35.5 144.5q0 88 -54 136t-151 48q-78 0 -139.5 -36.5t-97 -100t-35.5 -144.5q0 -88 54 -136t151 -48zM246 607l134 110h32l110 -110h-25l-105 96h6l-123 -96h-29z" />
    <glyph glyph-name="Gbreve" unicode="&#x11e;" horiz-adv-x="774" 
d="M386 -3q-102 0 -172 35.5t-106.5 99.5t-36.5 148t28.5 160t83 135.5t132.5 93.5t177 34q80 0 142.5 -23.5t97.5 -65.5l-14 -13q-36 41 -93.5 62t-134.5 21q-91 0 -165 -32t-126 -88t-80 -129t-28 -155q0 -78 33.5 -137.5t99.5 -93t164 -33.5q71 0 127.5 23t102.5 63
l10 -15q-44 -40 -106.5 -65t-135.5 -25zM609 87l51 256h19l-51 -256h-19zM512 753q-36 0 -64.5 14t-44.5 39.5t-13 59.5h19q-3 -43 26.5 -68.5t77.5 -25.5q45 0 80.5 25t41.5 69h19q-7 -52 -47.5 -82.5t-94.5 -30.5z" />
    <glyph glyph-name="gbreve" unicode="&#x11f;" horiz-adv-x="677" 
d="M237 -197q-70 0 -126 23t-90 63l18 14q32 -40 83.5 -60.5t115.5 -20.5q112 0 176.5 53t86.5 168l33 166l22 60l2 60l37 188h20l-94 -471q-25 -128 -93.5 -185.5t-190.5 -57.5zM274 17q-69 0 -119 24.5t-77 70t-27 107.5q0 65 21.5 119.5t61 95.5t93.5 63.5t118 22.5
q69 0 118 -24t75 -69t26 -109q1 -85 -36 -153t-102.5 -108t-151.5 -40zM276 36q79 0 140 36.5t96.5 100t35.5 144.5q0 88 -54 136t-151 48q-78 0 -139.5 -36.5t-97 -100t-35.5 -144.5q0 -88 54 -136t151 -48zM395 604q-36 0 -64.5 14t-44.5 39.5t-13 59.5h19
q-3 -43 26.5 -68.5t77.5 -25.5q45 0 80.5 25t41.5 69h19q-7 -52 -47.5 -82.5t-94.5 -30.5z" />
    <glyph glyph-name="Gdotaccent" unicode="&#x120;" horiz-adv-x="774" 
d="M386 -3q-102 0 -172 35.5t-106.5 99.5t-36.5 148t28.5 160t83 135.5t132.5 93.5t177 34q80 0 142.5 -23.5t97.5 -65.5l-14 -13q-36 41 -93.5 62t-134.5 21q-91 0 -165 -32t-126 -88t-80 -129t-28 -155q0 -78 33.5 -137.5t99.5 -93t164 -33.5q71 0 127.5 23t102.5 63
l10 -15q-44 -40 -106.5 -65t-135.5 -25zM609 87l51 256h19l-51 -256h-19zM512 790q-10 0 -17.5 7t-7.5 17q0 11 8 19.5t19 8.5q10 0 17.5 -7t7.5 -17q0 -11 -8 -19.5t-19 -8.5z" />
    <glyph glyph-name="gdotaccent" unicode="&#x121;" horiz-adv-x="677" 
d="M237 -197q-70 0 -126 23t-90 63l18 14q32 -40 83.5 -60.5t115.5 -20.5q112 0 176.5 53t86.5 168l33 166l22 60l2 60l37 188h20l-94 -471q-25 -128 -93.5 -185.5t-190.5 -57.5zM274 17q-69 0 -119 24.5t-77 70t-27 107.5q0 65 21.5 119.5t61 95.5t93.5 63.5t118 22.5
q69 0 118 -24t75 -69t26 -109q1 -85 -36 -153t-102.5 -108t-151.5 -40zM276 36q79 0 140 36.5t96.5 100t35.5 144.5q0 88 -54 136t-151 48q-78 0 -139.5 -36.5t-97 -100t-35.5 -144.5q0 -88 54 -136t151 -48zM395 641q-10 0 -17.5 7t-7.5 17q0 11 8 19.5t19 8.5
q10 0 17.5 -7t7.5 -17q0 -11 -8 -19.5t-19 -8.5z" />
    <glyph glyph-name="uni0122" unicode="&#x122;" horiz-adv-x="774" 
d="M386 -3q-102 0 -172 35.5t-106.5 99.5t-36.5 148t28.5 160t83 135.5t132.5 93.5t177 34q80 0 142.5 -23.5t97.5 -65.5l-14 -13q-36 41 -93.5 62t-134.5 21q-91 0 -165 -32t-126 -88t-80 -129t-28 -155q0 -78 33.5 -137.5t99.5 -93t164 -33.5q71 0 127.5 23t102.5 63
l10 -15q-44 -40 -106.5 -65t-135.5 -25zM609 87l51 256h19l-51 -256h-19zM279 -259l40 94l1 -11q-10 0 -18 8t-8 18q0 11 7.5 18.5t17.5 7.5q12 0 19.5 -7.5t7.5 -18.5q0 -8 -2 -14.5t-7 -14.5l-40 -80h-18z" />
    <glyph glyph-name="uni0123" unicode="&#x123;" horiz-adv-x="677" 
d="M237 -197q-70 0 -126 23t-90 63l18 14q32 -40 83.5 -60.5t115.5 -20.5q112 0 176.5 53t86.5 168l33 166l22 60l2 60l37 188h20l-94 -471q-25 -128 -93.5 -185.5t-190.5 -57.5zM274 17q-69 0 -119 24.5t-77 70t-27 107.5q0 65 21.5 119.5t61 95.5t93.5 63.5t118 22.5
q69 0 118 -24t75 -69t26 -109q1 -85 -36 -153t-102.5 -108t-151.5 -40zM276 36q79 0 140 36.5t96.5 100t35.5 144.5q0 88 -54 136t-151 48q-78 0 -139.5 -36.5t-97 -100t-35.5 -144.5q0 -88 54 -136t151 -48zM391 604q-12 0 -19.5 8t-7.5 18q0 8 2.5 14.5t6.5 14.5l49 100
h18l-49 -114l-1 11q11 0 18.5 -7.5t7.5 -18.5q0 -10 -7 -18t-18 -8z" />
    <glyph glyph-name="Hcircumflex" unicode="&#x124;" horiz-adv-x="816" 
d="M751 700h20l-140 -700h-20zM101 0h-20l140 700h20zM685 346h-520l4 19h520zM369 757l134 110h32l110 -110h-25l-105 96h6l-123 -96h-29z" />
    <glyph glyph-name="hcircumflex" unicode="&#x125;" horiz-adv-x="668" 
d="M393 520q72 0 115 -27.5t58 -76t2 -111.5l-61 -305h-20l61 305q18 91 -21.5 143.5t-135.5 52.5q-98 0 -164 -54.5t-87 -159.5l-57 -287h-20l148 742h20l-75 -375l-10 -5q37 83 101 120.5t146 37.5zM94 799l134 110h32l110 -110h-25l-105 96h6l-123 -96h-29z" />
    <glyph glyph-name="Hbar" unicode="&#x126;" horiz-adv-x="816" 
d="M751 700h20l-140 -700h-20zM101 0h-20l140 700h20zM685 346h-520l4 19h520zM74 529l4 19h776l-4 -19h-776z" />
    <glyph glyph-name="hbar" unicode="&#x127;" horiz-adv-x="668" 
d="M393 520q72 0 115 -27.5t58 -76t2 -111.5l-61 -305h-20l61 305q18 91 -21.5 143.5t-135.5 52.5q-98 0 -164 -54.5t-87 -159.5l-57 -287h-20l148 742h20l-75 -375l-10 -5q37 83 101 120.5t146 37.5zM72 621l4 19h378l-4 -19h-378z" />
    <glyph glyph-name="Itilde" unicode="&#x128;" horiz-adv-x="286" 
d="M81 0l140 700h20l-140 -700h-20zM316 769q-22 0 -38 10.5t-29.5 24t-27 24t-31.5 10.5q-23 0 -39 -18t-21 -49h-19q5 39 27 62.5t53 23.5q22 0 37.5 -10.5t29 -24t27 -24t31.5 -10.5q23 0 40 18t21 47h19q-6 -37 -27 -60.5t-53 -23.5z" />
    <glyph glyph-name="itilde" unicode="&#x129;" horiz-adv-x="250" 
d="M63 0l103 517h20l-103 -517h-20zM255 619q-20 0 -33 10.5t-23.5 24t-20.5 24t-24 10.5q-19 0 -32 -18t-16 -49h-19q4 39 22.5 62.5t46.5 23.5q20 0 33 -10.5t23 -24t20 -24t24 -10.5q19 0 32.5 18t16.5 47h19q-4 -37 -22 -60.5t-47 -23.5z" />
    <glyph glyph-name="Imacron" unicode="&#x12a;" horiz-adv-x="286" 
d="M81 0l140 700h20l-140 -700h-20zM141 803l4 20h222l-4 -20h-222z" />
    <glyph glyph-name="imacron" unicode="&#x12b;" horiz-adv-x="250" 
d="M63 0l103 517h20l-103 -517h-20zM93 652l4 20h222l-4 -20h-222z" />
    <glyph glyph-name="Ibreve" unicode="&#x12c;" horiz-adv-x="286" 
d="M81 0l140 700h20l-140 -700h-20zM253 754q-36 0 -64.5 14t-44.5 39.5t-13 59.5h19q-3 -43 26.5 -68.5t77.5 -25.5q45 0 80.5 25t41.5 69h19q-7 -52 -47.5 -82.5t-94.5 -30.5z" />
    <glyph glyph-name="ibreve" unicode="&#x12d;" horiz-adv-x="250" 
d="M63 0l103 517h20l-103 -517h-20zM206 604q-33 0 -56.5 14t-34 39.5t-6.5 59.5h18q-4 -45 16.5 -69.5t61.5 -24.5q87 0 98 94h20q-6 -55 -36.5 -84t-80.5 -29z" />
    <glyph glyph-name="Iogonek" unicode="&#x12e;" horiz-adv-x="286" 
d="M81 0l140 700h20l-140 -700h-20zM53 -213q-25 0 -40.5 16.5t-15.5 45.5q0 45 28 88.5t68 76.5l8 -14q-40 -37 -62 -75t-22 -75q0 -23 11 -34t28 -11q13 0 23 5.5t18 14.5l9 -14q-9 -11 -23 -17.5t-30 -6.5z" />
    <glyph glyph-name="iogonek" unicode="&#x12f;" horiz-adv-x="250" 
d="M63 0l103 517h20l-103 -517h-20zM208 660q-10 0 -17 7t-7 17q0 11 8.5 19.5t19.5 8.5q10 0 17 -7t7 -17q0 -11 -8.5 -19.5t-19.5 -8.5zM35 -213q-25 0 -40.5 16.5t-15.5 45.5q0 45 28 88.5t68 76.5l8 -14q-40 -37 -62 -75t-22 -75q0 -23 11 -34t28 -11q13 0 23 5.5
t18 14.5l9 -14q-9 -11 -23 -17.5t-30 -6.5z" />
    <glyph glyph-name="Idotaccent" unicode="&#x130;" horiz-adv-x="286" 
d="M81 0l140 700h20l-140 -700h-20zM253 791q-10 0 -17.5 7t-7.5 17q0 11 8 19.5t19 8.5q10 0 17.5 -7t7.5 -17q0 -11 -8 -19.5t-19 -8.5z" />
    <glyph glyph-name="dotlessi" unicode="&#x131;" horiz-adv-x="250" 
d="M63 0l103 517h20l-103 -517h-20z" />
    <glyph glyph-name="IJ" unicode="&#x132;" horiz-adv-x="714" 
d="M289 -3q-66 0 -118.5 18t-89.5 46l13 17q37 -28 86.5 -45t108.5 -17q117 0 187 67.5t98 210.5l81 406h20l-82 -410q-30 -149 -104.5 -221t-199.5 -72zM133 290l82 410h20l-82 -410h-20z" />
    <glyph glyph-name="ij" unicode="&#x133;" horiz-adv-x="505" 
d="M63 0l103 517h20l-103 -517h-20zM208 660q-10 0 -17 7t-7 17q0 11 8.5 19.5t19.5 8.5q10 0 17 -7t7 -17q0 -11 -8.5 -19.5t-19.5 -8.5zM180 -197q-30 0 -56 9.5t-43 26.5l15 15q34 -32 86 -32q50 0 80.5 27t42.5 88l116 580h20l-117 -586q-25 -128 -144 -128zM463 660
q-10 0 -17 7t-7 17q0 11 8.5 19.5t19.5 8.5q10 0 17 -7t7 -17q0 -11 -8.5 -19.5t-19.5 -8.5z" />
    <glyph glyph-name="Jcircumflex" unicode="&#x134;" horiz-adv-x="477" 
d="M137 -3q-59 0 -103.5 27.5t-63.5 71.5l18 10q19 -41 58 -65.5t94 -24.5q70 0 113.5 40t63.5 140l97 485h-262l4 19h282l-102 -510q-14 -70 -40.5 -112.5t-66 -61.5t-92.5 -19zM170 757l134 110h32l110 -110h-25l-105 96h6l-123 -96h-29z" />
    <glyph glyph-name="jcircumflex" unicode="&#x135;" horiz-adv-x="255" 
d="M-70 -197q-30 0 -56 9.5t-43 26.5l15 15q34 -32 86 -32q50 0 80.5 27t42.5 88l116 580h20l-117 -586q-25 -128 -144 -128zM86 607l110 110h30l86 -110h-26l-78 96h4l-98 -96h-28z" />
    <glyph glyph-name="uni0136" unicode="&#x136;" horiz-adv-x="693" 
d="M133 182l7 31l572 487h30l-381 -324l-8 -7zM81 0l140 700h20l-140 -700h-20zM601 0l-261 377l17 10l268 -387h-24zM247 -259l40 94l1 -11q-10 0 -18 8t-8 18q0 11 7.5 18.5t17.5 7.5q12 0 19.5 -7.5t7.5 -18.5q0 -8 -2 -14.5t-7 -14.5l-40 -80h-18z" />
    <glyph glyph-name="uni0137" unicode="&#x137;" horiz-adv-x="557" 
d="M107 153l2 25l439 339h32l-269 -207l-14 -11zM63 0l148 742h20l-148 -742h-20zM476 0l-183 304l16 12l191 -316h-24zM184 -259l40 94l1 -11q-10 0 -18 8t-8 18q0 11 7.5 18.5t17.5 7.5q12 0 19.5 -7.5t7.5 -18.5q0 -8 -2 -14.5t-7 -14.5l-40 -80h-18z" />
    <glyph glyph-name="kgreenlandic" unicode="&#x138;" horiz-adv-x="557" 
d="M107 153l2 25l439 339h32l-269 -207l-14 -11zM63 0l103 517h20l-103 -517h-20zM476 0l-183 304l16 12l191 -316h-24z" />
    <glyph glyph-name="Lacute" unicode="&#x139;" horiz-adv-x="580" 
d="M81 0l140 700h20l-136 -681h417l-4 -19h-437zM196 757l152 110h42l-162 -110h-32z" />
    <glyph glyph-name="lacute" unicode="&#x13a;" horiz-adv-x="250" 
d="M63 0l148 742h20l-148 -742h-20zM186 799l152 110h42l-162 -110h-32z" />
    <glyph glyph-name="uni013B" unicode="&#x13b;" horiz-adv-x="580" 
d="M81 0l140 700h20l-136 -681h417l-4 -19h-437zM239 -259l40 94l1 -11q-10 0 -18 8t-8 18q0 11 7.5 18.5t17.5 7.5q12 0 19.5 -7.5t7.5 -18.5q0 -8 -2 -14.5t-7 -14.5l-40 -80h-18z" />
    <glyph glyph-name="uni013C" unicode="&#x13c;" horiz-adv-x="250" 
d="M63 0l148 742h20l-148 -742h-20zM2 -259l40 94l1 -11q-10 0 -18 8t-8 18q0 11 7.5 18.5t17.5 7.5q12 0 19.5 -7.5t7.5 -18.5q0 -8 -2 -14.5t-7 -14.5l-40 -80h-18z" />
    <glyph glyph-name="Lcaron" unicode="&#x13d;" horiz-adv-x="580" 
d="M81 0l140 700h20l-136 -681h417l-4 -19h-437zM502 540l36 180h20l-38 -180h-18z" />
    <glyph glyph-name="lcaron" unicode="&#x13e;" horiz-adv-x="250" 
d="M63 0l148 742h20l-148 -742h-20zM299 582l36 180h20l-38 -180h-18z" />
    <glyph glyph-name="Ldot" unicode="&#x13f;" horiz-adv-x="580" 
d="M81 0l140 700h20l-136 -681h417l-4 -19h-437zM453 334q-10 0 -18 8t-8 18q0 11 8 18.5t18 7.5q11 0 18.5 -7.5t7.5 -18.5q0 -10 -7.5 -18t-18.5 -8z" />
    <glyph glyph-name="ldot" unicode="&#x140;" horiz-adv-x="250" 
d="M63 0l148 742h20l-148 -742h-20zM268 324q-10 0 -18 8t-8 18q0 11 8 18.5t18 7.5q11 0 18.5 -7.5t7.5 -18.5q0 -10 -7.5 -18t-18.5 -8z" />
    <glyph glyph-name="Lslash" unicode="&#x141;" horiz-adv-x="580" 
d="M81 0l140 700h20l-136 -681h417l-4 -19h-437zM58 282l-9 14l278 179l9 -14z" />
    <glyph glyph-name="lslash" unicode="&#x142;" horiz-adv-x="250" 
d="M63 0l148 742h20l-148 -742h-20zM37 272l-8 14l221 142l8 -14z" />
    <glyph glyph-name="Nacute" unicode="&#x143;" horiz-adv-x="816" 
d="M81 0l140 700h17l386 -678l-8 3l135 675h20l-140 -700h-17l-386 678l8 -3l-135 -675h-20zM461 757l152 110h42l-162 -110h-32z" />
    <glyph glyph-name="nacute" unicode="&#x144;" horiz-adv-x="668" 
d="M393 520q72 0 115 -27.5t58 -76t2 -111.5l-61 -305h-20l61 305q18 91 -21.5 143.5t-135.5 52.5q-98 0 -164 -54.5t-87 -159.5l-57 -287h-20l103 517h20l-30 -150l-10 -5q37 83 101 120.5t146 37.5zM358 607l152 110h42l-162 -110h-32z" />
    <glyph glyph-name="uni0145" unicode="&#x145;" horiz-adv-x="816" 
d="M81 0l140 700h17l386 -678l-8 3l135 675h20l-140 -700h-17l-386 678l8 -3l-135 -675h-20zM285 -259l40 94l1 -11q-10 0 -18 8t-8 18q0 11 7.5 18.5t17.5 7.5q12 0 19.5 -7.5t7.5 -18.5q0 -8 -2 -14.5t-7 -14.5l-40 -80h-18z" />
    <glyph glyph-name="uni0146" unicode="&#x146;" horiz-adv-x="668" 
d="M393 520q72 0 115 -27.5t58 -76t2 -111.5l-61 -305h-20l61 305q18 91 -21.5 143.5t-135.5 52.5q-98 0 -164 -54.5t-87 -159.5l-57 -287h-20l103 517h20l-30 -150l-10 -5q37 83 101 120.5t146 37.5zM212 -259l40 94l1 -11q-10 0 -18 8t-8 18q0 11 7.5 18.5t17.5 7.5
q12 0 19.5 -7.5t7.5 -18.5q0 -8 -2 -14.5t-7 -14.5l-40 -80h-18z" />
    <glyph glyph-name="Ncaron" unicode="&#x147;" horiz-adv-x="816" 
d="M81 0l140 700h17l386 -678l-8 3l135 675h20l-140 -700h-17l-386 678l8 -3l-135 -675h-20zM501 757l-110 110h25l105 -96h-6l123 96h29l-134 -110h-32z" />
    <glyph glyph-name="ncaron" unicode="&#x148;" horiz-adv-x="668" 
d="M393 520q72 0 115 -27.5t58 -76t2 -111.5l-61 -305h-20l61 305q18 91 -21.5 143.5t-135.5 52.5q-98 0 -164 -54.5t-87 -159.5l-57 -287h-20l103 517h20l-30 -150l-10 -5q37 83 101 120.5t146 37.5zM398 607l-110 110h25l105 -96h-6l123 96h29l-134 -110h-32z" />
    <glyph glyph-name="napostrophe" unicode="&#x149;" horiz-adv-x="668" 
d="M47 556l61 148l1 -11q-10 0 -18 8t-8 18q0 11 8 18.5t18 7.5q11 0 18.5 -7.5t7.5 -18.5q0 -8 -2.5 -14.5t-6.5 -14.5l-61 -134h-18zM393 520q72 0 115 -27.5t58 -76t2 -111.5l-61 -305h-20l61 305q18 91 -21.5 143.5t-135.5 52.5q-98 0 -164 -54.5t-87 -159.5l-57 -287
h-20l103 517h20l-30 -150l-10 -5q37 83 101 120.5t146 37.5z" />
    <glyph glyph-name="Eng" unicode="&#x14a;" horiz-adv-x="816" 
d="M81 0l140 700h17l386 -677l-10 -22l-386 677l8 -1l-135 -677h-20zM431 -197q-59 0 -103.5 27.5t-63.5 71.5l18 10q19 -41 58 -65.5t94 -24.5q70 0 113.5 40t63.5 140l140 698h20l-141 -704q-14 -70 -40.5 -112.5t-66 -61.5t-92.5 -19z" />
    <glyph glyph-name="eng" unicode="&#x14b;" horiz-adv-x="668" 
d="M349 -197q-30 0 -56 9.5t-43 26.5l15 15q34 -32 86 -32q50 0 80.5 26.5t42.5 87.5l74 369q18 91 -21.5 143.5t-135.5 52.5q-98 0 -164 -54.5t-87 -159.5l-57 -287h-20l103 517h20l-30 -150l-10 -5q37 83 101 120.5t146 37.5q72 0 115 -27.5t58 -76t2 -111.5l-75 -374
q-25 -128 -144 -128z" />
    <glyph glyph-name="Omacron" unicode="&#x14c;" horiz-adv-x="836" 
d="M386 -3q-102 0 -172 35.5t-106.5 99.5t-36.5 148t28.5 160t82.5 135.5t131 93.5t174 34q102 0 172.5 -35.5t106.5 -99t36 -148.5q0 -84 -28.5 -160t-82.5 -135.5t-131 -93.5t-174 -34zM388 16q90 0 162.5 32t124 88t79.5 129t28 155q0 79 -33.5 138t-99.5 92.5t-164 33.5
q-90 0 -162.5 -32t-124 -88t-79.5 -129t-28 -155q0 -78 33.5 -137.5t99.5 -93t164 -33.5zM390 802l4 20h272l-4 -20h-272z" />
    <glyph glyph-name="omacron" unicode="&#x14d;" horiz-adv-x="610" 
d="M269 -3q-67 0 -116.5 25.5t-76.5 73t-27 111.5q0 90 37.5 160.5t103.5 111.5t151 41q68 0 117 -25.5t76 -72.5t27 -112q0 -90 -37.5 -160.5t-103.5 -111.5t-151 -41zM272 16q78 0 138.5 38t95.5 104.5t35 150.5q0 92 -53.5 142t-149.5 50q-77 0 -138 -38.5t-96 -104.5
t-35 -150q0 -91 53.5 -141.5t149.5 -50.5zM247 652l4 20h272l-4 -20h-272z" />
    <glyph glyph-name="Obreve" unicode="&#x14e;" horiz-adv-x="836" 
d="M386 -3q-102 0 -172 35.5t-106.5 99.5t-36.5 148t28.5 160t82.5 135.5t131 93.5t174 34q102 0 172.5 -35.5t106.5 -99t36 -148.5q0 -84 -28.5 -160t-82.5 -135.5t-131 -93.5t-174 -34zM388 16q90 0 162.5 32t124 88t79.5 129t28 155q0 79 -33.5 138t-99.5 92.5t-164 33.5
q-90 0 -162.5 -32t-124 -88t-79.5 -129t-28 -155q0 -78 33.5 -137.5t99.5 -93t164 -33.5zM528 754q-36 0 -64.5 14t-44.5 39.5t-13 59.5h19q-3 -43 26.5 -68.5t77.5 -25.5q45 0 80.5 25t41.5 69h19q-7 -52 -47.5 -82.5t-94.5 -30.5z" />
    <glyph glyph-name="obreve" unicode="&#x14f;" horiz-adv-x="610" 
d="M269 -3q-67 0 -116.5 25.5t-76.5 73t-27 111.5q0 90 37.5 160.5t103.5 111.5t151 41q68 0 117 -25.5t76 -72.5t27 -112q0 -90 -37.5 -160.5t-103.5 -111.5t-151 -41zM272 16q78 0 138.5 38t95.5 104.5t35 150.5q0 92 -53.5 142t-149.5 50q-77 0 -138 -38.5t-96 -104.5
t-35 -150q0 -91 53.5 -141.5t149.5 -50.5zM385 604q-36 0 -64.5 14t-44.5 39.5t-13 59.5h19q-3 -43 26.5 -68.5t77.5 -25.5q45 0 80.5 25t41.5 69h19q-7 -52 -47.5 -82.5t-94.5 -30.5z" />
    <glyph glyph-name="Ohungarumlaut" unicode="&#x150;" horiz-adv-x="836" 
d="M386 -3q-102 0 -172 35.5t-106.5 99.5t-36.5 148t28.5 160t82.5 135.5t131 93.5t174 34q102 0 172.5 -35.5t106.5 -99t36 -148.5q0 -84 -28.5 -160t-82.5 -135.5t-131 -93.5t-174 -34zM388 16q90 0 162.5 32t124 88t79.5 129t28 155q0 79 -33.5 138t-99.5 92.5t-164 33.5
q-90 0 -162.5 -32t-124 -88t-79.5 -129t-28 -155q0 -78 33.5 -137.5t99.5 -93t164 -33.5zM572 757l123 110h36l-130 -110h-29zM433 757l123 110h36l-130 -110h-29z" />
    <glyph glyph-name="ohungarumlaut" unicode="&#x151;" horiz-adv-x="610" 
d="M269 -3q-67 0 -116.5 25.5t-76.5 73t-27 111.5q0 90 37.5 160.5t103.5 111.5t151 41q68 0 117 -25.5t76 -72.5t27 -112q0 -90 -37.5 -160.5t-103.5 -111.5t-151 -41zM272 16q78 0 138.5 38t95.5 104.5t35 150.5q0 92 -53.5 142t-149.5 50q-77 0 -138 -38.5t-96 -104.5
t-35 -150q0 -91 53.5 -141.5t149.5 -50.5zM429 607l123 110h36l-130 -110h-29zM290 607l123 110h36l-130 -110h-29z" />
    <glyph glyph-name="OE" unicode="&#x152;" horiz-adv-x="1112" 
d="M392 0q-104 0 -176 35t-108.5 98.5t-36.5 146.5q0 91 30.5 168t87.5 133.5t137.5 87.5t180.5 31h164l-4 -19h-162q-126 0 -219 -51.5t-144 -142t-51 -207.5q0 -78 33.5 -136.5t101 -91.5t168.5 -33h141l-4 -19h-139zM525 0l140 700h451l-4 -19h-431l-132 -662h446l-4 -19
h-466zM609 346l4 19h391l-4 -19h-391z" />
    <glyph glyph-name="oe" unicode="&#x153;" horiz-adv-x="1074" 
d="M269 -3q-67 0 -116.5 25.5t-76.5 73t-27 111.5q0 90 37.5 160.5t103.5 111.5t151 41q68 0 116.5 -25.5t75 -72.5t26.5 -112q0 -90 -37 -160.5t-102.5 -111.5t-150.5 -41zM272 16q78 0 138.5 38t95.5 104.5t35 150.5q0 92 -53.5 142t-149.5 50q-77 0 -138 -38.5
t-96 -104.5t-35 -150q0 -91 53.5 -141.5t149.5 -50.5zM763 -3q-71 0 -122.5 25t-78.5 72.5t-27 115.5q0 88 36 158t98.5 111t141.5 41q66 0 113 -25t72.5 -72t25.5 -113q0 -13 -1.5 -26.5t-3.5 -24.5h-466l4 19h453l-8 -11q12 76 -10 128t-68.5 79t-110.5 27
q-73 0 -131.5 -38t-92.5 -103.5t-34 -149.5q0 -94 54.5 -144t156.5 -50q59 0 108 20.5t80 56.5l12 -13q-31 -37 -84.5 -60t-116.5 -23z" />
    <glyph glyph-name="Racute" unicode="&#x154;" horiz-adv-x="716" 
d="M81 0l140 700h235q111 0 172.5 -48.5t61.5 -137.5q0 -90 -38.5 -151t-109.5 -92t-169 -31h-233l11 9l-50 -249h-20zM580 0l-144 254h23l144 -254h-23zM151 251l-7 8h228q142 0 220 64t78 191q0 80 -55 123.5t-158 43.5h-229l11 8zM419 757l152 110h42l-162 -110h-32z" />
    <glyph glyph-name="racute" unicode="&#x155;" horiz-adv-x="383" 
d="M63 0l103 517h20l-32 -160l-5 5q32 74 91 116t150 42l-4 -20h-4.5h-4.5q-95 0 -156 -58.5t-84 -171.5l-54 -270h-20zM250 607l152 110h42l-162 -110h-32z" />
    <glyph glyph-name="uni0156" unicode="&#x156;" horiz-adv-x="716" 
d="M81 0l140 700h235q111 0 172.5 -48.5t61.5 -137.5q0 -90 -38.5 -151t-109.5 -92t-169 -31h-233l11 9l-50 -249h-20zM580 0l-144 254h23l144 -254h-23zM151 251l-7 8h228q142 0 220 64t78 191q0 80 -55 123.5t-158 43.5h-229l11 8zM243 -259l40 94l1 -11q-10 0 -18 8
t-8 18q0 11 7.5 18.5t17.5 7.5q12 0 19.5 -7.5t7.5 -18.5q0 -8 -2 -14.5t-7 -14.5l-40 -80h-18z" />
    <glyph glyph-name="uni0157" unicode="&#x157;" horiz-adv-x="383" 
d="M63 0l103 517h20l-32 -160l-5 5q32 74 91 116t150 42l-4 -20h-4.5h-4.5q-95 0 -156 -58.5t-84 -171.5l-54 -270h-20zM2 -259l40 94l1 -11q-10 0 -18 8t-8 18q0 11 7.5 18.5t17.5 7.5q12 0 19.5 -7.5t7.5 -18.5q0 -8 -2 -14.5t-7 -14.5l-40 -80h-18z" />
    <glyph glyph-name="Rcaron" unicode="&#x158;" horiz-adv-x="716" 
d="M81 0l140 700h235q111 0 172.5 -48.5t61.5 -137.5q0 -90 -38.5 -151t-109.5 -92t-169 -31h-233l11 9l-50 -249h-20zM580 0l-144 254h23l144 -254h-23zM151 251l-7 8h228q142 0 220 64t78 191q0 80 -55 123.5t-158 43.5h-229l11 8zM459 757l-110 110h25l105 -96h-6l123 96
h29l-134 -110h-32z" />
    <glyph glyph-name="rcaron" unicode="&#x159;" horiz-adv-x="383" 
d="M63 0l103 517h20l-32 -160l-5 5q32 74 91 116t150 42l-4 -20h-4.5h-4.5q-95 0 -156 -58.5t-84 -171.5l-54 -270h-20zM290 607l-110 110h25l105 -96h-6l123 96h29l-134 -110h-32z" />
    <glyph glyph-name="Sacute" unicode="&#x15a;" horiz-adv-x="601" 
d="M263 -3q-49 0 -96.5 13t-84.5 35t-56 50l16 13q19 -26 54 -47t79 -33t89 -12q71 0 126 20.5t86 60.5t31 97q0 41 -20.5 66.5t-54 41.5t-73.5 27t-80 23.5t-73.5 30t-54 46.5t-20.5 74q0 65 34 109.5t92 67.5t131 23q57 0 111 -16t91 -46l-13 -17q-37 29 -85.5 44.5
t-103.5 15.5q-69 0 -123 -21t-84.5 -61t-30.5 -97q0 -41 20.5 -67t54 -42.5t74 -28t80.5 -23.5t73.5 -30t54 -46t20.5 -73q0 -66 -35.5 -110t-95 -66t-133.5 -22zM371 757l152 110h42l-162 -110h-32z" />
    <glyph glyph-name="sacute" unicode="&#x15b;" horiz-adv-x="463" 
d="M189 -3q-58 0 -111 19.5t-81 49.5l15 16q29 -31 77 -48.5t101 -17.5q89 0 140 34t51 94q0 38 -22 58t-57 30t-74.5 17.5t-74.5 19t-57 35.5t-22 67q0 45 25.5 78.5t71.5 52t107 18.5q47 0 92.5 -14t71.5 -39l-14 -15q-28 24 -68 36.5t-83 12.5q-83 0 -133 -35t-50 -94
q0 -38 22 -58.5t57 -30.5t74.5 -17.5t74.5 -19.5t57 -35t22 -66q0 -46 -26 -79t-73.5 -51t-112.5 -18zM255 607l152 110h42l-162 -110h-32z" />
    <glyph glyph-name="Scircumflex" unicode="&#x15c;" horiz-adv-x="601" 
d="M263 -3q-49 0 -96.5 13t-84.5 35t-56 50l16 13q19 -26 54 -47t79 -33t89 -12q71 0 126 20.5t86 60.5t31 97q0 41 -20.5 66.5t-54 41.5t-73.5 27t-80 23.5t-73.5 30t-54 46.5t-20.5 74q0 65 34 109.5t92 67.5t131 23q57 0 111 -16t91 -46l-13 -17q-37 29 -85.5 44.5
t-103.5 15.5q-69 0 -123 -21t-84.5 -61t-30.5 -97q0 -41 20.5 -67t54 -42.5t74 -28t80.5 -23.5t73.5 -30t54 -46t20.5 -73q0 -66 -35.5 -110t-95 -66t-133.5 -22zM279 757l134 110h32l110 -110h-25l-105 96h6l-123 -96h-29z" />
    <glyph glyph-name="scircumflex" unicode="&#x15d;" horiz-adv-x="463" 
d="M189 -3q-58 0 -111 19.5t-81 49.5l15 16q29 -31 77 -48.5t101 -17.5q89 0 140 34t51 94q0 38 -22 58t-57 30t-74.5 17.5t-74.5 19t-57 35.5t-22 67q0 45 25.5 78.5t71.5 52t107 18.5q47 0 92.5 -14t71.5 -39l-14 -15q-28 24 -68 36.5t-83 12.5q-83 0 -133 -35t-50 -94
q0 -38 22 -58.5t57 -30.5t74.5 -17.5t74.5 -19.5t57 -35t22 -66q0 -46 -26 -79t-73.5 -51t-112.5 -18zM163 607l134 110h32l110 -110h-25l-105 96h6l-123 -96h-29z" />
    <glyph glyph-name="Scedilla" unicode="&#x15e;" horiz-adv-x="601" 
d="M263 -3q-49 0 -96.5 13t-84.5 35t-56 50l16 13q19 -26 54 -47t79 -33t89 -12q71 0 126 20.5t86 60.5t31 97q0 41 -20.5 66.5t-54 41.5t-73.5 27t-80 23.5t-73.5 30t-54 46.5t-20.5 74q0 65 34 109.5t92 67.5t131 23q57 0 111 -16t91 -46l-13 -17q-37 29 -85.5 44.5
t-103.5 15.5q-69 0 -123 -21t-84.5 -61t-30.5 -97q0 -41 20.5 -67t54 -42.5t74 -28t80.5 -23.5t73.5 -30t54 -46t20.5 -73q0 -66 -35.5 -110t-95 -66t-133.5 -22zM217 -213q-22 0 -42.5 6.5t-35.5 20.5l14 15q12 -11 28 -17t37 -6q35 0 56 19.5t21 50.5q0 23 -16.5 36.5
t-45.5 13.5h-14l38 79h19l-29 -61q32 -3 50.5 -21t18.5 -47q0 -37 -27.5 -63t-71.5 -26z" />
    <glyph glyph-name="scedilla" unicode="&#x15f;" horiz-adv-x="463" 
d="M189 -3q-58 0 -111 19.5t-81 49.5l15 16q29 -31 77 -48.5t101 -17.5q89 0 140 34t51 94q0 38 -22 58t-57 30t-74.5 17.5t-74.5 19t-57 35.5t-22 67q0 45 25.5 78.5t71.5 52t107 18.5q47 0 92.5 -14t71.5 -39l-14 -15q-28 24 -68 36.5t-83 12.5q-83 0 -133 -35t-50 -94
q0 -38 22 -58.5t57 -30.5t74.5 -17.5t74.5 -19.5t57 -35t22 -66q0 -46 -26 -79t-73.5 -51t-112.5 -18zM131 -213q-22 0 -42.5 6.5t-35.5 20.5l14 15q12 -11 28 -17t37 -6q35 0 56 19.5t21 50.5q0 23 -16.5 36.5t-45.5 13.5h-14l38 79h19l-29 -61q32 -3 50.5 -21t18.5 -47
q0 -37 -27.5 -63t-71.5 -26z" />
    <glyph glyph-name="Scaron" unicode="&#x160;" horiz-adv-x="601" 
d="M263 -3q-49 0 -96.5 13t-84.5 35t-56 50l16 13q19 -26 54 -47t79 -33t89 -12q71 0 126 20.5t86 60.5t31 97q0 41 -20.5 66.5t-54 41.5t-73.5 27t-80 23.5t-73.5 30t-54 46.5t-20.5 74q0 65 34 109.5t92 67.5t131 23q57 0 111 -16t91 -46l-13 -17q-37 29 -85.5 44.5
t-103.5 15.5q-69 0 -123 -21t-84.5 -61t-30.5 -97q0 -41 20.5 -67t54 -42.5t74 -28t80.5 -23.5t73.5 -30t54 -46t20.5 -73q0 -66 -35.5 -110t-95 -66t-133.5 -22zM411 757l-110 110h25l105 -96h-6l123 96h29l-134 -110h-32z" />
    <glyph glyph-name="scaron" unicode="&#x161;" horiz-adv-x="463" 
d="M189 -3q-58 0 -111 19.5t-81 49.5l15 16q29 -31 77 -48.5t101 -17.5q89 0 140 34t51 94q0 38 -22 58t-57 30t-74.5 17.5t-74.5 19t-57 35.5t-22 67q0 45 25.5 78.5t71.5 52t107 18.5q47 0 92.5 -14t71.5 -39l-14 -15q-28 24 -68 36.5t-83 12.5q-83 0 -133 -35t-50 -94
q0 -38 22 -58.5t57 -30.5t74.5 -17.5t74.5 -19.5t57 -35t22 -66q0 -46 -26 -79t-73.5 -51t-112.5 -18zM295 607l-110 110h25l105 -96h-6l123 96h29l-134 -110h-32z" />
    <glyph glyph-name="uni0162" unicode="&#x162;" horiz-adv-x="548" 
d="M212 0l136 681h-260l4 19h540l-4 -19h-260l-136 -681h-20zM173 -213q-22 0 -42.5 6.5t-35.5 20.5l14 15q12 -11 28 -17t37 -6q35 0 56 19.5t21 50.5q0 23 -16.5 36.5t-45.5 13.5h-14l38 79h19l-29 -61q32 -3 50.5 -21t18.5 -47q0 -37 -27.5 -63t-71.5 -26z" />
    <glyph glyph-name="uni0163" unicode="&#x163;" horiz-adv-x="388" 
d="M200 -3q-41 0 -67 16.5t-34.5 47t-0.5 73.5l99 496h20l-98 -491q-13 -62 8 -92.5t75 -30.5q26 0 49 8t42 24l11 -14q-21 -19 -49 -28t-55 -9zM71 498l3 19h295l-3 -19h-295zM140 -213q-22 0 -42.5 6.5t-35.5 20.5l14 15q12 -11 28 -17t37 -6q35 0 56 19.5t21 50.5
q0 23 -16.5 36.5t-45.5 13.5h-14l38 79h19l-29 -61q32 -3 50.5 -21t18.5 -47q0 -37 -27.5 -63t-71.5 -26z" />
    <glyph glyph-name="Tcaron" unicode="&#x164;" horiz-adv-x="548" 
d="M212 0l136 681h-260l4 19h540l-4 -19h-260l-136 -681h-20zM367 757l-110 110h25l105 -96h-6l123 96h29l-134 -110h-32z" />
    <glyph glyph-name="tcaron" unicode="&#x165;" horiz-adv-x="388" 
d="M200 -3q-41 0 -67 16.5t-34.5 47t-0.5 73.5l99 496h20l-98 -491q-13 -62 8 -92.5t75 -30.5q26 0 49 8t42 24l11 -14q-21 -19 -49 -28t-55 -9zM71 498l3 19h295l-3 -19h-295zM312 582l36 180h20l-38 -180h-18z" />
    <glyph glyph-name="Tbar" unicode="&#x166;" horiz-adv-x="548" 
d="M212 0l136 681h-260l4 19h540l-4 -19h-260l-136 -681h-20zM111 346l4 19h360l-4 -19h-360z" />
    <glyph glyph-name="tbar" unicode="&#x167;" horiz-adv-x="398" 
d="M205 -3q-41 0 -67 16.5t-34.5 47t-0.5 73.5l99 496h20l-98 -491q-13 -62 8 -92.5t75 -30.5q26 0 49 8t42 24l11 -14q-21 -19 -49 -28t-55 -9zM76 498l3 19h295l-3 -19h-295zM46 298l4 19h274l-4 -19h-274z" />
    <glyph glyph-name="Utilde" unicode="&#x168;" horiz-adv-x="794" 
d="M354 -3q-93 0 -147.5 40.5t-72 107.5t-0.5 146l81 409h20l-82 -410q-11 -52 -6.5 -101t27.5 -88t68 -62t116 -23q87 0 146 32t94.5 90.5t51.5 136.5l85 425h20l-85 -426q-25 -129 -103 -203t-213 -74zM570 769q-22 0 -38 10.5t-29.5 24t-27 24t-31.5 10.5q-23 0 -39 -18
t-21 -49h-19q5 39 27 62.5t53 23.5q22 0 37.5 -10.5t29 -24t27 -24t31.5 -10.5q23 0 40 18t21 47h19q-6 -37 -27 -60.5t-53 -23.5z" />
    <glyph glyph-name="utilde" unicode="&#x169;" horiz-adv-x="664" 
d="M273 -3q-71 0 -113.5 27.5t-57 76t-2.5 111.5l61 305h20l-61 -305q-18 -91 21 -143.5t134 -52.5q98 0 163 54.5t86 159.5l57 287h20l-103 -517h-20l30 150l10 5q-37 -82 -100.5 -120t-144.5 -38zM473 619q-22 0 -38 10.5t-29.5 24t-27 24t-31.5 10.5q-23 0 -39 -18
t-21 -49h-19q5 39 27 62.5t53 23.5q22 0 37.5 -10.5t29 -24t27 -24t31.5 -10.5q23 0 40 18t21 47h19q-6 -37 -27 -60.5t-53 -23.5z" />
    <glyph glyph-name="Umacron" unicode="&#x16a;" horiz-adv-x="794" 
d="M354 -3q-93 0 -147.5 40.5t-72 107.5t-0.5 146l81 409h20l-82 -410q-11 -52 -6.5 -101t27.5 -88t68 -62t116 -23q87 0 146 32t94.5 90.5t51.5 136.5l85 425h20l-85 -426q-25 -129 -103 -203t-213 -74zM369 802l4 20h272l-4 -20h-272z" />
    <glyph glyph-name="umacron" unicode="&#x16b;" horiz-adv-x="664" 
d="M273 -3q-71 0 -113.5 27.5t-57 76t-2.5 111.5l61 305h20l-61 -305q-18 -91 21 -143.5t134 -52.5q98 0 163 54.5t86 159.5l57 287h20l-103 -517h-20l30 150l10 5q-37 -82 -100.5 -120t-144.5 -38zM272 652l4 20h272l-4 -20h-272z" />
    <glyph glyph-name="Ubreve" unicode="&#x16c;" horiz-adv-x="794" 
d="M354 -3q-93 0 -147.5 40.5t-72 107.5t-0.5 146l81 409h20l-82 -410q-11 -52 -6.5 -101t27.5 -88t68 -62t116 -23q87 0 146 32t94.5 90.5t51.5 136.5l85 425h20l-85 -426q-25 -129 -103 -203t-213 -74zM507 754q-36 0 -64.5 14t-44.5 39.5t-13 59.5h19q-3 -43 26.5 -68.5
t77.5 -25.5q45 0 80.5 25t41.5 69h19q-7 -52 -47.5 -82.5t-94.5 -30.5z" />
    <glyph glyph-name="ubreve" unicode="&#x16d;" horiz-adv-x="664" 
d="M273 -3q-71 0 -113.5 27.5t-57 76t-2.5 111.5l61 305h20l-61 -305q-18 -91 21 -143.5t134 -52.5q98 0 163 54.5t86 159.5l57 287h20l-103 -517h-20l30 150l10 5q-37 -82 -100.5 -120t-144.5 -38zM410 604q-36 0 -64.5 14t-44.5 39.5t-13 59.5h19q-3 -43 26.5 -68.5
t77.5 -25.5q45 0 80.5 25t41.5 69h19q-7 -52 -47.5 -82.5t-94.5 -30.5z" />
    <glyph glyph-name="Uring" unicode="&#x16e;" horiz-adv-x="794" 
d="M354 -3q-93 0 -147.5 40.5t-72 107.5t-0.5 146l81 409h20l-82 -410q-11 -52 -6.5 -101t27.5 -88t68 -62t116 -23q87 0 146 32t94.5 90.5t51.5 136.5l85 425h20l-85 -426q-25 -129 -103 -203t-213 -74zM520 780q-27 0 -47.5 12.5t-32.5 33t-12 44.5q0 25 12 46t33 34
t47 13q27 0 48 -13t33 -34t12 -46q0 -24 -12 -44.5t-33 -33t-48 -12.5zM520 799q32 0 52.5 21t20.5 50q0 30 -20.5 52t-52.5 22q-31 0 -51.5 -21.5t-20.5 -52.5q0 -30 20 -50.5t52 -20.5z" />
    <glyph glyph-name="uring" unicode="&#x16f;" horiz-adv-x="664" 
d="M273 -3q-71 0 -113.5 27.5t-57 76t-2.5 111.5l61 305h20l-61 -305q-18 -91 21 -143.5t134 -52.5q98 0 163 54.5t86 159.5l57 287h20l-103 -517h-20l30 150l10 5q-37 -82 -100.5 -120t-144.5 -38zM416 597q-27 0 -47.5 12.5t-32.5 33t-12 44.5q0 25 12 46t33 34t47 13
q27 0 48 -13t33 -34t12 -46q0 -24 -12 -44.5t-33 -33t-48 -12.5zM416 616q32 0 52.5 21t20.5 50q0 30 -20.5 52t-52.5 22q-31 0 -51.5 -21.5t-20.5 -52.5q0 -30 20 -50.5t52 -20.5z" />
    <glyph glyph-name="Uhungarumlaut" unicode="&#x170;" horiz-adv-x="794" 
d="M354 -3q-93 0 -147.5 40.5t-72 107.5t-0.5 146l81 409h20l-82 -410q-11 -52 -6.5 -101t27.5 -88t68 -62t116 -23q87 0 146 32t94.5 90.5t51.5 136.5l85 425h20l-85 -426q-25 -129 -103 -203t-213 -74zM551 757l123 110h36l-130 -110h-29zM412 757l123 110h36l-130 -110
h-29z" />
    <glyph glyph-name="uhungarumlaut" unicode="&#x171;" horiz-adv-x="664" 
d="M273 -3q-71 0 -113.5 27.5t-57 76t-2.5 111.5l61 305h20l-61 -305q-18 -91 21 -143.5t134 -52.5q98 0 163 54.5t86 159.5l57 287h20l-103 -517h-20l30 150l10 5q-37 -82 -100.5 -120t-144.5 -38zM454 607l123 110h36l-130 -110h-29zM315 607l123 110h36l-130 -110h-29z
" />
    <glyph glyph-name="Uogonek" unicode="&#x172;" horiz-adv-x="794" 
d="M358 16q88 0 146.5 32t94.5 91q17 29 30 63t21 73l85 425h20l-85 -426q-21 -112 -82.5 -182.5t-159.5 -88.5q-89 -26 -131 -66t-42 -79q0 -26 14.5 -39t42.5 -13q20 0 38 6.5t33 18.5l8 -17q-17 -13 -37 -20t-43 -7q-34 0 -55 18.5t-21 50.5q0 38 33.5 76t97.5 65h-13
h-12q-83 1 -136 41t-70 107q-9 35 -9 71t8 75l81 409h20l-82 -410q-11 -52 -6.5 -101t27.5 -88t68 -62t116 -23z" />
    <glyph glyph-name="uogonek" unicode="&#x173;" horiz-adv-x="664" 
d="M273 -3q-71 0 -113.5 27.5t-57 76t-2.5 111.5l61 305h20l-61 -305q-18 -91 21 -143.5t134 -52.5q98 0 163 54.5t86 159.5l57 287h20l-103 -517h-20l30 150l10 5q-37 -82 -100.5 -120t-144.5 -38zM399 -213q-34 0 -55 18.5t-21 50.5q0 30 17 57.5t54.5 53.5t96.5 49l7 -16
q-52 -20 -86.5 -43t-51.5 -47.5t-17 -51.5q0 -25 15 -38.5t42 -13.5q19 0 37.5 6.5t33.5 18.5l8 -17q-17 -13 -37.5 -20t-42.5 -7z" />
    <glyph glyph-name="Wcircumflex" unicode="&#x174;" horiz-adv-x="1080" 
d="M233 0l-100 700h20l97 -683h-9l376 683h20l103 -683h-10l371 683h22l-380 -700h-20l-102 676l5 1l-373 -677h-20zM501 757l134 110h32l110 -110h-25l-105 96h6l-123 -96h-29z" />
    <glyph glyph-name="wcircumflex" unicode="&#x175;" horiz-adv-x="835" 
d="M166 0l-107 517h19l102 -503h-7l287 503h17l106 -503h-8l283 503h22l-294 -517h-18l-106 498h8l-286 -498h-18zM350 607l134 110h32l110 -110h-25l-105 96h6l-123 -96h-29z" />
    <glyph glyph-name="Ycircumflex" unicode="&#x176;" horiz-adv-x="610" 
d="M243 0l49 245l2 -15l-196 470h22l186 -447l-7 -1l364 448h25l-384 -472l8 17l-49 -245h-20zM266 757l134 110h32l110 -110h-25l-105 96h6l-123 -96h-29z" />
    <glyph glyph-name="ycircumflex" unicode="&#x177;" horiz-adv-x="508" 
d="M-3 -197q-33 0 -62.5 12t-46.5 34l16 15q17 -22 41 -32t55 -10q36 0 68 20.5t69 76.5l58 88l6 7l329 503h24l-399 -607q-28 -41 -52.5 -64.5t-50 -33t-55.5 -9.5zM196 -11l-138 528h21l130 -503zM170 607l134 110h32l110 -110h-25l-105 96h6l-123 -96h-29z" />
    <glyph glyph-name="Ydieresis" unicode="&#x178;" horiz-adv-x="610" 
d="M243 0l49 245l2 -15l-196 470h22l186 -447l-7 -1l364 448h25l-384 -472l8 17l-49 -245h-20zM497 791q-10 0 -17.5 7t-7.5 17q0 11 8 19.5t19 8.5q10 0 17.5 -7t7.5 -17q0 -11 -8 -19.5t-19 -8.5zM333 791q-10 0 -17.5 7t-7.5 17q0 11 8 19.5t19 8.5q10 0 17.5 -7t7.5 -17
q0 -11 -8 -19.5t-19 -8.5z" />
    <glyph glyph-name="Zacute" unicode="&#x179;" horiz-adv-x="639" 
d="M-2 0l3 15l649 673l-1 -7h-510l4 19h535l-3 -15l-650 -673l2 7h525l-4 -19h-550zM378 757l152 110h42l-162 -110h-32z" />
    <glyph glyph-name="zacute" unicode="&#x17a;" horiz-adv-x="491" 
d="M-6 0l3 15l463 489l11 -6h-372l3 19h387l-3 -15l-463 -489l-14 6h386l-4 -19h-397zM268 607l152 110h42l-162 -110h-32z" />
    <glyph glyph-name="Zdotaccent" unicode="&#x17b;" horiz-adv-x="639" 
d="M-2 0l3 15l649 673l-1 -7h-510l4 19h535l-3 -15l-650 -673l2 7h525l-4 -19h-550zM435 791q-10 0 -17.5 7t-7.5 17q0 11 8 19.5t19 8.5q10 0 17.5 -7t7.5 -17q0 -11 -8 -19.5t-19 -8.5z" />
    <glyph glyph-name="zdotaccent" unicode="&#x17c;" horiz-adv-x="491" 
d="M-6 0l3 15l463 489l11 -6h-372l3 19h387l-3 -15l-463 -489l-14 6h386l-4 -19h-397zM325 641q-10 0 -17.5 7t-7.5 17q0 11 8 19.5t19 8.5q10 0 17.5 -7t7.5 -17q0 -11 -8 -19.5t-19 -8.5z" />
    <glyph glyph-name="Zcaron" unicode="&#x17d;" horiz-adv-x="639" 
d="M-2 0l3 15l649 673l-1 -7h-510l4 19h535l-3 -15l-650 -673l2 7h525l-4 -19h-550zM418 757l-110 110h25l105 -96h-6l123 96h29l-134 -110h-32z" />
    <glyph glyph-name="zcaron" unicode="&#x17e;" horiz-adv-x="491" 
d="M-6 0l3 15l463 489l11 -6h-372l3 19h387l-3 -15l-463 -489l-14 6h386l-4 -19h-397zM308 607l-110 110h25l105 -96h-6l123 96h29l-134 -110h-32z" />
    <glyph glyph-name="longs" unicode="&#x17f;" horiz-adv-x="274" 
d="M83 0l123 615q13 65 50.5 97.5t97.5 32.5q29 0 54.5 -9.5t40.5 -27.5l-14 -13q-29 31 -82 31t-84.5 -27.5t-43.5 -89.5l-122 -609h-20zM83 498l3 19h115l-3 -19h-115z" />
    <glyph glyph-name="uni018F" unicode="&#x18f;" horiz-adv-x="816" 
d="M376 -3q-96 0 -165 35.5t-105.5 98t-36.5 143.5q0 20 3 40.5t7 45.5h683l-4 -19h-671l11 9q-4 -19 -6.5 -37.5t-2.5 -37.5q0 -77 35 -135.5t100 -91t154 -32.5q86 0 156.5 32t121.5 88t78.5 129t27.5 155q0 79 -33 138t-97 92.5t-157 33.5q-77 0 -138 -22t-103 -60
l-12 14q41 39 108.5 63t146.5 24q97 0 165 -35.5t104 -99t36 -148.5q0 -84 -28.5 -160t-81.5 -135.5t-128 -93.5t-168 -34z" />
    <glyph glyph-name="florin" unicode="&#x192;" horiz-adv-x="414" 
d="M-73 -197q-30 0 -55.5 9t-40.5 28l17 14q29 -32 81 -32q48 0 83.5 29t53.5 84l220 683q19 57 60 92t102 35q28 0 52.5 -9t39.5 -28l-17 -14q-11 16 -32.5 24t-46.5 8q-50 0 -85 -29t-54 -84l-32 -99l-3 -11l-185 -573q-18 -57 -57.5 -92t-100.5 -35zM148 498l6 19h295
l-6 -19h-295z" />
    <glyph glyph-name="Ohorn" unicode="&#x1a0;" horiz-adv-x="836" 
d="M386 -3q-102 0 -172 35.5t-106.5 99.5t-36.5 148t28.5 160t82.5 135.5t131 93.5t174 34q53 0 91.5 -3.5t72 -7.5t71.5 -4q55 0 84 22t29 60q0 20 -6 36.5t-14 30.5l18 8q10 -15 16 -34.5t6 -39.5q0 -32 -15.5 -55t-45.5 -35t-73 -12q-27 0 -46.5 1.5t-37.5 3.5l3 1
q80 -32 121 -98.5t41 -156.5q0 -84 -28.5 -160t-82.5 -135.5t-131 -93.5t-174 -34zM388 16q90 0 162.5 32t124 88t79.5 129t28 155q0 79 -33.5 138t-99.5 92.5t-164 33.5q-90 0 -162.5 -32t-124 -88t-79.5 -129t-28 -155q0 -78 33.5 -137.5t99.5 -93t164 -33.5z" />
    <glyph glyph-name="ohorn" unicode="&#x1a1;" horiz-adv-x="610" 
d="M269 -3q-67 0 -116.5 25.5t-76.5 73t-27 111.5q0 90 37.5 160.5t103.5 111.5t151 41q42 0 68.5 -1t48 -2.5t46.5 -1.5q40 0 61 18.5t21 54.5q0 20 -6 36.5t-14 30.5l18 8q10 -15 16 -34.5t6 -39.5q0 -30 -12 -50.5t-35 -31.5t-56 -11q-21 0 -40.5 1.5t-44.5 4.5h22
q59 -24 90 -73.5t31 -118.5q0 -90 -37.5 -160.5t-103.5 -111.5t-151 -41zM272 16q78 0 138.5 38t95.5 104.5t35 150.5q0 92 -53.5 142t-149.5 50q-77 0 -138 -38.5t-96 -104.5t-35 -150q0 -91 53.5 -141.5t149.5 -50.5z" />
    <glyph glyph-name="Uhorn" unicode="&#x1af;" horiz-adv-x="794" 
d="M354 -3q-93 0 -147.5 40.5t-72 107.5t-0.5 146l81 409h20l-82 -410q-11 -52 -6.5 -101t27.5 -88t68 -62t116 -23q87 0 146 32t94.5 90.5t51.5 136.5l85 425h20l-85 -426q-25 -129 -103 -203t-213 -74zM750 681v19h10q39 0 54.5 21t15.5 49q0 20 -6 36.5t-14 30.5l18 8
q10 -15 16 -34.5t6 -39.5q0 -24 -9 -44.5t-28.5 -33t-52.5 -12.5h-10z" />
    <glyph glyph-name="uhorn" unicode="&#x1b0;" horiz-adv-x="664" 
d="M273 -3q-71 0 -113.5 27.5t-57 76t-2.5 111.5l61 305h20l-61 -305q-18 -91 21 -143.5t134 -52.5q98 0 163 54.5t86 159.5l57 287h20l-103 -517h-20l30 150l10 5q-37 -82 -100.5 -120t-144.5 -38zM581 498v19h10q39 0 54.5 21t15.5 49q0 20 -6 36.5t-14 30.5l18 8
q10 -15 16 -34.5t6 -39.5q0 -24 -9 -44.5t-28.5 -33t-52.5 -12.5h-10z" />
    <glyph glyph-name="uni01B7" unicode="&#x1b7;" horiz-adv-x="576" 
d="M232 -3q-82 0 -143 28t-87 71l17 13q23 -40 78.5 -66.5t135.5 -26.5q75 0 130 25t84.5 70t29.5 105q0 74 -49 113t-151 39h-28l3 15l290 304l3 -6h-403l4 19h423l-3 -15l-291 -305l-3 7h5q73 0 121.5 -20t73.5 -58t25 -93q0 -65 -33 -114.5t-92.5 -77t-139.5 -27.5z" />
    <glyph glyph-name="uni01C4" unicode="&#x1c4;" horiz-adv-x="1461" 
d="M81 0l140 700h251q105 0 176.5 -35t108 -98t36.5 -147q0 -91 -30.5 -168t-87.5 -133.5t-137.5 -87.5t-180.5 -31h-276zM105 19h254q127 0 219.5 51.5t143.5 142t51 207.5q0 78 -33.5 137t-100.5 91.5t-169 32.5h-233zM809 0l3 15l649 673l-1 -7h-510l4 19h535l-3 -15
l-650 -673l2 7h525l-4 -19h-550zM1229 757l-110 110h25l105 -96h-6l123 96h29l-134 -110h-32z" />
    <glyph glyph-name="uni01C5" unicode="&#x1c5;" horiz-adv-x="1317" 
d="M81 0l140 700h251q105 0 176.5 -35t108 -98t36.5 -147q0 -91 -30.5 -168t-87.5 -133.5t-137.5 -87.5t-180.5 -31h-276zM105 19h254q127 0 219.5 51.5t143.5 142t51 207.5q0 78 -33.5 137t-100.5 91.5t-169 32.5h-233zM820 0l3 15l463 489l11 -6h-372l3 19h387l-3 -15
l-463 -489l-14 6h386l-4 -19h-397zM1134 607l-110 110h25l105 -96h-6l123 96h29l-134 -110h-32z" />
    <glyph glyph-name="uni01C6" unicode="&#x1c6;" horiz-adv-x="1162" 
d="M269 -3q-67 0 -116.5 25.5t-76.5 73t-27 111.5q0 67 21.5 124t60.5 99.5t92.5 66t117.5 23.5q69 0 117 -25t73.5 -71.5t25.5 -111.5q0 -67 -20.5 -124.5t-59 -100t-91.5 -66.5t-117 -24zM272 16q78 0 138.5 38t95.5 104.5t35 150.5q0 92 -53.5 142t-149.5 50
q-77 0 -138 -38.5t-96 -104.5t-35 -150q0 -91 53.5 -141.5t149.5 -50.5zM485 0l36 180l26 70l3 77l83 415h20l-148 -742h-20zM665 0l3 15l463 489l11 -6h-372l3 19h387l-3 -15l-463 -489l-14 6h386l-4 -19h-397zM979 607l-110 110h25l105 -96h-6l123 96h29l-134 -110h-32z
" />
    <glyph glyph-name="uni01C7" unicode="&#x1c7;" horiz-adv-x="1057" 
d="M81 0l140 700h20l-136 -681h417l-4 -19h-437zM717 -3q-59 0 -103.5 27.5t-63.5 71.5l18 10q19 -41 58 -65.5t94 -24.5q70 0 113.5 40t63.5 140l97 485h-262l4 19h282l-102 -510q-14 -70 -40.5 -112.5t-66 -61.5t-92.5 -19z" />
    <glyph glyph-name="uni01C8" unicode="&#x1c8;" horiz-adv-x="835" 
d="M81 0l140 700h20l-136 -681h417l-4 -19h-437zM510 -197q-30 0 -56 9.5t-43 26.5l15 15q34 -32 86 -32q50 0 80.5 27t42.5 88l116 580h20l-117 -586q-25 -128 -144 -128zM793 660q-10 0 -17 7t-7 17q0 11 8.5 19.5t19.5 8.5q10 0 17 -7t7 -17q0 -11 -8.5 -19.5t-19.5 -8.5
z" />
    <glyph glyph-name="uni01C9" unicode="&#x1c9;" horiz-adv-x="505" 
d="M63 0l148 742h20l-148 -742h-20zM180 -197q-30 0 -56 9.5t-43 26.5l15 15q34 -32 86 -32q50 0 80.5 27t42.5 88l116 580h20l-117 -586q-25 -128 -144 -128zM463 660q-10 0 -17 7t-7 17q0 11 8.5 19.5t19.5 8.5q10 0 17 -7t7 -17q0 -11 -8.5 -19.5t-19.5 -8.5z" />
    <glyph glyph-name="uni01CA" unicode="&#x1ca;" horiz-adv-x="1293" 
d="M81 0l140 700h17l386 -678l-8 3l135 675h20l-140 -700h-17l-386 678l8 -3l-135 -675h-20zM953 -3q-59 0 -103.5 27.5t-63.5 71.5l18 10q19 -41 58 -65.5t94 -24.5q70 0 113.5 40t63.5 140l97 485h-262l4 19h282l-102 -510q-14 -70 -40.5 -112.5t-66 -61.5t-92.5 -19z" />
    <glyph glyph-name="uni01CB" unicode="&#x1cb;" horiz-adv-x="1071" 
d="M81 0l140 700h17l386 -678l-8 3l135 675h20l-140 -700h-17l-386 678l8 -3l-135 -675h-20zM746 -197q-30 0 -56 9.5t-43 26.5l15 15q34 -32 86 -32q50 0 80.5 27t42.5 88l116 580h20l-117 -586q-25 -128 -144 -128zM1029 660q-10 0 -17 7t-7 17q0 11 8.5 19.5t19.5 8.5
q10 0 17 -7t7 -17q0 -11 -8.5 -19.5t-19.5 -8.5z" />
    <glyph glyph-name="uni01CC" unicode="&#x1cc;" horiz-adv-x="923" 
d="M393 520q72 0 115 -27.5t58 -76t2 -111.5l-61 -305h-20l61 305q18 91 -21.5 143.5t-135.5 52.5q-98 0 -164 -54.5t-87 -159.5l-57 -287h-20l103 517h20l-30 -150l-10 -5q37 83 101 120.5t146 37.5zM598 -197q-30 0 -56 9.5t-43 26.5l15 15q34 -32 86 -32q50 0 80.5 27
t42.5 88l116 580h20l-117 -586q-25 -128 -144 -128zM881 660q-10 0 -17 7t-7 17q0 11 8.5 19.5t19.5 8.5q10 0 17 -7t7 -17q0 -11 -8.5 -19.5t-19.5 -8.5z" />
    <glyph glyph-name="uni01CD" unicode="&#x1cd;" horiz-adv-x="688" 
d="M-43 0l465 700h20l185 -700h-21l-180 684h9l-454 -684h-24zM106 211l14 19h435l6 -19h-455zM437 757l-110 110h25l105 -96h-6l123 96h29l-134 -110h-32z" />
    <glyph glyph-name="uni01CE" unicode="&#x1ce;" horiz-adv-x="671" 
d="M269 -3q-67 0 -116.5 25.5t-76.5 73t-27 111.5q0 67 21.5 124t60.5 99.5t92.5 66t117.5 23.5q69 0 117 -25t73.5 -71.5t25.5 -111.5q1 -89 -35.5 -160.5t-101.5 -113t-151 -41.5zM272 16q78 0 138.5 38t95.5 104.5t35 150.5q0 92 -53.5 142t-149.5 50q-77 0 -138 -38.5
t-96 -104.5t-35 -150q0 -91 53.5 -141.5t149.5 -50.5zM485 0l36 180l26 70l3 77l38 190h20l-103 -517h-20zM380 607l-110 110h25l105 -96h-6l123 96h29l-134 -110h-32z" />
    <glyph glyph-name="uni01D3" unicode="&#x1d3;" horiz-adv-x="794" 
d="M354 -3q-93 0 -147.5 40.5t-72 107.5t-0.5 146l81 409h20l-82 -410q-11 -52 -6.5 -101t27.5 -88t68 -62t116 -23q87 0 146 32t94.5 90.5t51.5 136.5l85 425h20l-85 -426q-25 -129 -103 -203t-213 -74zM490 757l-110 110h25l105 -96h-6l123 96h29l-134 -110h-32z" />
    <glyph glyph-name="uni01D4" unicode="&#x1d4;" horiz-adv-x="664" 
d="M273 -3q-71 0 -113.5 27.5t-57 76t-2.5 111.5l61 305h20l-61 -305q-18 -91 21 -143.5t134 -52.5q98 0 163 54.5t86 159.5l57 287h20l-103 -517h-20l30 150l10 5q-37 -82 -100.5 -120t-144.5 -38zM393 607l-110 110h25l105 -96h-6l123 96h29l-134 -110h-32z" />
    <glyph glyph-name="uni01E4" unicode="&#x1e4;" horiz-adv-x="804" 
d="M412 224l4 19h360l-4 -19h-360zM386 -3q-102 0 -172 35.5t-106.5 99.5t-36.5 148t28.5 160t83 135.5t132.5 93.5t177 34q80 0 142.5 -23.5t97.5 -65.5l-14 -13q-36 41 -93.5 62t-134.5 21q-91 0 -165 -32t-126 -88t-80 -129t-28 -155q0 -78 33.5 -137.5t99.5 -93
t164 -33.5q71 0 127.5 23t102.5 63l10 -15q-44 -40 -106.5 -65t-135.5 -25zM609 87l51 256h19l-51 -256h-19z" />
    <glyph glyph-name="uni01E5" unicode="&#x1e5;" horiz-adv-x="680" 
d="M237 -197q-70 0 -126 23t-90 63l18 14q32 -40 83.5 -60.5t115.5 -20.5q112 0 176.5 53t86.5 168l33 166l22 60l2 60l37 188h20l-94 -471q-25 -128 -93.5 -185.5t-190.5 -57.5zM233 -69l4 19h328l-4 -19h-328zM274 17q-69 0 -119 24.5t-77 70t-27 107.5q0 86 38 154
t104.5 107.5t151.5 39.5q69 0 118 -24t75 -69t26 -109q1 -85 -36 -153t-102.5 -108t-151.5 -40zM276 36q79 0 140 36.5t96.5 100t35.5 144.5q0 88 -54 136t-151 48q-78 0 -139.5 -36.5t-97 -100t-35.5 -144.5q0 -88 54 -136t151 -48z" />
    <glyph glyph-name="Gcaron" unicode="&#x1e6;" horiz-adv-x="774" 
d="M386 -3q-102 0 -172 35.5t-106.5 99.5t-36.5 148t28.5 160t83 135.5t132.5 93.5t177 34q80 0 142.5 -23.5t97.5 -65.5l-14 -13q-36 41 -93.5 62t-134.5 21q-91 0 -165 -32t-126 -88t-80 -129t-28 -155q0 -78 33.5 -137.5t99.5 -93t164 -33.5q71 0 127.5 23t102.5 63
l10 -15q-44 -40 -106.5 -65t-135.5 -25zM609 87l51 256h19l-51 -256h-19zM495 756l-110 110h25l105 -96h-6l123 96h29l-134 -110h-32z" />
    <glyph glyph-name="gcaron" unicode="&#x1e7;" horiz-adv-x="677" 
d="M237 -197q-70 0 -126 23t-90 63l18 14q32 -40 83.5 -60.5t115.5 -20.5q112 0 176.5 53t86.5 168l33 166l22 60l2 60l37 188h20l-94 -471q-25 -128 -93.5 -185.5t-190.5 -57.5zM274 17q-69 0 -119 24.5t-77 70t-27 107.5q0 65 21.5 119.5t61 95.5t93.5 63.5t118 22.5
q69 0 118 -24t75 -69t26 -109q1 -85 -36 -153t-102.5 -108t-151.5 -40zM276 36q79 0 140 36.5t96.5 100t35.5 144.5q0 88 -54 136t-151 48q-78 0 -139.5 -36.5t-97 -100t-35.5 -144.5q0 -88 54 -136t151 -48zM378 607l-110 110h25l105 -96h-6l123 96h29l-134 -110h-32z" />
    <glyph glyph-name="uni01E8" unicode="&#x1e8;" horiz-adv-x="693" 
d="M133 182l7 31l572 487h30l-381 -324l-8 -7zM81 0l140 700h20l-140 -700h-20zM601 0l-261 377l17 10l268 -387h-24zM463 757l-110 110h25l105 -96h-6l123 96h29l-134 -110h-32z" />
    <glyph glyph-name="uni01E9" unicode="&#x1e9;" horiz-adv-x="557" 
d="M107 153l2 25l439 339h32l-269 -207l-14 -11zM63 0l148 742h20l-148 -742h-20zM476 0l-183 304l16 12l191 -316h-24zM233 832l-110 110h25l105 -96h-6l123 96h29l-134 -110h-32z" />
    <glyph glyph-name="uni01EA" unicode="&#x1ea;" horiz-adv-x="836" 
d="M317 -213q-34 0 -54.5 18.5t-20.5 50.5q0 41 33.5 79t107.5 65l3 -3q-102 0 -172 35.5t-106.5 99.5t-36.5 148t28.5 160t82.5 135.5t131 93.5t174 34q102 0 172.5 -35.5t106.5 -99t36 -148.5q0 -100 -40 -188t-115 -148.5t-179 -79.5q-73 -13 -118.5 -37t-66.5 -53
t-21 -56q0 -25 15 -38.5t42 -13.5q19 0 37.5 6.5t33.5 18.5l8 -17q-17 -13 -37.5 -20t-43.5 -7zM388 16q90 0 162.5 32t124 88t79.5 129t28 155q0 79 -33.5 138t-99.5 92.5t-164 33.5q-90 0 -162.5 -32t-124 -88t-79.5 -129t-28 -155q0 -78 33.5 -137.5t99.5 -93t164 -33.5z
" />
    <glyph glyph-name="uni01EB" unicode="&#x1eb;" horiz-adv-x="610" 
d="M238 -213q-34 0 -54.5 18.5t-20.5 50.5q0 40 33 78.5t109 70.5l-3 -6q-11 -1 -18.5 -1.5t-14.5 -0.5q-67 0 -116.5 25.5t-76.5 73t-27 111.5q0 90 37.5 160.5t103.5 111.5t151 41q68 0 117 -25.5t76 -72.5t27 -112q0 -70 -23.5 -129.5t-66.5 -102.5t-101 -64
q-65 -23 -106.5 -48.5t-61 -52.5t-19.5 -55q0 -25 15 -38.5t42 -13.5q19 0 37.5 6.5t33.5 18.5l8 -17q-17 -13 -37.5 -20t-43.5 -7zM272 16q78 0 138.5 38t95.5 104.5t35 150.5q0 92 -53.5 142t-149.5 50q-77 0 -138 -38.5t-96 -104.5t-35 -150q0 -91 53.5 -141.5
t149.5 -50.5z" />
    <glyph glyph-name="uni01EE" unicode="&#x1ee;" horiz-adv-x="576" 
d="M232 -3q-82 0 -143 28t-87 71l17 13q23 -40 78.5 -66.5t135.5 -26.5q75 0 130 25t84.5 70t29.5 105q0 74 -49 113t-151 39h-28l3 15l290 304l3 -6h-403l4 19h423l-3 -15l-291 -305l-3 7h5q73 0 121.5 -20t73.5 -58t25 -93q0 -65 -33 -114.5t-92.5 -77t-139.5 -27.5z
M372 757l-110 110h25l105 -96h-6l123 96h29l-134 -110h-32z" />
    <glyph glyph-name="uni01EF" unicode="&#x1ef;" horiz-adv-x="487" 
d="M130 -198q-63 0 -123 23t-104 76l15 14q41 -50 97.5 -72t115.5 -22q65 0 121.5 24t91 70t34.5 112q0 73 -48.5 112.5t-151.5 39.5h-28l3 15l292 310l3 -6h-403l4 19h423l-3 -15l-294 -311l-2 7h5q109 0 164.5 -45t55.5 -128q0 -54 -21.5 -95.5t-59 -70t-86 -43
t-101.5 -14.5zM298 607l-110 110h25l105 -96h-6l123 96h29l-134 -110h-32z" />
    <glyph glyph-name="Aringacute" unicode="&#x1fa;" horiz-adv-x="688" 
d="M-43 0l465 700h20l185 -700h-21l-180 684h9l-454 -684h-24zM106 211l14 19h435l6 -19h-455zM467 780q-27 0 -47.5 12.5t-32.5 33t-12 44.5q0 25 12 46t33 34t47 13q27 0 48 -13t33 -34t12 -46q0 -24 -12 -44.5t-33 -33t-48 -12.5zM467 799q32 0 52.5 21t20.5 50
q0 30 -20.5 52t-52.5 22q-31 0 -51.5 -21.5t-20.5 -52.5q0 -30 20 -50.5t52 -20.5zM535 928l-21 9l89 84l17 -13z" />
    <glyph glyph-name="aringacute" unicode="&#x1fb;" horiz-adv-x="671" 
d="M269 -3q-67 0 -116.5 25.5t-76.5 73t-27 111.5q0 67 21.5 124t60.5 99.5t92.5 66t117.5 23.5q69 0 117 -25t73.5 -71.5t25.5 -111.5q1 -89 -35.5 -160.5t-101.5 -113t-151 -41.5zM272 16q78 0 138.5 38t95.5 104.5t35 150.5q0 92 -53.5 142t-149.5 50q-77 0 -138 -38.5
t-96 -104.5t-35 -150q0 -91 53.5 -141.5t149.5 -50.5zM485 0l36 180l26 70l3 77l38 190h20l-103 -517h-20zM403 597q-27 0 -47.5 12.5t-32.5 33t-12 44.5q0 25 12 46t33 34t47 13q27 0 48 -13t33 -34t12 -46q0 -24 -12 -44.5t-33 -33t-48 -12.5zM403 616q32 0 52.5 21
t20.5 50q0 30 -20.5 52t-52.5 22q-31 0 -51.5 -21.5t-20.5 -52.5q0 -30 20 -50.5t52 -20.5zM471 745l-21 9l89 84l17 -13z" />
    <glyph glyph-name="AEacute" unicode="&#x1fc;" horiz-adv-x="1005" 
d="M-43 0l583 700h23l-4 -19h-22l16 4l-571 -685h-25zM143 211l14 19h312l-4 -19h-322zM418 0l140 700h451l-4 -19h-431l-132 -662h446l-4 -19h-466zM502 346l4 19h391l-4 -19h-391zM533 757l152 110h42l-162 -110h-32z" />
    <glyph glyph-name="aeacute" unicode="&#x1fd;" horiz-adv-x="983" 
d="M206 -3q-52 0 -89 15t-57 43t-20 67q0 74 56.5 116t155.5 42h203l-4 -19h-199q-91 0 -141.5 -36.5t-50.5 -101.5q0 -52 38 -79.5t110 -27.5q54 0 100.5 21.5t79.5 63t45 101.5l26 129q17 84 -17 127t-120 43q-55 0 -106.5 -19.5t-87.5 -51.5l-12 14q26 24 60 41t71.5 26
t75.5 9q92 0 131 -46t27 -124l-6 9q25 51 62.5 87t84 55t98.5 19q66 0 113.5 -25t73 -72t25.5 -113q0 -13 -2 -26t-4 -23h-465l4 19h454l-10 -13q12 76 -9.5 128t-68.5 79t-112 27q-72 0 -130.5 -38t-92.5 -103.5t-34 -149.5q0 -94 54 -144t157 -50q58 0 106 20.5t80 56.5
l13 -13q-33 -37 -85.5 -60t-115.5 -23q-66 0 -115.5 21.5t-78.5 64.5t-34 106l6 -2q-17 -67 -55 -109t-87 -61.5t-101 -19.5zM478 607l152 110h42l-162 -110h-32z" />
    <glyph glyph-name="Oslashacute" unicode="&#x1fe;" horiz-adv-x="836" 
d="M386 -3q-102 0 -172 35.5t-106.5 99.5t-36.5 148t28.5 160t82.5 135.5t131 93.5t174 34q102 0 172.5 -35.5t106.5 -99t36 -148.5q0 -84 -28.5 -160t-82.5 -135.5t-131 -93.5t-174 -34zM388 16q90 0 162.5 32t124 88t79.5 129t28 155q0 79 -33.5 138t-99.5 92.5t-164 33.5
q-90 0 -162.5 -32t-124 -88t-79.5 -129t-28 -155q0 -78 33.5 -137.5t99.5 -93t164 -33.5zM32 -70l781 840h25l-781 -840h-25zM471 757l152 110h42l-162 -110h-32z" />
    <glyph glyph-name="oslashacute" unicode="&#x1ff;" horiz-adv-x="610" 
d="M269 -3q-67 0 -116.5 25.5t-76.5 73t-27 111.5q0 90 37.5 160.5t103.5 111.5t151 41q68 0 117 -25.5t76 -72.5t27 -112q0 -90 -37.5 -160.5t-103.5 -111.5t-151 -41zM272 16q78 0 138.5 38t95.5 104.5t35 150.5q0 92 -53.5 142t-149.5 50q-77 0 -138 -38.5t-96 -104.5
t-35 -150q0 -91 53.5 -141.5t149.5 -50.5zM4 -69l575 657h25l-575 -657h-25zM328 607l152 110h42l-162 -110h-32z" />
    <glyph glyph-name="uni0200" unicode="&#x200;" horiz-adv-x="688" 
d="M-43 0l465 700h20l185 -700h-21l-180 684h9l-454 -684h-24zM106 211l14 19h435l6 -19h-455zM499 757l-96 110h34l89 -110h-27zM360 757l-96 110h34l89 -110h-27z" />
    <glyph glyph-name="uni0201" unicode="&#x201;" horiz-adv-x="671" 
d="M269 -3q-67 0 -116.5 25.5t-76.5 73t-27 111.5q0 67 21.5 124t60.5 99.5t92.5 66t117.5 23.5q69 0 117 -25t73.5 -71.5t25.5 -111.5q1 -89 -35.5 -160.5t-101.5 -113t-151 -41.5zM272 16q78 0 138.5 38t95.5 104.5t35 150.5q0 92 -53.5 142t-149.5 50q-77 0 -138 -38.5
t-96 -104.5t-35 -150q0 -91 53.5 -141.5t149.5 -50.5zM485 0l36 180l26 70l3 77l38 190h20l-103 -517h-20zM442 607l-96 110h34l89 -110h-27zM303 607l-96 110h34l89 -110h-27z" />
    <glyph glyph-name="uni0202" unicode="&#x202;" horiz-adv-x="688" 
d="M-43 0l465 700h20l185 -700h-21l-180 684h9l-454 -684h-24zM106 211l14 19h435l6 -19h-455zM311 757q8 53 48 83t94 30q36 0 64.5 -14t44.5 -39t13 -60h-19q3 44 -26.5 69t-77.5 25q-45 0 -80.5 -25t-41.5 -69h-19z" />
    <glyph glyph-name="uni0203" unicode="&#x203;" horiz-adv-x="671" 
d="M269 -3q-67 0 -116.5 25.5t-76.5 73t-27 111.5q0 67 21.5 124t60.5 99.5t92.5 66t117.5 23.5q69 0 117 -25t73.5 -71.5t25.5 -111.5q1 -89 -35.5 -160.5t-101.5 -113t-151 -41.5zM272 16q78 0 138.5 38t95.5 104.5t35 150.5q0 92 -53.5 142t-149.5 50q-77 0 -138 -38.5
t-96 -104.5t-35 -150q0 -91 53.5 -141.5t149.5 -50.5zM485 0l36 180l26 70l3 77l38 190h20l-103 -517h-20zM254 607q8 53 48 83t94 30q36 0 64.5 -14t44.5 -39t13 -60h-19q3 44 -26.5 69t-77.5 25q-45 0 -80.5 -25t-41.5 -69h-19z" />
    <glyph glyph-name="uni0204" unicode="&#x204;" horiz-adv-x="668" 
d="M169 365h391l-4 -19h-391zM105 19h446l-4 -19h-466l140 700h451l-4 -19h-431zM514 757l-96 110h34l89 -110h-27zM375 757l-96 110h34l89 -110h-27z" />
    <glyph glyph-name="uni0205" unicode="&#x205;" horiz-adv-x="589" 
d="M278 -3q-71 0 -122.5 25t-78.5 72.5t-27 115.5q0 88 36 158t98.5 111t141.5 41q66 0 113 -25t72.5 -72t25.5 -113q0 -13 -1.5 -26.5t-3.5 -24.5h-466l4 19h453l-8 -11q12 76 -10 128t-68.5 79t-110.5 27q-73 0 -131.5 -38t-92 -103.5t-33.5 -149.5q0 -94 54 -144t156 -50
q59 0 108 20.5t80 56.5l12 -13q-31 -37 -84.5 -60t-116.5 -23zM413 607l-96 110h34l89 -110h-27zM274 607l-96 110h34l89 -110h-27z" />
    <glyph glyph-name="uni0206" unicode="&#x206;" horiz-adv-x="668" 
d="M169 365h391l-4 -19h-391zM105 19h446l-4 -19h-466l140 700h451l-4 -19h-431zM326 757q8 53 48 83t94 30q36 0 64.5 -14t44.5 -39t13 -60h-19q3 44 -26.5 69t-77.5 25q-45 0 -80.5 -25t-41.5 -69h-19z" />
    <glyph glyph-name="uni0207" unicode="&#x207;" horiz-adv-x="589" 
d="M278 -3q-71 0 -122.5 25t-78.5 72.5t-27 115.5q0 88 36 158t98.5 111t141.5 41q66 0 113 -25t72.5 -72t25.5 -113q0 -13 -1.5 -26.5t-3.5 -24.5h-466l4 19h453l-8 -11q12 76 -10 128t-68.5 79t-110.5 27q-73 0 -131.5 -38t-92 -103.5t-33.5 -149.5q0 -94 54 -144t156 -50
q59 0 108 20.5t80 56.5l12 -13q-31 -37 -84.5 -60t-116.5 -23zM225 607q8 53 48 83t94 30q36 0 64.5 -14t44.5 -39t13 -60h-19q3 44 -26.5 69t-77.5 25q-45 0 -80.5 -25t-41.5 -69h-19z" />
    <glyph glyph-name="uni0208" unicode="&#x208;" horiz-adv-x="286" 
d="M81 0l140 700h20l-140 -700h-20zM298 757l-96 110h34l89 -110h-27zM159 757l-96 110h34l89 -110h-27z" />
    <glyph glyph-name="uni0209" unicode="&#x209;" horiz-adv-x="250" 
d="M63 0l103 517h20l-103 -517h-20zM250 607l-96 110h34l89 -110h-27zM111 607l-96 110h34l89 -110h-27z" />
    <glyph glyph-name="uni020A" unicode="&#x20a;" horiz-adv-x="286" 
d="M81 0l140 700h20l-140 -700h-20zM110 757q8 53 48 83t94 30q36 0 64.5 -14t44.5 -39t13 -60h-19q3 44 -26.5 69t-77.5 25q-45 0 -80.5 -25t-41.5 -69h-19z" />
    <glyph glyph-name="uni020B" unicode="&#x20b;" horiz-adv-x="250" 
d="M63 0l103 517h20l-103 -517h-20zM87 607q6 55 36.5 84t80.5 29q34 0 57 -14t34 -39.5t6 -59.5h-18q5 45 -16 69.5t-62 24.5q-87 0 -98 -94h-20z" />
    <glyph glyph-name="uni020C" unicode="&#x20c;" horiz-adv-x="836" 
d="M386 -3q-102 0 -172 35.5t-106.5 99.5t-36.5 148t28.5 160t82.5 135.5t131 93.5t174 34q102 0 172.5 -35.5t106.5 -99t36 -148.5q0 -84 -28.5 -160t-82.5 -135.5t-131 -93.5t-174 -34zM388 16q90 0 162.5 32t124 88t79.5 129t28 155q0 79 -33.5 138t-99.5 92.5t-164 33.5
q-90 0 -162.5 -32t-124 -88t-79.5 -129t-28 -155q0 -78 33.5 -137.5t99.5 -93t164 -33.5zM573 757l-96 110h34l89 -110h-27zM434 757l-96 110h34l89 -110h-27z" />
    <glyph glyph-name="uni020D" unicode="&#x20d;" horiz-adv-x="610" 
d="M269 -3q-67 0 -116.5 25.5t-76.5 73t-27 111.5q0 90 37.5 160.5t103.5 111.5t151 41q68 0 117 -25.5t76 -72.5t27 -112q0 -90 -37.5 -160.5t-103.5 -111.5t-151 -41zM272 16q78 0 138.5 38t95.5 104.5t35 150.5q0 92 -53.5 142t-149.5 50q-77 0 -138 -38.5t-96 -104.5
t-35 -150q0 -91 53.5 -141.5t149.5 -50.5zM430 607l-96 110h34l89 -110h-27zM291 607l-96 110h34l89 -110h-27z" />
    <glyph glyph-name="uni020E" unicode="&#x20e;" horiz-adv-x="836" 
d="M386 -3q-102 0 -172 35.5t-106.5 99.5t-36.5 148t28.5 160t82.5 135.5t131 93.5t174 34q102 0 172.5 -35.5t106.5 -99t36 -148.5q0 -84 -28.5 -160t-82.5 -135.5t-131 -93.5t-174 -34zM388 16q90 0 162.5 32t124 88t79.5 129t28 155q0 79 -33.5 138t-99.5 92.5t-164 33.5
q-90 0 -162.5 -32t-124 -88t-79.5 -129t-28 -155q0 -78 33.5 -137.5t99.5 -93t164 -33.5zM385 757q8 53 48 83t94 30q36 0 64.5 -14t44.5 -39t13 -60h-19q3 44 -26.5 69t-77.5 25q-45 0 -80.5 -25t-41.5 -69h-19z" />
    <glyph glyph-name="uni020F" unicode="&#x20f;" horiz-adv-x="610" 
d="M269 -3q-67 0 -116.5 25.5t-76.5 73t-27 111.5q0 90 37.5 160.5t103.5 111.5t151 41q68 0 117 -25.5t76 -72.5t27 -112q0 -90 -37.5 -160.5t-103.5 -111.5t-151 -41zM272 16q78 0 138.5 38t95.5 104.5t35 150.5q0 92 -53.5 142t-149.5 50q-77 0 -138 -38.5t-96 -104.5
t-35 -150q0 -91 53.5 -141.5t149.5 -50.5zM242 607q8 53 48 83t94 30q36 0 64.5 -14t44.5 -39t13 -60h-19q3 44 -26.5 69t-77.5 25q-45 0 -80.5 -25t-41.5 -69h-19z" />
    <glyph glyph-name="uni0210" unicode="&#x210;" horiz-adv-x="716" 
d="M81 0l140 700h235q111 0 172.5 -48.5t61.5 -137.5q0 -90 -38.5 -151t-109.5 -92t-169 -31h-233l11 9l-50 -249h-20zM580 0l-144 254h23l144 -254h-23zM151 251l-7 8h228q142 0 220 64t78 191q0 80 -55 123.5t-158 43.5h-229l11 8zM521 757l-96 110h34l89 -110h-27z
M382 757l-96 110h34l89 -110h-27z" />
    <glyph glyph-name="uni0211" unicode="&#x211;" horiz-adv-x="383" 
d="M63 0l103 517h20l-32 -160l-5 5q32 74 91 116t150 42l-4 -20h-4.5h-4.5q-95 0 -156 -58.5t-84 -171.5l-54 -270h-20zM352 607l-96 110h34l89 -110h-27zM213 607l-96 110h34l89 -110h-27z" />
    <glyph glyph-name="uni0212" unicode="&#x212;" horiz-adv-x="716" 
d="M81 0l140 700h235q111 0 172.5 -48.5t61.5 -137.5q0 -90 -38.5 -151t-109.5 -92t-169 -31h-233l11 9l-50 -249h-20zM580 0l-144 254h23l144 -254h-23zM151 251l-7 8h228q142 0 220 64t78 191q0 80 -55 123.5t-158 43.5h-229l11 8zM333 757q8 53 48 83t94 30
q36 0 64.5 -14t44.5 -39t13 -60h-19q3 44 -26.5 69t-77.5 25q-45 0 -80.5 -25t-41.5 -69h-19z" />
    <glyph glyph-name="uni0213" unicode="&#x213;" horiz-adv-x="383" 
d="M63 0l103 517h20l-32 -160l-5 5q32 74 91 116t150 42l-4 -20h-4.5h-4.5q-95 0 -156 -58.5t-84 -171.5l-54 -270h-20zM164 607q8 53 48 83t94 30q36 0 64.5 -14t44.5 -39t13 -60h-19q3 44 -26.5 69t-77.5 25q-45 0 -80.5 -25t-41.5 -69h-19z" />
    <glyph glyph-name="uni0214" unicode="&#x214;" horiz-adv-x="794" 
d="M354 -3q-93 0 -147.5 40.5t-72 107.5t-0.5 146l81 409h20l-82 -410q-11 -52 -6.5 -101t27.5 -88t68 -62t116 -23q87 0 146 32t94.5 90.5t51.5 136.5l85 425h20l-85 -426q-25 -129 -103 -203t-213 -74zM552 757l-96 110h34l89 -110h-27zM413 757l-96 110h34l89 -110h-27z
" />
    <glyph glyph-name="uni0215" unicode="&#x215;" horiz-adv-x="664" 
d="M273 -3q-71 0 -113.5 27.5t-57 76t-2.5 111.5l61 305h20l-61 -305q-18 -91 21 -143.5t134 -52.5q98 0 163 54.5t86 159.5l57 287h20l-103 -517h-20l30 150l10 5q-37 -82 -100.5 -120t-144.5 -38zM455 607l-96 110h34l89 -110h-27zM316 607l-96 110h34l89 -110h-27z" />
    <glyph glyph-name="uni0216" unicode="&#x216;" horiz-adv-x="794" 
d="M354 -3q-93 0 -147.5 40.5t-72 107.5t-0.5 146l81 409h20l-82 -410q-11 -52 -6.5 -101t27.5 -88t68 -62t116 -23q87 0 146 32t94.5 90.5t51.5 136.5l85 425h20l-85 -426q-25 -129 -103 -203t-213 -74zM364 757q8 53 48 83t94 30q36 0 64.5 -14t44.5 -39t13 -60h-19
q3 44 -26.5 69t-77.5 25q-45 0 -80.5 -25t-41.5 -69h-19z" />
    <glyph glyph-name="uni0217" unicode="&#x217;" horiz-adv-x="664" 
d="M273 -3q-71 0 -113.5 27.5t-57 76t-2.5 111.5l61 305h20l-61 -305q-18 -91 21 -143.5t134 -52.5q98 0 163 54.5t86 159.5l57 287h20l-103 -517h-20l30 150l10 5q-37 -82 -100.5 -120t-144.5 -38zM267 607q8 53 48 83t94 30q36 0 64.5 -14t44.5 -39t13 -60h-19
q3 44 -26.5 69t-77.5 25q-45 0 -80.5 -25t-41.5 -69h-19z" />
    <glyph glyph-name="uni0218" unicode="&#x218;" horiz-adv-x="601" 
d="M263 -3q-49 0 -96.5 13t-84.5 35t-56 50l16 13q19 -26 54 -47t79 -33t89 -12q71 0 126 20.5t86 60.5t31 97q0 41 -20.5 66.5t-54 41.5t-73.5 27t-80 23.5t-73.5 30t-54 46.5t-20.5 74q0 65 34 109.5t92 67.5t131 23q57 0 111 -16t91 -46l-13 -17q-37 29 -85.5 44.5
t-103.5 15.5q-69 0 -123 -21t-84.5 -61t-30.5 -97q0 -41 20.5 -67t54 -42.5t74 -28t80.5 -23.5t73.5 -30t54 -46t20.5 -73q0 -66 -35.5 -110t-95 -66t-133.5 -22zM195 -259l40 94l1 -11q-10 0 -18 8t-8 18q0 11 7.5 18.5t17.5 7.5q12 0 19.5 -7.5t7.5 -18.5q0 -8 -2 -14.5
t-7 -14.5l-40 -80h-18z" />
    <glyph glyph-name="uni0219" unicode="&#x219;" horiz-adv-x="463" 
d="M189 -3q-58 0 -111 19.5t-81 49.5l15 16q29 -31 77 -48.5t101 -17.5q89 0 140 34t51 94q0 38 -22 58t-57 30t-74.5 17.5t-74.5 19t-57 35.5t-22 67q0 45 25.5 78.5t71.5 52t107 18.5q47 0 92.5 -14t71.5 -39l-14 -15q-28 24 -68 36.5t-83 12.5q-83 0 -133 -35t-50 -94
q0 -38 22 -58.5t57 -30.5t74.5 -17.5t74.5 -19.5t57 -35t22 -66q0 -46 -26 -79t-73.5 -51t-112.5 -18zM109 -259l40 94l1 -11q-10 0 -18 8t-8 18q0 11 7.5 18.5t17.5 7.5q12 0 19.5 -7.5t7.5 -18.5q0 -8 -2 -14.5t-7 -14.5l-40 -80h-18z" />
    <glyph glyph-name="uni021A" unicode="&#x21a;" horiz-adv-x="548" 
d="M212 0l136 681h-260l4 19h540l-4 -19h-260l-136 -681h-20zM151 -259l40 94l1 -11q-10 0 -18 8t-8 18q0 11 7.5 18.5t17.5 7.5q12 0 19.5 -7.5t7.5 -18.5q0 -8 -2 -14.5t-7 -14.5l-40 -80h-18z" />
    <glyph glyph-name="uni021B" unicode="&#x21b;" horiz-adv-x="388" 
d="M200 -3q-41 0 -67 16.5t-34.5 47t-0.5 73.5l99 496h20l-98 -491q-13 -62 8 -92.5t75 -30.5q26 0 49 8t42 24l11 -14q-21 -19 -49 -28t-55 -9zM71 498l3 19h295l-3 -19h-295zM118 -259l40 94l1 -11q-10 0 -18 8t-8 18q0 11 7.5 18.5t17.5 7.5q12 0 19.5 -7.5t7.5 -18.5
q0 -8 -2 -14.5t-7 -14.5l-40 -80h-18z" />
    <glyph glyph-name="uni021E" unicode="&#x21e;" horiz-adv-x="816" 
d="M751 700h20l-140 -700h-20zM101 0h-20l140 700h20zM685 346h-520l4 19h520zM501 757l-110 110h25l105 -96h-6l123 96h29l-134 -110h-32z" />
    <glyph glyph-name="uni021F" unicode="&#x21f;" horiz-adv-x="668" 
d="M393 520q72 0 115 -27.5t58 -76t2 -111.5l-61 -305h-20l61 305q18 91 -21.5 143.5t-135.5 52.5q-98 0 -164 -54.5t-87 -159.5l-57 -287h-20l148 742h20l-75 -375l-10 -5q37 83 101 120.5t146 37.5zM233 832l-110 110h25l105 -96h-6l123 96h29l-134 -110h-32z" />
    <glyph glyph-name="uni022A" unicode="&#x22a;" horiz-adv-x="836" 
d="M386 -3q-102 0 -172 35.5t-106.5 99.5t-36.5 148t28.5 160t82.5 135.5t131 93.5t174 34q102 0 172.5 -35.5t106.5 -99t36 -148.5q0 -84 -28.5 -160t-82.5 -135.5t-131 -93.5t-174 -34zM388 16q90 0 162.5 32t124 88t79.5 129t28 155q0 79 -33.5 138t-99.5 92.5t-164 33.5
q-90 0 -162.5 -32t-124 -88t-79.5 -129t-28 -155q0 -78 33.5 -137.5t99.5 -93t164 -33.5zM610 791q-10 0 -17.5 7t-7.5 17q0 11 8 19.5t19 8.5q10 0 17.5 -7t7.5 -17q0 -11 -8 -19.5t-19 -8.5zM446 791q-10 0 -17.5 7t-7.5 17q0 11 8 19.5t19 8.5q10 0 17.5 -7t7.5 -17
q0 -11 -8 -19.5t-19 -8.5zM410 900l4 20h272l-4 -20h-272z" />
    <glyph glyph-name="uni022B" unicode="&#x22b;" horiz-adv-x="610" 
d="M269 -3q-67 0 -116.5 25.5t-76.5 73t-27 111.5q0 90 37.5 160.5t103.5 111.5t151 41q68 0 117 -25.5t76 -72.5t27 -112q0 -90 -37.5 -160.5t-103.5 -111.5t-151 -41zM272 16q78 0 138.5 38t95.5 104.5t35 150.5q0 92 -53.5 142t-149.5 50q-77 0 -138 -38.5t-96 -104.5
t-35 -150q0 -91 53.5 -141.5t149.5 -50.5zM467 641q-10 0 -17.5 7t-7.5 17q0 11 8 19.5t19 8.5q10 0 17.5 -7t7.5 -17q0 -11 -8 -19.5t-19 -8.5zM303 641q-10 0 -17.5 7t-7.5 17q0 11 8 19.5t19 8.5q10 0 17.5 -7t7.5 -17q0 -11 -8 -19.5t-19 -8.5zM267 750l4 20h272l-4 -20
h-272z" />
    <glyph glyph-name="uni022C" unicode="&#x22c;" horiz-adv-x="836" 
d="M386 -3q-102 0 -172 35.5t-106.5 99.5t-36.5 148t28.5 160t82.5 135.5t131 93.5t174 34q102 0 172.5 -35.5t106.5 -99t36 -148.5q0 -84 -28.5 -160t-82.5 -135.5t-131 -93.5t-174 -34zM388 16q90 0 162.5 32t124 88t79.5 129t28 155q0 79 -33.5 138t-99.5 92.5t-164 33.5
q-90 0 -162.5 -32t-124 -88t-79.5 -129t-28 -155q0 -78 33.5 -137.5t99.5 -93t164 -33.5zM586 772q-27 0 -45 13.5t-33.5 27t-37.5 13.5q-25 0 -42 -13.5t-22 -38.5h-19q6 32 28.5 51.5t53.5 19.5q27 0 45 -13.5t34 -27t37 -13.5q26 0 42.5 13t21.5 37h19q-6 -31 -28.5 -50
t-53.5 -19zM410 900l4 20h272l-4 -20h-272z" />
    <glyph glyph-name="uni022D" unicode="&#x22d;" horiz-adv-x="610" 
d="M269 -3q-67 0 -116.5 25.5t-76.5 73t-27 111.5q0 90 37.5 160.5t103.5 111.5t151 41q68 0 117 -25.5t76 -72.5t27 -112q0 -90 -37.5 -160.5t-103.5 -111.5t-151 -41zM272 16q78 0 138.5 38t95.5 104.5t35 150.5q0 92 -53.5 142t-149.5 50q-77 0 -138 -38.5t-96 -104.5
t-35 -150q0 -91 53.5 -141.5t149.5 -50.5zM443 622q-27 0 -45 13.5t-33.5 27t-37.5 13.5q-25 0 -42 -13.5t-22 -38.5h-19q6 32 28.5 51.5t53.5 19.5q27 0 45 -13.5t34 -27t37 -13.5q26 0 42.5 13t21.5 37h19q-6 -31 -28.5 -50t-53.5 -19zM267 750l4 20h272l-4 -20h-272z" />
    <glyph glyph-name="uni0230" unicode="&#x230;" horiz-adv-x="836" 
d="M386 -3q-102 0 -172 35.5t-106.5 99.5t-36.5 148t28.5 160t82.5 135.5t131 93.5t174 34q102 0 172.5 -35.5t106.5 -99t36 -148.5q0 -84 -28.5 -160t-82.5 -135.5t-131 -93.5t-174 -34zM388 16q90 0 162.5 32t124 88t79.5 129t28 155q0 79 -33.5 138t-99.5 92.5t-164 33.5
q-90 0 -162.5 -32t-124 -88t-79.5 -129t-28 -155q0 -78 33.5 -137.5t99.5 -93t164 -33.5zM528 791q-10 0 -17.5 7t-7.5 17q0 11 8 19.5t19 8.5q10 0 17.5 -7t7.5 -17q0 -11 -8 -19.5t-19 -8.5zM410 900l4 20h272l-4 -20h-272z" />
    <glyph glyph-name="uni0231" unicode="&#x231;" horiz-adv-x="610" 
d="M269 -3q-67 0 -116.5 25.5t-76.5 73t-27 111.5q0 90 37.5 160.5t103.5 111.5t151 41q68 0 117 -25.5t76 -72.5t27 -112q0 -90 -37.5 -160.5t-103.5 -111.5t-151 -41zM272 16q78 0 138.5 38t95.5 104.5t35 150.5q0 92 -53.5 142t-149.5 50q-77 0 -138 -38.5t-96 -104.5
t-35 -150q0 -91 53.5 -141.5t149.5 -50.5zM385 641q-10 0 -17.5 7t-7.5 17q0 11 8 19.5t19 8.5q10 0 17.5 -7t7.5 -17q0 -11 -8 -19.5t-19 -8.5zM267 750l4 20h272l-4 -20h-272z" />
    <glyph glyph-name="uni0232" unicode="&#x232;" horiz-adv-x="610" 
d="M243 0l49 245l2 -15l-196 470h22l186 -447l-7 -1l364 448h25l-384 -472l8 17l-49 -245h-20zM277 802l4 20h272l-4 -20h-272z" />
    <glyph glyph-name="uni0233" unicode="&#x233;" horiz-adv-x="508" 
d="M-3 -197q-33 0 -62.5 12t-46.5 34l16 15q17 -22 41 -32t55 -10q36 0 68 20.5t69 76.5l58 88l6 7l329 503h24l-399 -607q-28 -41 -52.5 -64.5t-50 -33t-55.5 -9.5zM196 -11l-138 528h21l130 -503zM181 652l4 20h272l-4 -20h-272z" />
    <glyph glyph-name="uni0237" unicode="&#x237;" horiz-adv-x="255" 
d="M-70 -197q-30 0 -56 9.5t-43 26.5l15 15q34 -32 86 -32q50 0 80.5 27t42.5 88l116 580h20l-117 -586q-25 -128 -144 -128z" />
    <glyph glyph-name="uni0259" unicode="&#x259;" horiz-adv-x="589" 
d="M311 520q72 0 123 -25t78 -72.5t27 -115.5q0 -88 -36 -158t-98 -111t-142 -41q-65 0 -112.5 25t-73 72.5t-25.5 112.5q0 14 1.5 27t3.5 24h466l-4 -19h-453l8 11q-12 -75 10 -127.5t69 -79.5t110 -27q74 0 132 38t91.5 104t33.5 149q0 94 -54 144t-156 50
q-58 0 -107 -20.5t-81 -56.5l-12 13q32 38 85 60.5t116 22.5z" />
    <glyph glyph-name="uni0292" unicode="&#x292;" horiz-adv-x="487" 
d="M130 -198q-63 0 -123 23t-104 76l15 14q41 -50 97.5 -72t115.5 -22q65 0 121.5 24t91 70t34.5 112q0 73 -48.5 112.5t-151.5 39.5h-28l3 15l292 310l3 -6h-403l4 19h423l-3 -15l-294 -311l-2 7h5q109 0 164.5 -45t55.5 -128q0 -54 -21.5 -95.5t-59 -70t-86 -43
t-101.5 -14.5z" />
    <glyph glyph-name="uni02B9" unicode="&#x2b9;" horiz-adv-x="184" 
d="M121 450l48 250h22l-52 -250h-18z" />
    <glyph glyph-name="uni02BA" unicode="&#x2ba;" horiz-adv-x="334" 
d="M271 450l48 250h22l-52 -250h-18zM121 450l48 250h22l-52 -250h-18z" />
    <glyph glyph-name="uni02BB" unicode="&#x2bb;" horiz-adv-x="254" 
d="M248 797l-61 -148l-1 11q11 0 18.5 -7.5t7.5 -18.5q0 -10 -7.5 -18t-18.5 -8q-10 0 -18 8t-8 18q0 8 2.5 14.5t6.5 14.5l61 134h18z" />
    <glyph glyph-name="uni02BC" unicode="&#x2bc;" horiz-adv-x="190" 
d="M126 556l61 148l1 -11q-10 0 -18 8t-8 18q0 11 8 18.5t18 7.5q11 0 18.5 -7.5t7.5 -18.5q0 -8 -2.5 -14.5t-6.5 -14.5l-61 -134h-18z" />
    <glyph glyph-name="uni02BE" unicode="&#x2be;" horiz-adv-x="600" 
d="M372 619q4 -1 7 -1h7q32 0 52 21.5t20 52.5q0 26 -15.5 45.5t-41.5 24.5l3 18q34 -6 54 -31t20 -57q0 -25 -12 -46t-32.5 -34t-47.5 -13h-8.5t-9.5 1z" />
    <glyph glyph-name="uni02BF" unicode="&#x2bf;" horiz-adv-x="600" 
d="M400 760q-4 1 -7 1h-7q-31 0 -51.5 -21.5t-20.5 -52.5q0 -26 15.5 -45.5t41.5 -24.5l-3 -18q-34 6 -54 31t-20 57q0 25 12 46t33 34t47 13h9t9 -1z" />
    <glyph glyph-name="circumflex" unicode="&#x2c6;" horiz-adv-x="600" 
d="M231 607l134 110h32l110 -110h-25l-105 96h6l-123 -96h-29z" />
    <glyph glyph-name="caron" unicode="&#x2c7;" horiz-adv-x="600" 
d="M363 607l-110 110h25l105 -96h-6l123 96h29l-134 -110h-32z" />
    <glyph glyph-name="uni02C8" unicode="&#x2c8;" horiz-adv-x="154" 
d="M119 519l36 180h20l-36 -180h-20z" />
    <glyph glyph-name="uni02C9" unicode="&#x2c9;" horiz-adv-x="600" 
d="M243 652l4 20h272l-4 -20h-272z" />
    <glyph glyph-name="uni02CA" unicode="&#x2ca;" horiz-adv-x="600" 
d="M323 607l152 110h42l-162 -110h-32z" />
    <glyph glyph-name="uni02CB" unicode="&#x2cb;" horiz-adv-x="600" 
d="M384 607l-128 110h40l118 -110h-30z" />
    <glyph glyph-name="uni02CC" unicode="&#x2cc;" horiz-adv-x="154" 
d="M-27 -210l36 180h20l-36 -180h-20z" />
    <glyph glyph-name="breve" unicode="&#x2d8;" horiz-adv-x="600" 
d="M380 604q-36 0 -64.5 14t-44.5 39.5t-13 59.5h19q-3 -43 26.5 -68.5t77.5 -25.5q45 0 80.5 25t41.5 69h19q-7 -52 -47.5 -82.5t-94.5 -30.5z" />
    <glyph glyph-name="dotaccent" unicode="&#x2d9;" horiz-adv-x="600" 
d="M380 641q-10 0 -17.5 7t-7.5 17q0 11 8 19.5t19 8.5q10 0 17.5 -7t7.5 -17q0 -11 -8 -19.5t-19 -8.5z" />
    <glyph glyph-name="ring" unicode="&#x2da;" horiz-adv-x="600" 
d="M386 597q-27 0 -47.5 12.5t-32.5 33t-12 44.5q0 25 12 46t33 34t47 13q27 0 48 -13t33 -34t12 -46q0 -24 -12 -44.5t-33 -33t-48 -12.5zM386 616q32 0 52.5 21t20.5 50q0 30 -20.5 52t-52.5 22q-31 0 -51.5 -21.5t-20.5 -52.5q0 -30 20 -50.5t52 -20.5z" />
    <glyph glyph-name="ogonek" unicode="&#x2db;" horiz-adv-x="600" 
d="M150 -213q-34 0 -55 18.5t-21 50.5q0 30 17 57.5t54.5 53.5t96.5 49l7 -16q-52 -20 -86.5 -43t-51.5 -47.5t-17 -51.5q0 -25 15 -38.5t42 -13.5q19 0 37.5 6.5t33.5 18.5l8 -17q-17 -13 -37.5 -20t-42.5 -7z" />
    <glyph glyph-name="tilde" unicode="&#x2dc;" horiz-adv-x="600" 
d="M443 619q-22 0 -38 10.5t-29.5 24t-27 24t-31.5 10.5q-23 0 -39 -18t-21 -49h-19q5 39 27 62.5t53 23.5q22 0 37.5 -10.5t29 -24t27 -24t31.5 -10.5q23 0 40 18t21 47h19q-6 -37 -27 -60.5t-53 -23.5z" />
    <glyph glyph-name="hungarumlaut" unicode="&#x2dd;" horiz-adv-x="600" 
d="M424 607l123 110h36l-130 -110h-29zM285 607l123 110h36l-130 -110h-29z" />
    <glyph glyph-name="gravecomb" unicode="&#x300;" 
d="M384 607l-128 110h40l118 -110h-30z" />
    <glyph glyph-name="acutecomb" unicode="&#x301;" 
d="M323 607l152 110h42l-162 -110h-32z" />
    <glyph glyph-name="uni0302" unicode="&#x302;" 
d="M231 607l134 110h32l110 -110h-25l-105 96h6l-123 -96h-29z" />
    <glyph glyph-name="tildecomb" unicode="&#x303;" 
d="M443 619q-22 0 -38 10.5t-29.5 24t-27 24t-31.5 10.5q-23 0 -39 -18t-21 -49h-19q5 39 27 62.5t53 23.5q22 0 37.5 -10.5t29 -24t27 -24t31.5 -10.5q23 0 40 18t21 47h19q-6 -37 -27 -60.5t-53 -23.5z" />
    <glyph glyph-name="uni0304" unicode="&#x304;" 
d="M242 652l4 20h272l-4 -20h-272z" />
    <glyph glyph-name="uni0306" unicode="&#x306;" 
d="M380 604q-36 0 -64.5 14t-44.5 39.5t-13 59.5h19q-3 -43 26.5 -68.5t77.5 -25.5q45 0 80.5 25t41.5 69h19q-7 -52 -47.5 -82.5t-94.5 -30.5z" />
    <glyph glyph-name="uni0307" unicode="&#x307;" 
d="M380 641q-10 0 -17.5 7t-7.5 17q0 11 8 19.5t19 8.5q10 0 17.5 -7t7.5 -17q0 -11 -8 -19.5t-19 -8.5z" />
    <glyph glyph-name="uni0308" unicode="&#x308;" 
d="M462 641q-10 0 -17.5 7t-7.5 17q0 11 8 19.5t19 8.5q10 0 17.5 -7t7.5 -17q0 -11 -8 -19.5t-19 -8.5zM298 641q-10 0 -17.5 7t-7.5 17q0 11 8 19.5t19 8.5q10 0 17.5 -7t7.5 -17q0 -11 -8 -19.5t-19 -8.5z" />
    <glyph glyph-name="hookabovecomb" unicode="&#x309;" 
d="M378 603l-8 16q33 14 52 34.5t19 48.5q0 22 -15 35t-39 13q-30 0 -62 -19l-8 16q16 11 35 16.5t36 5.5q34 0 54 -17.5t20 -46.5q0 -33 -19.5 -57.5t-64.5 -44.5z" />
    <glyph glyph-name="uni030A" unicode="&#x30a;" 
d="M386 597q-27 0 -47.5 12.5t-32.5 33t-12 44.5q0 25 12 46t33 34t47 13q27 0 48 -13t33 -34t12 -46q0 -24 -12 -44.5t-33 -33t-48 -12.5zM386 616q32 0 52.5 21t20.5 50q0 30 -20.5 52t-52.5 22q-31 0 -51.5 -21.5t-20.5 -52.5q0 -30 20 -50.5t52 -20.5z" />
    <glyph glyph-name="uni030B" unicode="&#x30b;" 
d="M424 607l123 110h36l-130 -110h-29zM285 607l123 110h36l-130 -110h-29z" />
    <glyph glyph-name="uni030C" unicode="&#x30c;" 
d="M363 607l-110 110h25l105 -96h-6l123 96h29l-134 -110h-32z" />
    <glyph glyph-name="uni030F" unicode="&#x30f;" 
d="M425 607l-96 110h34l89 -110h-27zM286 607l-96 110h34l89 -110h-27z" />
    <glyph glyph-name="uni0311" unicode="&#x311;" 
d="M237 607q8 53 48 83t94 30q36 0 64.5 -14t44.5 -39t13 -60h-19q3 44 -26.5 69t-77.5 25q-45 0 -80.5 -25t-41.5 -69h-19z" />
    <glyph glyph-name="uni0312" unicode="&#x312;" 
d="M376 604q-12 0 -19.5 8t-7.5 18q0 8 2.5 14.5t6.5 14.5l49 100h18l-49 -114l-1 11q11 0 18.5 -7.5t7.5 -18.5q0 -10 -7 -18t-18 -8z" />
    <glyph glyph-name="uni031B" unicode="&#x31b;" 
d="M341 498v19h10q39 0 54.5 21t15.5 49q0 20 -6 36.5t-14 30.5l18 8q10 -15 16 -34.5t6 -39.5q0 -24 -9 -44.5t-28.5 -33t-52.5 -12.5h-10z" />
    <glyph glyph-name="dotbelowcomb" unicode="&#x323;" 
d="M213 -176q-10 0 -16.5 8t-4.5 18q2 11 11.5 18.5t19.5 7.5q11 0 17 -7.5t4 -18.5q-2 -10 -11 -18t-20 -8z" />
    <glyph glyph-name="uni0324" unicode="&#x324;" 
d="M292 -176q-10 0 -17.5 7t-7.5 17q0 11 8 19.5t19 8.5q10 0 17.5 -7t7.5 -17q0 -11 -8 -19.5t-19 -8.5zM142 -176q-10 0 -17.5 7t-7.5 17q0 11 8 19.5t19 8.5q10 0 17.5 -7t7.5 -17q0 -11 -8 -19.5t-19 -8.5z" />
    <glyph glyph-name="uni0326" unicode="&#x326;" 
d="M177 -259l40 94l1 -11q-10 0 -18 8t-8 18q0 11 7.5 18.5t17.5 7.5q12 0 19.5 -7.5t7.5 -18.5q0 -8 -2 -14.5t-7 -14.5l-40 -80h-18z" />
    <glyph glyph-name="uni0327" unicode="&#x327;" 
d="M199 -213q-22 0 -42.5 6.5t-35.5 20.5l14 15q12 -11 28 -17t37 -6q35 0 56 19.5t21 50.5q0 23 -16.5 36.5t-45.5 13.5h-14l38 79h19l-29 -61q32 -3 50.5 -21t18.5 -47q0 -37 -27.5 -63t-71.5 -26z" />
    <glyph glyph-name="uni0328" unicode="&#x328;" 
d="M150 -213q-34 0 -55 18.5t-21 50.5q0 30 17 57.5t54.5 53.5t96.5 49l7 -16q-52 -20 -86.5 -43t-51.5 -47.5t-17 -51.5q0 -25 15 -38.5t42 -13.5q19 0 37.5 6.5t33.5 18.5l8 -17q-17 -13 -37.5 -20t-42.5 -7z" />
    <glyph glyph-name="uni032E" unicode="&#x32e;" 
d="M218 -198q-36 0 -64.5 13.5t-43.5 37.5t-13 57h19q-2 -42 26 -65.5t77 -23.5q47 0 82 23t41 66h19q-7 -52 -48.5 -80t-94.5 -28z" />
    <glyph glyph-name="uni0331" unicode="&#x331;" 
d="M80 -160l4 20h272l-4 -20h-272z" />
    <glyph glyph-name="uni0335" unicode="&#x335;" 
d="M145 432l4 19h378l-4 -19h-378z" />
    <glyph glyph-name="uni0336" unicode="&#x336;" 
d="M46 432l4 19h776l-4 -19h-776z" />
    <glyph glyph-name="uni0337" unicode="&#x337;" 
d="M70 299l-8 14l221 142l8 -14z" />
    <glyph glyph-name="uni0338" unicode="&#x338;" 
d="M2 -70l575 657h25l-575 -657h-25z" />
    <glyph glyph-name="uni0394" unicode="&#x394;" horiz-adv-x="688" 
d="M442 700l185 -700h-670l465 700h20zM-12 11l-5 8h625l-5 -8l-177 673h9z" />
    <glyph glyph-name="uni03A9" unicode="&#x3a9;" horiz-adv-x="910" 
d="M-42 0l4 20h291q-79 56 -112.5 124t-33.5 166q0 89 30 161.5t84.5 124t129 79.5t163.5 28q100 0 172.5 -33t112 -96.5t39.5 -153.5q0 -82 -23.5 -147.5t-63 -115t-87 -83.5t-94.5 -54h282l-4 -20h-323l4 19q56 21 107.5 56t92.5 84.5t65 114.5t24 146q0 128 -81.5 196
t-222.5 68q-113 0 -200.5 -46t-137 -130t-49.5 -198q0 -69 16.5 -120.5t51.5 -92.5t90 -78l-4 -19h-323z" />
    <glyph glyph-name="uni03BC" unicode="&#x3bc;" horiz-adv-x="670" 
d="M25 -194l142 711h20l-61 -305q-18 -91 21 -143.5t134 -52.5q98 0 163 54.5t86 159.5l57 287h20l-103 -517h-20l30 150l10 5q-24 -55 -61 -90t-83.5 -51.5t-100.5 -16.5q-71 0 -117.5 30.5t-58.5 93.5l8 14l-66 -329h-20z" />
    <glyph glyph-name="pi" unicode="&#x3c0;" horiz-adv-x="718" 
d="M40 270q-9 16 -14.5 35t-5.5 41q0 46 21 84.5t66.5 62.5t116.5 24h538l-4 -19h-534q-94 0 -139 -44.5t-45 -106.5q0 -18 4.5 -35t12.5 -32zM137 0l163 517h20l-163 -517h-20zM457 0l103 517h20l-103 -517h-20z" />
    <glyph glyph-name="uni0400" unicode="&#x400;" horiz-adv-x="645" 
d="M173 365h391l-4 -19h-391zM109 19h446l-4 -19h-466l140 700h451l-4 -19h-431zM477 757l-128 110h40l118 -110h-30z" />
    <glyph glyph-name="uni0401" unicode="&#x401;" horiz-adv-x="645" 
d="M173 365h391l-4 -19h-391zM109 19h446l-4 -19h-466l140 700h451l-4 -19h-431zM555 791q-10 0 -17.5 7t-7.5 17q0 11 8 19.5t19 8.5q10 0 17.5 -7t7.5 -17q0 -11 -8 -19.5t-19 -8.5zM391 791q-10 0 -17.5 7t-7.5 17q0 11 8 19.5t19 8.5q10 0 17.5 -7t7.5 -17
q0 -11 -8 -19.5t-19 -8.5z" />
    <glyph glyph-name="uni0402" unicode="&#x402;" horiz-adv-x="810" 
d="M217 0l138 690l7 -9h-269l4 19h555l-4 -19h-284l11 9l-138 -690h-20zM406 9l8 19q64 -16 121.5 -6.5t102.5 41t70.5 80.5t25.5 110q0 77 -57 113t-157 28.5t-229 -63.5l5 21q99 42 182.5 55.5t145.5 0t96 -52.5t34 -101q0 -67 -28.5 -120.5t-78 -87.5t-111.5 -44.5
t-130 7.5z" />
    <glyph glyph-name="uni0403" unicode="&#x403;" horiz-adv-x="561" 
d="M85 0l140 700h416l-4 -19h-405l11 9l-138 -690h-20zM391 757l152 110h42l-162 -110h-32z" />
    <glyph glyph-name="uni0404" unicode="&#x404;" horiz-adv-x="706" 
d="M516 351l-3 -19h-412l3 19h412zM360 -3q-83 0 -145.5 37.5t-97 103t-34.5 148.5q0 87 34 162.5t93 133t134 89.5t157 32q74 0 134 -22t96 -67l-15 -14q-39 46 -95 65t-124 19q-77 0 -147.5 -30.5t-126 -85t-87.5 -125.5t-32 -152q0 -78 32.5 -140.5t91 -98.5t136.5 -36
q68 0 131.5 19.5t120.5 65.5l10 -14q-54 -45 -123 -67.5t-143 -22.5z" />
    <glyph glyph-name="uni0405" unicode="&#x405;" horiz-adv-x="609" 
d="M267 -3q-49 0 -96.5 13t-84.5 35t-56 50l16 13q19 -26 54 -47t79 -33t89 -12q71 0 126 20.5t86 60.5t31 97q0 41 -20.5 66.5t-54 41.5t-73.5 27t-80 23.5t-73.5 30t-54 46.5t-20.5 74q0 65 34 109.5t92 67.5t131 23q57 0 111 -16t91 -46l-13 -17q-37 29 -85.5 44.5
t-103.5 15.5q-69 0 -123 -21t-84.5 -61t-30.5 -97q0 -41 20.5 -67t54 -42.5t74 -28t80.5 -23.5t73.5 -30t54 -46t20.5 -73q0 -66 -35.5 -110t-95 -66t-133.5 -22z" />
    <glyph glyph-name="uni0406" unicode="&#x406;" horiz-adv-x="286" 
d="M81 0l140 700h20l-140 -700h-20z" />
    <glyph glyph-name="uni0407" unicode="&#x407;" horiz-adv-x="286" 
d="M81 0l140 700h20l-140 -700h-20zM335 791q-10 0 -17.5 7t-7.5 17q0 11 8 19.5t19 8.5q10 0 17.5 -7t7.5 -17q0 -11 -8 -19.5t-19 -8.5zM171 791q-10 0 -17.5 7t-7.5 17q0 11 8 19.5t19 8.5q10 0 17.5 -7t7.5 -17q0 -11 -8 -19.5t-19 -8.5z" />
    <glyph glyph-name="uni0408" unicode="&#x408;" horiz-adv-x="504" 
d="M162 -3q-59 0 -103.5 27.5t-63.5 71.5l18 10q19 -41 58 -65.5t94 -24.5q70 0 113.5 40t63.5 140l97 485h-262l4 19h282l-102 -510q-14 -70 -40.5 -112.5t-66 -61.5t-92.5 -19z" />
    <glyph glyph-name="uni0409" unicode="&#x409;" horiz-adv-x="1187" 
d="M-3 -2q-11 0 -20.5 1t-20.5 4l6 19q19 -4 34 -4q47 0 85 36.5t71 118.5t65 218l73 309h436l-140 -700h-20l138 690l7 -9h-414l11 9l-71 -302q-25 -105 -51 -179.5t-55 -121t-62 -68t-72 -21.5zM918 436q212 0 212 -180q0 -79 -37 -136.5t-105.5 -88.5t-163.5 -31h-258
l140 700h20l-53 -264h245zM824 19q88 0 152 28.5t99 82t35 127.5q0 83 -47.5 121.5t-149.5 38.5h-244l-79 -398h234z" />
    <glyph glyph-name="uni040A" unicode="&#x40a;" horiz-adv-x="1194" 
d="M85 0l140 700h20l-61 -304h492l61 304h20l-140 -700h-20l75 377h-492l-75 -377h-20zM619 10l-6 9h244q80 0 138.5 26.5t90 75.5t31.5 114q0 68 -48.5 105t-140.5 37h-244l10 9zM597 0l140 700h20l-62 -312l-7 8h251q96 0 147.5 -41.5t51.5 -115.5q0 -72 -35.5 -126
t-100.5 -83.5t-153 -29.5h-252z" />
    <glyph glyph-name="uni040B" unicode="&#x40b;" horiz-adv-x="823" 
d="M216 0l138 690l7 -9h-269l4 19h555l-4 -19h-284l11 9l-138 -690h-20zM295 352q76 32 140 48t121 16q105 0 158.5 -52.5t33.5 -155.5l-42 -208h-20l42 210q18 91 -28.5 139t-144.5 48q-56 0 -121 -16t-144 -50z" />
    <glyph glyph-name="uni040C" unicode="&#x40c;" horiz-adv-x="683" 
d="M85 0l140 700h20l-140 -700h-20zM167 347l3 19h204l-3 -19h-204zM581 0l-230 357l17 8l235 -365h-22zM367 349l-18 8l350 343h26zM391 757l152 110h42l-162 -110h-32z" />
    <glyph glyph-name="uni040D" unicode="&#x40d;" horiz-adv-x="826" 
d="M85 0l140 700h20l-132 -662l649 662h15l-140 -700h-20l133 662l-649 -662h-16zM524 757l-128 110h40l118 -110h-30z" />
    <glyph glyph-name="uni040E" unicode="&#x40e;" horiz-adv-x="658" 
d="M56 30q29 -13 62.5 -14t69 17t68.5 61l46 59l4 5l398 542h23l-452 -613q-36 -49 -77 -70t-80.5 -20t-72.5 16zM301 136l-184 564h23l176 -542zM421 756q-61 0 -95.5 32t-26.5 81h18q-6 -41 22.5 -67.5t80.5 -26.5q51 0 89.5 26t49.5 68h18q-11 -51 -54 -82t-102 -31z" />
    <glyph glyph-name="uni040F" unicode="&#x40f;" horiz-adv-x="804" 
d="M755 700l-140 -700h-255l-35 -175h-20l35 175h-255l140 700h20l-136 -681h490l136 681h20z" />
    <glyph glyph-name="uni0410" unicode="&#x410;" horiz-adv-x="716" 
d="M-29 0l465 700h20l185 -700h-21l-180 684h9l-454 -684h-24zM120 211l14 19h435l6 -19h-455z" />
    <glyph glyph-name="uni0411" unicode="&#x411;" horiz-adv-x="720" 
d="M85 0l140 700h481l-4 -19h-461l-57 -285h249q108 0 161.5 -42t53.5 -127q0 -71 -36 -122t-104 -78t-164 -27h-259zM109 19h242q131 0 204 54.5t73 153.5q0 78 -49.5 114t-156.5 36h-242z" />
    <glyph glyph-name="uni0412" unicode="&#x412;" horiz-adv-x="748" 
d="M81 0l140 700h277q94 0 148.5 -35.5t54.5 -105.5q0 -69 -33.5 -115.5t-90 -69.5t-125.5 -23l19 11q94 0 147.5 -36.5t53.5 -111.5q0 -68 -34 -116t-98.5 -73t-157.5 -25h-301zM105 19h281q128 0 197 50t69 143q0 72 -49.5 103t-147.5 31h-290l4 19h266q71 0 126.5 21.5
t87.5 64t32 105.5q0 62 -48 93.5t-135 31.5h-261z" />
    <glyph glyph-name="uni0413" unicode="&#x413;" horiz-adv-x="561" 
d="M85 0l140 700h416l-4 -19h-405l11 9l-138 -690h-20z" />
    <glyph glyph-name="uni0414" unicode="&#x414;" horiz-adv-x="773" 
d="M551 10l134 671h-392l-50 -216q-21 -88 -44 -169.5t-51 -146t-61.5 -102.5t-74.5 -38l-26 10q43 -3 77.5 31t63 96.5t52.5 145.5t45 176l53 232h432l-138 -690h-20zM-77 -165l38 184h722l-37 -184h-20l33 165h-682l-34 -165h-20z" />
    <glyph glyph-name="uni0415" unicode="&#x415;" horiz-adv-x="645" 
d="M173 365h391l-4 -19h-391zM109 19h446l-4 -19h-466l140 700h451l-4 -19h-431z" />
    <glyph glyph-name="uni0416" unicode="&#x416;" horiz-adv-x="975" 
d="M866 0l-190 357l19 8l195 -365h-24zM507 347l3 19h189l-3 -19h-189zM692 349l-16 8l308 343h26zM6 0h-26l341 365l17 -8zM445 0h-20l140 700h20zM503 347h-189l3 19h189zM318 349l-176 351h24l172 -343z" />
    <glyph glyph-name="uni0417" unicode="&#x417;" horiz-adv-x="623" 
d="M238 -3q-67 0 -129 25.5t-102 78.5l15 11q38 -49 96.5 -72t121.5 -23q51 0 99 14t87 41t62 64.5t23 84.5q0 67 -49.5 101t-142.5 34h-137l4 19h138q68 0 117.5 21.5t77 60t27.5 87.5q0 46 -24.5 77t-66 47t-94.5 16q-49 0 -105 -15.5t-111 -47.5l-7 17q57 33 115 49
t110 16q58 0 103.5 -18t72.5 -53.5t27 -86.5q0 -54 -30 -96t-84 -66t-126 -24l7 13q63 0 107 -18t67.5 -52.5t23.5 -82.5q0 -50 -25 -91t-67 -70.5t-94.5 -45t-106.5 -15.5z" />
    <glyph glyph-name="uni0418" unicode="&#x418;" horiz-adv-x="826" 
d="M85 0l140 700h20l-132 -662l649 662h15l-140 -700h-20l133 662l-649 -662h-16z" />
    <glyph glyph-name="uni0419" unicode="&#x419;" horiz-adv-x="826" 
d="M85 0l140 700h20l-132 -662l649 662h15l-140 -700h-20l133 662l-649 -662h-16zM512 756q-61 0 -95.5 32t-26.5 81h18q-6 -41 22.5 -67.5t80.5 -26.5q51 0 89.5 26t49.5 68h18q-11 -51 -54 -82t-102 -31z" />
    <glyph glyph-name="uni041A" unicode="&#x41a;" horiz-adv-x="683" 
d="M85 0l140 700h20l-140 -700h-20zM167 347l3 19h204l-3 -19h-204zM581 0l-230 357l17 8l235 -365h-22zM367 349l-18 8l350 343h26z" />
    <glyph glyph-name="uni041B" unicode="&#x41b;" horiz-adv-x="775" 
d="M-3 -2q-11 0 -20.5 1t-20.5 4l6 19q19 -4 34 -4q47 0 85 36.5t71 118.5t65 218l73 309h436l-140 -700h-20l138 690l7 -9h-414l11 9l-71 -302q-25 -105 -51 -179.5t-55 -121t-62 -68t-72 -21.5z" />
    <glyph glyph-name="uni041C" unicode="&#x41c;" horiz-adv-x="964" 
d="M85 0l140 700h17l222 -582l-9 3l441 579h19l-140 -700h-20l134 671l9 -2l-436 -570h-12l-219 573l8 -1l-134 -671h-20z" />
    <glyph glyph-name="uni041D" unicode="&#x41d;" horiz-adv-x="824" 
d="M755 700h20l-140 -700h-20zM105 0h-20l140 700h20zM689 346h-520l4 19h520z" />
    <glyph glyph-name="uni041E" unicode="&#x41e;" horiz-adv-x="868" 
d="M402 -3q-102 0 -172 35.5t-106.5 99.5t-36.5 148t28.5 160t82.5 135.5t131 93.5t174 34q102 0 172.5 -35.5t106.5 -99t36 -148.5q0 -84 -28.5 -160t-82.5 -135.5t-131 -93.5t-174 -34zM404 16q90 0 162.5 32t124 88t79.5 129t28 155q0 79 -33.5 138t-99.5 92.5t-164 33.5
q-90 0 -162.5 -32t-124 -88t-79.5 -129t-28 -155q0 -78 33.5 -137.5t99.5 -93t164 -33.5z" />
    <glyph glyph-name="uni041F" unicode="&#x41f;" horiz-adv-x="833" 
d="M85 0l140 700h559l-140 -700h-20l138 690l7 -9h-537l11 9l-138 -690h-20z" />
    <glyph glyph-name="uni0420" unicode="&#x420;" horiz-adv-x="703" 
d="M85 0l140 700h235q111 0 172.5 -48.5t61.5 -137.5q0 -90 -38.5 -151t-109.5 -92t-169 -31h-233l11 9l-50 -249h-20zM155 251l-7 8h228q142 0 220 64t78 191q0 80 -55 123.5t-158 43.5h-229l11 10z" />
    <glyph glyph-name="uni0421" unicode="&#x421;" horiz-adv-x="733" 
d="M402 -3q-102 0 -172 35.5t-106.5 99.5t-36.5 148t28.5 160t83 135.5t132.5 93.5t177 34q79 0 139.5 -23t95.5 -65l-14 -13q-36 41 -91.5 61.5t-131.5 20.5q-91 0 -165 -32t-126 -88t-80 -129t-28 -155q0 -78 33.5 -137.5t99.5 -93t164 -33.5q77 0 138.5 22.5t105.5 63.5
l12 -16q-43 -40 -111 -64.5t-147 -24.5z" />
    <glyph glyph-name="uni0422" unicode="&#x422;" horiz-adv-x="556" 
d="M216 0l138 690l7 -9h-269l4 19h540l-4 -19h-269l11 9l-138 -690h-20z" />
    <glyph glyph-name="uni0423" unicode="&#x423;" horiz-adv-x="658" 
d="M56 30q29 -13 62.5 -14t69 17t68.5 61l46 59l4 5l398 542h23l-452 -613q-36 -49 -77 -70t-80.5 -20t-72.5 16zM301 136l-184 564h23l176 -542z" />
    <glyph glyph-name="uni0424" unicode="&#x424;" horiz-adv-x="901" 
d="M406 50q-156 0 -244 66t-88 184q0 106 56 184.5t156.5 122t235.5 43.5h5q158 0 247 -66t89 -184q0 -106 -56 -184.5t-157.5 -122t-238.5 -43.5h-5zM406 70h5q132 0 229 41t150 115t53 174q0 109 -83 169.5t-233 60.5h-5q-129 0 -225.5 -41t-149.5 -115t-53 -174
q0 -109 82 -169.5t230 -60.5zM385 -20l148 740h20l-148 -740h-20z" />
    <glyph glyph-name="uni0425" unicode="&#x425;" horiz-adv-x="613" 
d="M140 700h24l166 -321l295 321h24l-310 -338l189 -362h-23l-181 346l-318 -346h-25l334 362z" />
    <glyph glyph-name="uni0426" unicode="&#x426;" horiz-adv-x="821" 
d="M85 0l140 700h20l-136 -681h490l136 681h20l-140 -700h-530zM677 -175l37 184l7 -9h-126l4 19h137l-39 -194h-20z" />
    <glyph glyph-name="uni0427" unicode="&#x427;" horiz-adv-x="719" 
d="M583 319q-73 -31 -142.5 -47.5t-128.5 -16.5q-114 0 -167.5 55.5t-34.5 152.5l47 237h20l-47 -239q-18 -88 30.5 -137.5t151.5 -49.5q59 0 129.5 17t146.5 49zM510 0l140 700h20l-140 -700h-20z" />
    <glyph glyph-name="uni0428" unicode="&#x428;" horiz-adv-x="1092" 
d="M495 19l-8 -9l137 690h20l-137 -690l-8 9h397l-10 -9l137 690h20l-140 -700h-818l140 700h20l-137 -690l-8 9h395z" />
    <glyph glyph-name="uni0429" unicode="&#x429;" horiz-adv-x="1109" 
d="M495 19l-8 -9l137 690h20l-137 -690l-8 9h397l-10 -9l137 690h20l-140 -700h-818l140 700h20l-137 -690l-8 9h395zM967 -165l34 174l8 -9h-126l5 19h135l-36 -184h-20z" />
    <glyph glyph-name="uni042A" unicode="&#x42a;" horiz-adv-x="807" 
d="M538 436q105 0 158.5 -43t53.5 -126t-35.5 -143t-104.5 -92t-170 -32h-254l136 681h-230l4 19h250l-53 -264h245zM448 19q140 0 211 64.5t71 179.5q0 77 -51 115.5t-152 38.5h-238l-79 -398h238z" />
    <glyph glyph-name="uni042B" unicode="&#x42b;" horiz-adv-x="944" 
d="M437 436q212 0 212 -180q0 -79 -37 -136.5t-105.5 -88.5t-163.5 -31h-258l140 700h20l-53 -264h245zM343 19q88 0 152 28.5t99 82t35 127.5q0 83 -47.5 121.5t-149.5 38.5h-244l-79 -398h234zM735 0l140 700h20l-140 -700h-20z" />
    <glyph glyph-name="uni042C" unicode="&#x42c;" horiz-adv-x="706" 
d="M437 436q212 0 212 -180q0 -79 -37 -136.5t-105.5 -88.5t-163.5 -31h-258l140 700h20l-53 -264h245zM343 19q88 0 152 28.5t99 82t35 127.5q0 83 -47.5 121.5t-149.5 38.5h-244l-79 -398h234z" />
    <glyph glyph-name="uni042D" unicode="&#x42d;" horiz-adv-x="706" 
d="M226 349l3 19h412l-3 -19h-412zM382 703q84 0 146 -37.5t96.5 -103t34.5 -148.5q0 -87 -34 -162.5t-93 -133t-134 -89.5t-157 -32q-73 0 -133.5 22t-96.5 67l15 14q39 -46 95 -65t124 -19q77 0 147.5 30.5t126 85t87.5 125.5t32 152q0 79 -32.5 141t-90.5 98t-137 36
q-68 0 -131.5 -19.5t-120.5 -65.5l-10 14q54 45 123.5 67.5t142.5 22.5z" />
    <glyph glyph-name="uni042E" unicode="&#x42e;" horiz-adv-x="1082" 
d="M85 0l140 700h20l-67 -335h180l-4 -19h-180l-69 -346h-20zM627 -3q-85 0 -149 36.5t-99.5 101.5t-35.5 152q0 84 32.5 159t89 133t130 91t154.5 33q85 0 149 -37t100 -102.5t36 -152.5q0 -84 -32.5 -158.5t-89 -132t-130 -90.5t-155.5 -33zM627 16q78 0 147.5 32
t123.5 87t85 126.5t31 150.5q0 81 -33 142.5t-92.5 95.5t-139.5 34q-77 0 -146.5 -32t-123.5 -87t-85 -126.5t-31 -151.5q0 -81 33 -142t92.5 -95t138.5 -34z" />
    <glyph glyph-name="uni042F" unicode="&#x42f;" horiz-adv-x="736" 
d="M527 0l48 239l7 -9h-251q-97 0 -153.5 51.5t-56.5 150.5q0 81 37.5 141t107.5 93.5t167 33.5h254l-140 -700h-20zM33 0l220 243h26l-219 -243h-27zM576 241l89 448l7 -8h-238q-93 0 -158.5 -31t-100 -87t-34.5 -131q0 -93 51.5 -138t143.5 -45h250z" />
    <glyph glyph-name="uni0430" unicode="&#x430;" horiz-adv-x="686" 
d="M281 -3q-67 0 -116.5 25.5t-76.5 73t-27 111.5q0 67 21.5 124t60.5 99.5t92.5 66t117.5 23.5q69 0 117 -25t73.5 -71.5t25.5 -111.5q1 -89 -35.5 -160.5t-101.5 -113t-151 -41.5zM284 16q78 0 138.5 38t95.5 104.5t35 150.5q0 92 -53.5 142t-149.5 50q-77 0 -138 -38.5
t-96 -104.5t-35 -150q0 -91 53.5 -141.5t149.5 -50.5zM497 0l36 180l26 70l3 77l38 190h20l-103 -517h-20z" />
    <glyph glyph-name="uni0431" unicode="&#x431;" horiz-adv-x="661" 
d="M309 -3q-106 0 -166.5 66t-60.5 184q0 82 24.5 158t70 139t107 106.5t134.5 59.5l230 52l4 -20l-230 -52q-83 -19 -150 -74t-111 -134.5t-58 -172.5l-10 -5q44 98 122 150.5t175 52.5q98 0 153.5 -55.5t55.5 -153.5q0 -86 -38.5 -154t-104 -107.5t-147.5 -39.5zM311 17
q76 0 136.5 37t96 100.5t35.5 143.5q0 90 -49.5 139.5t-139.5 49.5q-55 0 -106.5 -21t-92.5 -56t-65 -80t-24 -93q0 -102 56.5 -161t152.5 -59z" />
    <glyph glyph-name="uni0432" unicode="&#x432;" horiz-adv-x="594" 
d="M64 0l104 517h202q77 0 115.5 -27.5t38.5 -81.5q0 -67 -54 -108t-140 -41l13 9q80 0 115.5 -25t35.5 -81q0 -76 -59 -119t-163 -43h-208zM88 19h189q93 0 145 37.5t52 104.5q0 50 -32 71t-106 21h-201zM139 272h183q82 0 132 37t50 98q0 47 -33.5 69t-101.5 22h-185z" />
    <glyph glyph-name="uni0433" unicode="&#x433;" horiz-adv-x="448" 
d="M64 0l104 517h336l-4 -19h-324l9 8l-101 -506h-20z" />
    <glyph glyph-name="uni0434" unicode="&#x434;" horiz-adv-x="622" 
d="M422 10l98 488h-299l-37 -150q-15 -59 -32 -118.5t-38.5 -108.5t-47.5 -79t-59 -32l-21 8q33 -2 59.5 25.5t47.5 76t38.5 108.5t32.5 122l42 167h338l-102 -507h-20zM-67 -134l30 152h567l-30 -152h-20l26 134h-527l-26 -134h-20z" />
    <glyph glyph-name="uni0435" unicode="&#x435;" horiz-adv-x="623" 
d="M290 -3q-71 0 -122.5 25t-78.5 72.5t-27 115.5q0 88 36 158t98.5 111t141.5 41q66 0 113 -25t72.5 -72t25.5 -113q0 -13 -1.5 -26.5t-3.5 -24.5h-466l4 19h453l-8 -11q12 76 -10 128t-68.5 79t-110.5 27q-73 0 -131.5 -38t-92 -103.5t-33.5 -149.5q0 -94 54 -144t156 -50
q59 0 108 20.5t80 56.5l12 -13q-31 -37 -84.5 -60t-116.5 -23z" />
    <glyph glyph-name="uni0436" unicode="&#x436;" horiz-adv-x="778" 
d="M676 0l-149 263l17 8l154 -271h-22zM390 254l4 18h155l-4 -18h-155zM545 257l-19 6l237 254h25zM2 0h-27l262 271l18 -8zM347 0h-20l104 517h20zM385 254h-153l4 18h153zM235 257l-140 260h22l136 -254z" />
    <glyph glyph-name="uni0437" unicode="&#x437;" horiz-adv-x="509" 
d="M188 -3q-125 0 -188 75l16 12q27 -33 71 -50t99 -17q59 0 106.5 18.5t75 49.5t27.5 70q0 49 -42 77t-116 28h-72l4 20h64q83 0 135 34t52 86q0 46 -40 73t-107 27q-43 0 -85.5 -11.5t-85.5 -32.5l-11 18q47 23 92 34.5t89 11.5q51 0 88.5 -15t58.5 -42t21 -64
q0 -32 -17 -58.5t-49.5 -44.5t-78.5 -28v4q61 -13 90.5 -41.5t29.5 -74.5q0 -45 -29.5 -81t-81 -57t-116.5 -21z" />
    <glyph glyph-name="uni0438" unicode="&#x438;" horiz-adv-x="672" 
d="M64 0l104 517h20l-97 -483l497 483h20l-104 -517h-20l97 483l-497 -483h-20z" />
    <glyph glyph-name="uni0439" unicode="&#x439;" horiz-adv-x="672" 
d="M64 0l104 517h20l-97 -483l497 483h20l-104 -517h-20l97 483l-497 -483h-20zM410 604q-58 0 -90 32t-24 81h18q-6 -41 20.5 -67.5t75.5 -26.5q48 0 84.5 26t46.5 68h18q-11 -51 -52 -82t-97 -31z" />
    <glyph glyph-name="uni043A" unicode="&#x43a;" horiz-adv-x="546" 
d="M452 0l-185 263l17 8l190 -271h-22zM64 0l104 517h20l-104 -517h-20zM128 254l4 18h157l-4 -18h-157zM284 257l-22 6l273 254h28z" />
    <glyph glyph-name="uni043B" unicode="&#x43b;" horiz-adv-x="613" 
d="M-45 2l6 18q8 -1 14 -2.5t10 -1.5q35 0 64.5 32.5t57.5 106t59 194.5l43 168h340l-104 -517h-20l101 506l7 -8h-316l9 8l-41 -163q-24 -94 -46.5 -160t-46 -107t-49 -60t-55.5 -19q-8 0 -15 1t-18 4z" />
    <glyph glyph-name="uni043C" unicode="&#x43c;" horiz-adv-x="773" 
d="M64 0l104 517h16l173 -427h-10l344 427h18l-104 -517h-19l98 488h6l-335 -416h-11l-169 416h7l-98 -488h-20z" />
    <glyph glyph-name="uni043D" unicode="&#x43d;" horiz-adv-x="661" 
d="M64 0l104 517h20l-50 -247h389l50 247h20l-104 -517h-20l51 252h-389l-51 -252h-20z" />
    <glyph glyph-name="uni043E" unicode="&#x43e;" horiz-adv-x="635" 
d="M281 -3q-67 0 -116.5 25.5t-76.5 73t-27 111.5q0 90 37.5 160.5t103.5 111.5t151 41q68 0 117 -25.5t76 -72.5t27 -112q0 -90 -37.5 -160.5t-103.5 -111.5t-151 -41zM284 16q78 0 138.5 38t95.5 104.5t35 150.5q0 92 -53.5 142t-149.5 50q-77 0 -138 -38.5t-96 -104.5
t-35 -150q0 -91 53.5 -141.5t149.5 -50.5z" />
    <glyph glyph-name="uni043F" unicode="&#x43f;" horiz-adv-x="666" 
d="M64 0l104 517h434l-104 -517h-20l101 506l7 -8h-410l9 8l-101 -506h-20z" />
    <glyph glyph-name="uni0440" unicode="&#x440;" horiz-adv-x="687" 
d="M334 -3q-69 0 -117 25t-73 71.5t-26 111.5q0 90 36 161t101.5 112.5t150.5 41.5q68 0 117 -25.5t76 -72.5t27 -112q0 -67 -21.5 -124t-60.5 -99.5t-92.5 -66t-117.5 -23.5zM28 -194l142 711h20l-36 -180l-26 -70l-3 -77l-77 -384h-20zM337 16q78 0 138.5 38t95.5 104.5
t35 150.5q0 92 -53.5 142t-149.5 50q-77 0 -138 -38t-96 -104t-35 -151q0 -91 53.5 -141.5t149.5 -50.5z" />
    <glyph glyph-name="uni0441" unicode="&#x441;" horiz-adv-x="560" 
d="M286 -3q-70 0 -120.5 25.5t-77.5 73t-27 111.5q0 91 38 161.5t104 111t151 40.5q65 0 112.5 -22t72.5 -65l-15 -12q-26 41 -69 60.5t-102 19.5q-79 0 -140.5 -38.5t-96.5 -104.5t-35 -150q0 -91 54 -141.5t154 -50.5q56 0 104 20.5t79 57.5l12 -14q-32 -40 -85 -61.5
t-113 -21.5z" />
    <glyph glyph-name="uni0442" unicode="&#x442;" horiz-adv-x="432" 
d="M154 0l101 506l7 -8h-218l4 19h440l-4 -19h-218l9 8l-101 -506h-20z" />
    <glyph glyph-name="uni0443" unicode="&#x443;" horiz-adv-x="529" 
d="M-3 -197q-33 0 -62.5 12t-46.5 34l16 15q17 -22 41 -32t55 -10q36 0 68 20.5t69 76.5l58 88l6 7l329 503h24l-399 -607q-28 -41 -52.5 -64.5t-50 -33t-55.5 -9.5zM196 -11l-138 528h21l130 -503z" />
    <glyph glyph-name="uni0444" unicode="&#x444;" horiz-adv-x="744" 
d="M317 -3q-129 2 -196 54.5t-67 157.5q0 91 47.5 161t131 110t190.5 40h2q130 -1 197 -53.5t67 -158.5q0 -91 -47 -161t-130 -110t-191 -40h-4zM319 16h3q101 0 179 37.5t123 103.5t45 150q0 96 -62 145t-185 49h-4q-99 0 -177 -38t-122.5 -103.5t-44.5 -149.5
q0 -99 64 -145.5t181 -48.5zM272 -194l187 936h20l-187 -936h-20z" />
    <glyph glyph-name="uni0445" unicode="&#x445;" horiz-adv-x="495" 
d="M-25 0l265 271l-2 -6l-148 252h23l141 -241l-7 2l232 239h26l-250 -257l2 11l160 -271h-24l-149 256h7l-249 -256h-27z" />
    <glyph glyph-name="uni0446" unicode="&#x446;" horiz-adv-x="671" 
d="M64 0l104 517h20l-100 -499h383l100 499h20l-104 -517h-423zM529 -134l29 142l6 -8h-97l4 18h109l-31 -152h-20z" />
    <glyph glyph-name="uni0447" unicode="&#x447;" horiz-adv-x="577" 
d="M440 233q-58 -23 -111.5 -34.5t-97.5 -11.5q-85 0 -130.5 39.5t-29.5 116.5l35 174h20l-35 -176q-13 -66 26 -101t115 -35q44 0 97.5 12t113.5 36zM389 0l104 517h20l-104 -517h-20z" />
    <glyph glyph-name="uni0448" unicode="&#x448;" horiz-adv-x="901" 
d="M399 18l-7 -8l101 507h20l-101 -507l-7 8h320l-9 -8l101 507h20l-104 -517h-669l104 517h20l-101 -507l-7 8h319z" />
    <glyph glyph-name="uni0449" unicode="&#x449;" horiz-adv-x="915" 
d="M399 18l-7 -8l101 507h20l-101 -507l-7 8h320l-9 -8l101 507h20l-104 -517h-669l104 517h20l-101 -507l-7 8h319zM772 -121l26 129l6 -8h-95l4 18h107l-28 -139h-20z" />
    <glyph glyph-name="uni044A" unicode="&#x44a;" horiz-adv-x="587" 
d="M222 498h-178l4 19h190zM360 322q86 0 128 -33t42 -100q0 -57 -28.5 -99.5t-80.5 -66t-122 -23.5h-185l104 517h20l-39 -195h161zM299 18q64 0 111.5 21.5t74 60t26.5 89.5q0 115 -156 115h-160l-57 -286h161z" />
    <glyph glyph-name="uni044B" unicode="&#x44b;" horiz-adv-x="739" 
d="M551 0l104 517h20l-104 -517h-20zM310 322q86 0 128 -33t42 -100q0 -57 -28.5 -99.5t-80.5 -66t-122 -23.5h-185l104 517h20l-39 -195h161zM249 18q64 0 111.5 21.5t74 60t26.5 89.5q0 115 -156 115h-160l-57 -286h161z" />
    <glyph glyph-name="uni044C" unicode="&#x44c;" horiz-adv-x="537" 
d="M310 322q86 0 128 -33t42 -100q0 -57 -28.5 -99.5t-80.5 -66t-122 -23.5h-185l104 517h20l-39 -195h161zM249 18q64 0 111.5 21.5t74 60t26.5 89.5q0 115 -156 115h-160l-57 -286h161z" />
    <glyph glyph-name="uni044D" unicode="&#x44d;" horiz-adv-x="564" 
d="M170 255l4 18h319l-4 -18h-319zM282 520q69 0 120 -26t79 -73.5t28 -112.5q0 -63 -26 -119t-71.5 -99t-104.5 -68t-124 -25q-56 0 -104 18.5t-74 49.5l13 12q26 -29 69 -45t93 -16q63 0 118.5 23t98 64t67 93.5t24.5 110.5q0 89 -56 142t-151 53q-52 0 -101.5 -17
t-87.5 -48l-11 15q36 32 90 50t111 18z" />
    <glyph glyph-name="uni044E" unicode="&#x44e;" horiz-adv-x="851" 
d="M66 0l103 517h20l-49 -245h161l-3 -19h-161l-51 -253h-20zM500 -3q-66 0 -115 25.5t-75.5 72.5t-26.5 111q0 90 37.5 161t102.5 112t149 41q67 0 115.5 -25.5t75 -72.5t26.5 -111q0 -90 -37 -161t-102.5 -112t-149.5 -41zM503 16q77 0 137 38t94.5 104.5t34.5 151.5
q0 91 -52.5 141t-147.5 50q-76 0 -136.5 -38.5t-95 -104.5t-34.5 -151q0 -91 53 -141t147 -50z" />
    <glyph glyph-name="uni044F" unicode="&#x44f;" horiz-adv-x="596" 
d="M407 0l39 196l7 -8h-192q-85 0 -128 35t-43 105q0 88 64.5 138.5t176.5 50.5h199l-103 -517h-20zM23 0l185 200h25l-185 -200h-25zM447 199l61 307l7 -8h-184q-104 0 -162.5 -45t-58.5 -126q0 -121 151 -121h195z" />
    <glyph glyph-name="uni0450" unicode="&#x450;" horiz-adv-x="623" 
d="M290 -3q-71 0 -122.5 25t-78.5 72.5t-27 115.5q0 88 36 158t98.5 111t141.5 41q66 0 113 -25t72.5 -72t25.5 -113q0 -13 -1.5 -26.5t-3.5 -24.5h-466l4 19h453l-8 -11q12 76 -10 128t-68.5 79t-110.5 27q-73 0 -131.5 -38t-92 -103.5t-33.5 -149.5q0 -94 54 -144t156 -50
q59 0 108 20.5t80 56.5l12 -13q-31 -37 -84.5 -60t-116.5 -23zM384 607l-128 110h40l118 -110h-30z" />
    <glyph glyph-name="uni0451" unicode="&#x451;" horiz-adv-x="623" 
d="M290 -3q-71 0 -122.5 25t-78.5 72.5t-27 115.5q0 88 36 158t98.5 111t141.5 41q66 0 113 -25t72.5 -72t25.5 -113q0 -13 -1.5 -26.5t-3.5 -24.5h-466l4 19h453l-8 -11q12 76 -10 128t-68.5 79t-110.5 27q-73 0 -131.5 -38t-92 -103.5t-33.5 -149.5q0 -94 54 -144t156 -50
q59 0 108 20.5t80 56.5l12 -13q-31 -37 -84.5 -60t-116.5 -23zM462 641q-10 0 -17.5 7t-7.5 17q0 11 8 19.5t19 8.5q10 0 17.5 -7t7.5 -17q0 -11 -8 -19.5t-19 -8.5zM298 641q-10 0 -17.5 7t-7.5 17q0 11 8 19.5t19 8.5q10 0 17.5 -7t7.5 -17q0 -11 -8 -19.5t-19 -8.5z" />
    <glyph glyph-name="uni0452" unicode="&#x452;" horiz-adv-x="661" 
d="M348 -197q-30 0 -56 9t-40 28l16 14q27 -32 83 -32q50 0 82.5 29t43.5 84l74 370q18 91 -21.5 143.5t-135.5 52.5q-98 0 -164 -54.5t-87 -159.5l-57 -287h-20l148 742h20l-70 -351q38 68 98 98.5t134 30.5q72 0 115 -27.5t58 -76t2 -111.5l-75 -375q-11 -57 -50 -92
t-98 -35zM70 621l3 19h408l-3 -19h-408z" />
    <glyph glyph-name="uni0453" unicode="&#x453;" horiz-adv-x="448" 
d="M64 0l104 517h336l-4 -19h-324l9 8l-101 -506h-20zM312 607l152 110h42l-162 -110h-32z" />
    <glyph glyph-name="uni0454" unicode="&#x454;" horiz-adv-x="565" 
d="M393 262l-4 -18h-319l4 18h319zM281 -3q-68 0 -119.5 26t-79.5 74t-28 112q0 63 26 119t71.5 99t104.5 68t124 25q56 0 104.5 -18.5t73.5 -49.5l-13 -12q-26 29 -69 45t-93 16q-63 0 -118.5 -23t-98 -64t-67 -93t-24.5 -111q0 -89 56.5 -142t150.5 -53q52 0 101.5 16.5
t87.5 47.5l11 -15q-36 -31 -90 -49t-111 -18z" />
    <glyph glyph-name="uni0455" unicode="&#x455;" horiz-adv-x="508" 
d="M214 -3q-58 0 -111 19.5t-81 49.5l15 16q29 -31 77 -48.5t101 -17.5q89 0 140 34t51 94q0 38 -22 58t-57 30t-74.5 17.5t-74.5 19t-57 35.5t-22 67q0 45 25.5 78.5t71.5 52t107 18.5q47 0 92.5 -14t71.5 -39l-14 -15q-28 24 -68 36.5t-83 12.5q-83 0 -133 -35t-50 -94
q0 -38 22 -58.5t57 -30.5t74.5 -17.5t74.5 -19.5t57 -35t22 -66q0 -46 -26 -79t-73.5 -51t-112.5 -18z" />
    <glyph glyph-name="uni0456" unicode="&#x456;" horiz-adv-x="255" 
d="M66 0l103 517h20l-103 -517h-20zM211 660q-10 0 -17 7t-7 17q0 11 8.5 19.5t19.5 8.5q10 0 17 -7t7 -17q0 -11 -8.5 -19.5t-19.5 -8.5z" />
    <glyph glyph-name="uni0457" unicode="&#x457;" horiz-adv-x="250" 
d="M63 0l103 517h20l-103 -517h-20zM260 641q-10 0 -16.5 7t-6.5 17q0 11 8 19.5t19 8.5q10 0 16.5 -7t6.5 -17q0 -11 -8 -19.5t-19 -8.5zM148 641q-10 0 -16.5 7t-6.5 17q0 11 8 19.5t19 8.5q10 0 16.5 -7t6.5 -17q0 -11 -8 -19.5t-19 -8.5z" />
    <glyph glyph-name="uni0458" unicode="&#x458;" horiz-adv-x="254" 
d="M-72 -197q-30 0 -56 9.5t-43 26.5l15 15q34 -32 86 -32q50 0 80.5 27t42.5 88l116 580h20l-117 -586q-25 -128 -144 -128zM211 660q-10 0 -17 7t-7 17q0 11 8.5 19.5t19.5 8.5q10 0 17 -7t7 -17q0 -11 -8.5 -19.5t-19.5 -8.5z" />
    <glyph glyph-name="uni0459" unicode="&#x459;" horiz-adv-x="898" 
d="M-45 2l6 18q8 -1 14 -2.5t10 -1.5q35 0 64.5 32.5t57.5 106t59 194.5l43 168h340l-104 -517h-20l101 506l7 -8h-316l9 8l-41 -163q-24 -94 -46.5 -160t-46 -107t-49 -60t-55.5 -19q-8 0 -15 1t-18 4zM671 322q86 0 128 -33t42 -100q0 -57 -28.5 -99.5t-80.5 -66
t-122 -23.5h-185l104 517h20l-39 -195h161zM610 18q64 0 111.5 21.5t74 60t26.5 89.5q0 115 -156 115h-160l-57 -286h161z" />
    <glyph glyph-name="uni045A" unicode="&#x45a;" horiz-adv-x="925" 
d="M526 276h-387l-55 -276h-20l104 517h20l-45 -223h387zM701 294q85 0 127 -31t42 -93q0 -51 -27.5 -89.5t-78 -59.5t-119.5 -21h-183l104 517h20l-44 -223h159zM645 18q92 0 149 42t57 110q0 107 -155 107h-158l-52 -259h159z" />
    <glyph glyph-name="uni045B" unicode="&#x45b;" horiz-adv-x="660" 
d="M47 621l4 19h437l-4 -19h-437zM396 520q72 0 115 -27.5t58 -76t2 -111.5l-61 -305h-20l61 305q18 91 -21.5 143.5t-135.5 52.5q-98 0 -164 -54.5t-87 -159.5l-57 -287h-20l148 742h20l-75 -375l-10 -5q37 83 101 120.5t146 37.5z" />
    <glyph glyph-name="uni045C" unicode="&#x45c;" horiz-adv-x="546" 
d="M452 0l-185 263l17 8l190 -271h-22zM64 0l104 517h20l-104 -517h-20zM128 254l4 18h157l-4 -18h-157zM284 257l-22 6l273 254h28zM304 607l152 110h42l-162 -110h-32z" />
    <glyph glyph-name="uni045D" unicode="&#x45d;" horiz-adv-x="672" 
d="M64 0l104 517h20l-97 -483l497 483h20l-104 -517h-20l97 483l-497 -483h-20zM421 607l-128 110h40l118 -110h-30z" />
    <glyph glyph-name="uni045E" unicode="&#x45e;" horiz-adv-x="529" 
d="M-3 -197q-33 0 -62.5 12t-46.5 34l16 15q17 -22 41 -32t55 -10q36 0 68 20.5t69 76.5l58 88l6 7l329 503h24l-399 -607q-28 -41 -52.5 -64.5t-50 -33t-55.5 -9.5zM196 -11l-138 528h21l130 -503zM312 604q-58 0 -90 32t-24 81h18q-6 -41 20.5 -67.5t75.5 -26.5
q48 0 84.5 26t46.5 68h18q-11 -51 -52 -82t-97 -31z" />
    <glyph glyph-name="uni045F" unicode="&#x45f;" horiz-adv-x="625" 
d="M561 517l-104 -517h-186l-28 -134h-20l28 134h-187l104 517h20l-100 -499h353l100 499h20z" />
    <glyph glyph-name="uni0462" unicode="&#x462;" horiz-adv-x="784" 
d="M163 0l148 742h20l-61 -306h245q110 0 161 -44.5t51 -135.5q0 -76 -34.5 -133.5t-103 -90t-172.5 -32.5h-254zM187 19h238q141 0 211.5 65t70.5 170q0 83 -47.5 123t-155.5 40h-238zM82 580l4 19h448l-4 -19h-448z" />
    <glyph glyph-name="uni0463" unicode="&#x463;" horiz-adv-x="563" 
d="M57 509l4 19h355l-4 -19h-355zM336 322q86 0 128 -33t42 -100q0 -57 -28.5 -99.5t-80.5 -66t-122 -23.5h-185l149 742h20l-84 -420h161zM275 18q64 0 111.5 21.5t74 60t26.5 89.5q0 115 -156 115h-160l-57 -286h161z" />
    <glyph glyph-name="uni046A" unicode="&#x46a;" horiz-adv-x="851" 
d="M-22 0l119 173q42 61 89 102.5t99 63t108 21.5h106q55 0 98.5 -21t74.5 -62.5t48 -102.5l49 -174h-22l-46 164q-24 86 -75 131.5t-131 45.5h-43l-68 -341h-20l68 341h-43q-78 0 -148 -45.5t-129 -131.5l-111 -164h-23zM445 360l361 321h-596zM422 358l-238 323l4 19h650
l-4 -19l-367 -323h-45z" />
    <glyph glyph-name="uni046B" unicode="&#x46b;" horiz-adv-x="631" 
d="M-23 0l84 127q30 46 64.5 77t72.5 47t78 16h83q40 0 71 -16t53 -47.5t34 -76.5l34 -127h-22l-31 119q-16 63 -52 95.5t-91 32.5h-32l-49 -247h-20l49 247h-31q-55 0 -104 -33t-90 -95l-79 -119h-22zM318 268l256 231h-421zM296 265l-169 235l3 17h474l-3 -17l-262 -235
h-43z" />
    <glyph glyph-name="uni0472" unicode="&#x472;" horiz-adv-x="869" 
d="M386 -3q-102 0 -172 35.5t-106.5 99.5t-36.5 148t28.5 160t82.5 135.5t131 93.5t174 34q102 0 172.5 -35.5t106.5 -99t36 -148.5q0 -84 -28.5 -160t-82.5 -135.5t-131 -93.5t-174 -34zM388 16q90 0 162.5 32t124 88t79.5 129t28 155q0 79 -33.5 138t-99.5 92.5t-164 33.5
q-90 0 -162.5 -32t-124 -88t-79.5 -129t-28 -155q0 -78 33.5 -137.5t99.5 -93t164 -33.5zM82 341l3 19h704l-3 -19h-704z" />
    <glyph glyph-name="uni0473" unicode="&#x473;" horiz-adv-x="647" 
d="M74 250v19h500v-19h-500zM287 -3q-71 0 -122 25.5t-78 73t-27 111.5q0 90 38 160.5t105.5 111.5t155.5 41q71 0 122 -25.5t78 -72.5t27 -112q0 -90 -38 -160.5t-105 -111.5t-156 -41zM290 16q81 0 143.5 38t97.5 104.5t35 150.5q0 92 -54.5 142t-155.5 50
q-81 0 -143.5 -38.5t-97.5 -104.5t-35 -150q0 -91 54.5 -141.5t155.5 -50.5z" />
    <glyph glyph-name="uni0474" unicode="&#x474;" horiz-adv-x="722" 
d="M267 0l-152 700h23l143 -672l289 515q37 65 71.5 103t73.5 50.5t87 0.5l-7 -19q-64 16 -111 -18.5t-97 -124.5l-300 -535h-20z" />
    <glyph glyph-name="uni0475" unicode="&#x475;" horiz-adv-x="531" 
d="M202 0l-133 517h22l127 -503h-9l216 387q30 54 53.5 81.5t48 34t57.5 -2.5l-7 -20q-28 8 -47.5 3t-38.5 -29.5t-48 -75.5l-221 -392h-20z" />
    <glyph glyph-name="uni048A" unicode="&#x48a;" horiz-adv-x="840" 
d="M85 0l140 700h20l-132 -662l649 662h15l-140 -700h-20l133 662l-649 -662h-16zM512 756q-61 0 -95.5 32t-26.5 81h18q-6 -41 22.5 -67.5t80.5 -26.5q51 0 89.5 26t49.5 68h18q-11 -51 -54 -82t-102 -31zM624 -165l87 174l13 -9h-107l8 19h113l-96 -184h-18z" />
    <glyph glyph-name="uni048B" unicode="&#x48b;" horiz-adv-x="688" 
d="M64 0l104 517h20l-97 -483l497 483h20l-104 -517h-20l97 483l-497 -483h-20zM417 604q-36 0 -64.5 14t-44.5 39.5t-13 59.5h19q-3 -43 26.5 -68.5t77.5 -25.5q45 0 80.5 25t41.5 69h19q-7 -52 -47.5 -82.5t-94.5 -30.5zM503 -121l67 129l10 -8h-96l4 18h108l-75 -139h-18
z" />
    <glyph glyph-name="uni048C" unicode="&#x48c;" horiz-adv-x="730" 
d="M109 0l148 742h20l-61 -306h245q212 0 212 -180q0 -79 -37 -136.5t-105.5 -88.5t-163.5 -31h-258zM133 19h234q88 0 152 28.5t99 82t35 127.5q0 83 -47.5 121.5t-149.5 38.5h-244zM100 580l4 19h385l-4 -19h-385z" />
    <glyph glyph-name="uni048D" unicode="&#x48d;" horiz-adv-x="567" 
d="M58 417l3 19h340l-3 -19h-340zM340 322q86 0 128 -33t42 -100q0 -57 -28.5 -99.5t-80.5 -66t-122 -23.5h-185l104 517h20l-39 -195h161zM279 18q64 0 111.5 21.5t74 60t26.5 89.5q0 115 -156 115h-160l-57 -286h161z" />
    <glyph glyph-name="uni048E" unicode="&#x48e;" horiz-adv-x="731" 
d="M613 126l-17 -13l-196 344l17 13zM85 0l140 700h235q111 0 172.5 -48.5t61.5 -137.5q0 -90 -38.5 -151t-109.5 -92t-169 -31h-233l11 9l-50 -249h-20zM155 251l-7 8h228q142 0 220 64t78 191q0 80 -55 123.5t-158 43.5h-229l11 10z" />
    <glyph glyph-name="uni048F" unicode="&#x48f;" horiz-adv-x="695" 
d="M539 -49l-18 -11l-126 221l17 11zM334 -3q-69 0 -117 25t-73 71.5t-26 111.5q0 90 36 161t101.5 112.5t150.5 41.5q68 0 117 -25.5t76 -72.5t27 -112q0 -67 -21.5 -124t-60.5 -99.5t-92.5 -66t-117.5 -23.5zM28 -194l142 711h20l-36 -180l-26 -70l-3 -77l-77 -384h-20z
M337 16q78 0 138.5 38t95.5 104.5t35 150.5q0 92 -53.5 142t-149.5 50q-77 0 -138 -38t-96 -104t-35 -151q0 -91 53.5 -141.5t149.5 -50.5z" />
    <glyph glyph-name="uni0490" unicode="&#x490;" horiz-adv-x="561" 
d="M85 0l140 700h396l29 145h20l-33 -164h-396l-136 -681h-20z" />
    <glyph glyph-name="uni0491" unicode="&#x491;" horiz-adv-x="414" 
d="M64 0l104 517h282l21 107h19l-25 -126h-281l-100 -498h-20z" />
    <glyph glyph-name="uni0492" unicode="&#x492;" horiz-adv-x="591" 
d="M48 319l4 19h448l-4 -19h-448zM108 0l140 700h416l-4 -19h-405l11 9l-138 -690h-20z" />
    <glyph glyph-name="uni0493" unicode="&#x493;" horiz-adv-x="475" 
d="M49 232l4 19h339l-4 -19h-339zM77 0l104 517h336l-4 -19h-324l9 8l-101 -506h-20z" />
    <glyph glyph-name="uni0494" unicode="&#x494;" horiz-adv-x="699" 
d="M85 0l140 700h436l-4 -19h-425l11 9l-138 -690h-20zM247 -126l6 20q71 -13 133 8t109.5 66.5t74.5 105.5t27 125q0 64 -26 105t-70 59.5t-100.5 16.5t-118.5 -23.5t-122 -60.5l-7 17q63 41 128.5 63.5t125.5 23.5t107.5 -19.5t75 -65t27.5 -114.5q0 -73 -30.5 -138.5
t-83 -112.5t-119 -68.5t-137.5 -7.5z" />
    <glyph glyph-name="uni0495" unicode="&#x495;" horiz-adv-x="577" 
d="M66 0l103 517h330l-3 -19h-318l9 8l-101 -506h-20zM159 -193l4 20q64 -12 121.5 2.5t101.5 50t69.5 87.5t25.5 116q0 66 -29 107.5t-79.5 55.5t-116 -1t-137.5 -61l-10 16q77 50 147.5 65.5t125.5 -1t87 -62.5t32 -119q0 -69 -27 -125t-75 -94.5t-109.5 -54t-130.5 -2.5z
" />
    <glyph glyph-name="uni0496" unicode="&#x496;" horiz-adv-x="1021" 
d="M866 0l-190 357l19 8l195 -365h-24zM507 347l3 19h189l-3 -19h-189zM692 349l-16 8l308 343h26zM6 0h-26l341 365l17 -8zM445 0h-20l140 700h20zM503 347h-189l3 19h189zM318 349l-176 351h24l172 -343zM902 -165l34 174l8 -9h-78l3 19h89l-36 -184h-20z" />
    <glyph glyph-name="uni0497" unicode="&#x497;" horiz-adv-x="821" 
d="M676 0l-149 263l17 8l154 -271h-22zM390 254l4 18h155l-4 -18h-155zM545 257l-19 6l237 254h25zM2 0h-27l262 271l18 -8zM347 0h-20l104 517h20zM385 254h-153l4 18h153zM235 257l-140 260h22l136 -254zM719 -121l26 129l6 -8h-75l4 18h86l-28 -139h-19z" />
    <glyph glyph-name="uni0498" unicode="&#x498;" horiz-adv-x="623" 
d="M238 -3q-67 0 -129 25.5t-102 78.5l15 11q38 -49 96.5 -72t121.5 -23q51 0 99 14t87 41t62 64.5t23 84.5q0 67 -49.5 101t-142.5 34h-137l4 19h138q68 0 117.5 21.5t77 60t27.5 87.5q0 46 -24.5 77t-66 47t-94.5 16q-49 0 -105 -15.5t-111 -47.5l-7 17q57 33 115 49
t110 16q58 0 103.5 -18t72.5 -53.5t27 -86.5q0 -54 -30 -96t-84 -66t-126 -24l7 13q63 0 107 -18t67.5 -52.5t23.5 -82.5q0 -50 -25 -91t-67 -70.5t-94.5 -45t-106.5 -15.5zM257 10l-35 -175h-20l35 175h20z" />
    <glyph glyph-name="uni0499" unicode="&#x499;" horiz-adv-x="509" 
d="M188 -3q-125 0 -188 75l16 12q27 -33 71 -50t99 -17q59 0 106.5 18.5t75 49.5t27.5 70q0 49 -42 77t-116 28h-72l4 20h64q83 0 135 34t52 86q0 46 -40 73t-107 27q-43 0 -85.5 -11.5t-85.5 -32.5l-11 18q47 23 92 34.5t89 11.5q51 0 88.5 -15t58.5 -42t21 -64
q0 -32 -17 -58.5t-49.5 -44.5t-78.5 -28v4q61 -13 90.5 -41.5t29.5 -74.5q0 -45 -29.5 -81t-81 -57t-116.5 -21zM197 10l-26 -131h-20l26 131h20z" />
    <glyph glyph-name="uni049A" unicode="&#x49a;" horiz-adv-x="735" 
d="M85 0l140 700h20l-140 -700h-20zM167 347l3 19h204l-3 -19h-204zM581 0l-230 357l17 8l235 -365h-22zM367 349l-18 8l350 343h26zM617 -165l34 174l8 -9h-78l3 19h89l-36 -184h-20z" />
    <glyph glyph-name="uni049B" unicode="&#x49b;" horiz-adv-x="595" 
d="M452 0l-185 263l17 8l190 -271h-22zM64 0l104 517h20l-104 -517h-20zM128 254l4 18h157l-4 -18h-157zM284 257l-22 6l273 254h28zM495 -121l26 129l6 -8h-75l4 18h86l-28 -139h-19z" />
    <glyph glyph-name="uni049C" unicode="&#x49c;" horiz-adv-x="702" 
d="M596 0l-210 357l19 8l215 -365h-24zM85 0l140 700h20l-140 -700h-20zM167 347l3 19h239l-3 -19h-239zM259 176l72 363h20l-72 -363h-20zM402 349l-16 8l328 343h26z" />
    <glyph glyph-name="uni049D" unicode="&#x49d;" horiz-adv-x="552" 
d="M128 254l4 18h187l-4 -18h-187zM452 0l-155 263l17 8l160 -271h-22zM64 0l104 517h20l-104 -517h-20zM202 132l54 266h16l-53 -266h-17zM314 257l-20 6l243 254h26z" />
    <glyph glyph-name="uni049E" unicode="&#x49e;" horiz-adv-x="719" 
d="M82 575l4 19h350l-4 -19h-350zM121 0l140 700h20l-140 -700h-20zM203 347l3 19h204l-3 -19h-204zM617 0l-230 357l17 8l235 -365h-22zM403 349l-18 8l350 343h26z" />
    <glyph glyph-name="uni049F" unicode="&#x49f;" horiz-adv-x="548" 
d="M75 621l4 19h304l-4 -19h-304zM454 0l-185 263l17 8l190 -271h-22zM66 0l148 742h20l-148 -742h-20zM129 254l4 18h158l-4 -18h-158zM286 257l-20 6l273 254h26z" />
    <glyph glyph-name="uni04A0" unicode="&#x4a0;" horiz-adv-x="803" 
d="M92 681l4 19h250l-4 -19h-250zM697 0l-210 357l19 8l215 -365h-24zM186 0l140 700h20l-140 -700h-20zM268 347l3 19h239l-3 -19h-239zM503 349l-16 8l328 343h26z" />
    <glyph glyph-name="uni04A1" unicode="&#x4a1;" horiz-adv-x="596" 
d="M44 498l4 19h190l-4 -19h-190zM502 0l-185 263l17 8l190 -271h-22zM114 0l104 517h20l-104 -517h-20zM178 254l4 18h157l-4 -18h-157zM334 257l-20 6l273 254h26z" />
    <glyph glyph-name="uni04A2" unicode="&#x4a2;" horiz-adv-x="841" 
d="M755 700h20l-140 -700h-20zM105 0h-20l140 700h20zM689 346h-520l4 19h520zM699 -165l34 174l8 -9h-126l5 19h135l-36 -184h-20z" />
    <glyph glyph-name="uni04A3" unicode="&#x4a3;" horiz-adv-x="676" 
d="M64 0l104 517h20l-50 -247h389l50 247h20l-104 -517h-20l51 252h-389l-51 -252h-20zM536 -121l26 129l6 -8h-95l4 18h107l-28 -139h-20z" />
    <glyph glyph-name="uni04A4" unicode="&#x4a4;" horiz-adv-x="1091" 
d="M755 700h20l-140 -700h-20zM105 0h-20l140 700h20zM689 346h-520l4 19h520zM615 0l140 700h416l-4 -19h-405l11 9l-138 -690h-20z" />
    <glyph glyph-name="uni04A5" unicode="&#x4a5;" horiz-adv-x="856" 
d="M64 0l104 517h20l-50 -247h389l50 247h20l-104 -517h-20l51 252h-389l-51 -252h-20zM473 0l104 517h336l-4 -19h-324l9 8l-101 -506h-20z" />
    <glyph glyph-name="uni04A6" unicode="&#x4a6;" horiz-adv-x="1238" 
d="M786 -126l6 20q71 -13 133 8t109.5 66.5t74.5 105.5t27 125q0 64 -26 105t-70 59.5t-100.5 16.5t-118.5 -23.5t-122 -60.5l-7 17q63 41 128.5 63.5t125.5 23.5t107.5 -19.5t75 -65t27.5 -114.5q0 -73 -30.5 -138.5t-83 -112.5t-119 -68.5t-137.5 -7.5zM85 0l140 700h559
l-140 -700h-20l138 690l7 -9h-537l11 9l-138 -690h-20z" />
    <glyph glyph-name="uni04A7" unicode="&#x4a7;" horiz-adv-x="989" 
d="M571 -193l4 20q64 -12 121.5 2.5t101.5 50t69.5 87.5t25.5 116q0 66 -29 107.5t-79.5 55.5t-116 -1t-137.5 -61l-10 16q77 50 147.5 65.5t125.5 -1t87 -62.5t32 -119q0 -69 -27 -125t-75 -94.5t-109.5 -54t-130.5 -2.5zM64 0l104 517h434l-104 -517h-20l101 506l7 -8
h-410l9 8l-101 -506h-20z" />
    <glyph glyph-name="uni04A8" unicode="&#x4a8;" horiz-adv-x="970" 
d="M425 -3q-99 0 -174.5 41t-118 113.5t-42.5 167.5q0 86 34 161t96.5 132.5t146.5 89.5l8 -18q-81 -31 -140.5 -86t-92 -126t-32.5 -153q0 -90 39.5 -158t110.5 -106t165 -38q91 0 173 34t145.5 93.5t100 137t36.5 163.5q0 70 -27 123.5t-75.5 84t-113.5 30.5
q-77 0 -138.5 -42t-97 -113t-35.5 -160q0 -91 35.5 -163.5t98 -119.5t144 -62t172.5 9l4 -20q-96 -24 -181.5 -8t-151.5 65.5t-103.5 126t-37.5 172.5q0 71 22 131.5t61.5 106.5t92.5 71.5t115 25.5q71 0 124 -33t82.5 -91t29.5 -134q0 -72 -25 -138.5t-69.5 -123
t-104 -98.5t-130 -65t-146.5 -23z" />
    <glyph glyph-name="uni04A9" unicode="&#x4a9;" horiz-adv-x="785" 
d="M328 -3q-78 0 -138 32.5t-94 89t-34 128.5q0 96 58 169t155 104l6 -20q-91 -29 -145 -96.5t-54 -156.5q0 -67 31.5 -119t87 -81.5t127.5 -29.5q70 0 133.5 25.5t113 69.5t78 100.5t28.5 118.5q0 77 -46 123t-122 46q-59 0 -106 -29.5t-73.5 -81t-26.5 -118.5
q0 -93 49 -155.5t133.5 -86t190.5 -0.5l4 -20q-84 -18 -156 -7.5t-126.5 46t-84.5 92t-30 131.5q0 73 29.5 129t80.5 88t116 32q56 0 98.5 -23.5t66 -66t23.5 -99.5q0 -53 -19.5 -102t-55 -91.5t-82.5 -74t-102 -49t-114 -17.5z" />
    <glyph glyph-name="uni04AA" unicode="&#x4aa;" horiz-adv-x="733" 
d="M402 -3q-102 0 -172 35.5t-106.5 99.5t-36.5 148t28.5 160t83 135.5t132.5 93.5t177 34q79 0 139.5 -23t95.5 -65l-14 -13q-36 41 -91.5 61.5t-131.5 20.5q-91 0 -165 -32t-126 -88t-80 -129t-28 -155q0 -78 33.5 -137.5t99.5 -93t164 -33.5q77 0 138.5 22.5t105.5 63.5
l12 -16q-43 -40 -111 -64.5t-147 -24.5zM393 10l-35 -175h-20l35 175h20z" />
    <glyph glyph-name="uni04AB" unicode="&#x4ab;" horiz-adv-x="560" 
d="M286 -3q-70 0 -120.5 25.5t-77.5 73t-27 111.5q0 91 38 161.5t104 111t151 40.5q65 0 112.5 -22t72.5 -65l-15 -12q-26 41 -69 60.5t-102 19.5q-79 0 -140.5 -38.5t-96.5 -104.5t-35 -150q0 -91 54 -141.5t154 -50.5q56 0 104 20.5t79 57.5l12 -14q-32 -40 -85 -61.5
t-113 -21.5zM308 7l-26 -131h-20l26 131h20z" />
    <glyph glyph-name="uni04AC" unicode="&#x4ac;" horiz-adv-x="556" 
d="M216 0l138 690l7 -9h-269l4 19h540l-4 -19h-269l11 9l-138 -690h-20zM300 -165l34 174l8 -9h-126l5 19h135l-36 -184h-20z" />
    <glyph glyph-name="uni04AD" unicode="&#x4ad;" horiz-adv-x="432" 
d="M154 0l101 506l7 -8h-218l4 19h440l-4 -19h-218l9 8l-101 -506h-20zM217 -121l26 129l6 -8h-95l4 18h107l-28 -139h-20z" />
    <glyph glyph-name="Ustraitcy" unicode="&#x4ae;" horiz-adv-x="620" 
d="M248 0l49 245l2 -15l-196 470h22l186 -447l-7 -1l364 448h25l-384 -472l8 17l-49 -245h-20z" />
    <glyph glyph-name="ustraitcy" unicode="&#x4af;" horiz-adv-x="529" 
d="M226 10l-41 -204h-20l41 204h20zM208 -18l-140 535h21l130 -503h-8l329 503h24l-353 -535h-3z" />
    <glyph glyph-name="Ustraitstrokecy" unicode="&#x4b0;" horiz-adv-x="620" 
d="M100 232l4 19h409l-5 -19h-408zM248 0l49 245l2 -15l-196 470h22l186 -447l-7 -1l364 448h25l-384 -472l8 17l-49 -245h-20z" />
    <glyph glyph-name="ustraitstrokecy" unicode="&#x4b1;" horiz-adv-x="529" 
d="M24 -4l4 19h378l-4 -19h-378zM226 10l-41 -204h-20l41 204h20zM208 -18l-140 535h21l130 -503h-8l329 503h24l-353 -535h-3z" />
    <glyph glyph-name="uni04B2" unicode="&#x4b2;" horiz-adv-x="659" 
d="M140 700h24l166 -321l295 321h24l-310 -338l189 -362h-23l-181 346l-318 -346h-25l334 362zM541 -165l34 174l8 -9h-78l3 19h89l-36 -184h-20z" />
    <glyph glyph-name="uni04B3" unicode="&#x4b3;" horiz-adv-x="537" 
d="M-25 0l265 271l-2 -6l-148 252h23l141 -241l-7 2l232 239h26l-250 -257l2 11l160 -271h-24l-149 256h7l-249 -256h-27zM436 -121l26 129l6 -8h-75l4 18h86l-28 -139h-19z" />
    <glyph glyph-name="uni04B4" unicode="&#x4b4;" horiz-adv-x="952" 
d="M216 0l138 690l7 -9h-269l4 19h530l-4 -19h-259l11 9l-138 -690h-20zM216 0l140 700h20l-136 -681h490l136 681h20l-140 -700h-530zM808 -175l37 184l7 -9h-126l4 19h137l-39 -194h-20z" />
    <glyph glyph-name="uni04B5" unicode="&#x4b5;" horiz-adv-x="729" 
d="M154 0l104 517h20l-100 -499h353l100 499h20l-104 -517h-393zM584 -121l26 129l6 -8h-89l4 18h101l-28 -139h-20zM478 517l-4 -19h-430l4 19h430z" />
    <glyph glyph-name="uni04B6" unicode="&#x4b6;" horiz-adv-x="736" 
d="M583 319q-73 -31 -142.5 -47.5t-128.5 -16.5q-114 0 -167.5 55.5t-34.5 152.5l47 237h20l-47 -239q-18 -88 30.5 -137.5t151.5 -49.5q59 0 129.5 17t146.5 49zM510 0l140 700h20l-140 -700h-20zM594 -165l34 174l8 -9h-126l5 19h135l-36 -184h-20z" />
    <glyph glyph-name="uni04B7" unicode="&#x4b7;" horiz-adv-x="591" 
d="M440 233q-58 -23 -111.5 -34.5t-97.5 -11.5q-85 0 -130.5 39.5t-29.5 116.5l35 174h20l-35 -176q-13 -66 26 -101t115 -35q44 0 97.5 12t113.5 36zM389 0l104 517h20l-104 -517h-20zM452 -121l26 129l6 -8h-95l4 18h107l-28 -139h-20z" />
    <glyph glyph-name="uni04B8" unicode="&#x4b8;" horiz-adv-x="719" 
d="M278 86l72 360h20l-72 -360h-20zM583 319q-73 -31 -142.5 -47.5t-128.5 -16.5q-114 0 -167.5 55.5t-34.5 152.5l47 237h20l-47 -239q-18 -88 30.5 -137.5t151.5 -49.5q59 0 129.5 17t146.5 49zM510 0l140 700h20l-140 -700h-20z" />
    <glyph glyph-name="uni04B9" unicode="&#x4b9;" horiz-adv-x="577" 
d="M226 72l54 266h17l-54 -266h-17zM440 233q-58 -23 -111.5 -34.5t-97.5 -11.5q-85 0 -130.5 39.5t-29.5 116.5l35 174h20l-35 -176q-13 -66 26 -101t115 -35q44 0 97.5 12t113.5 36zM389 0l104 517h20l-104 -517h-20z" />
    <glyph glyph-name="uni04BA" unicode="&#x4ba;" horiz-adv-x="720" 
d="M578 0l48 239q17 88 -31 137.5t-151 49.5q-59 0 -129.5 -17t-146.5 -49l5 21q72 32 142 48t129 16q114 0 168 -55.5t34 -152.5l-48 -237h-20zM85 0l140 700h20l-140 -700h-20z" />
    <glyph glyph-name="uni04BB" unicode="&#x4bb;" horiz-adv-x="660" 
d="M396 520q72 0 115 -27.5t58 -76t2 -111.5l-61 -305h-20l61 305q18 91 -21.5 143.5t-135.5 52.5q-98 0 -164 -54.5t-87 -159.5l-57 -287h-20l148 742h20l-75 -375l-10 -5q37 83 101 120.5t146 37.5z" />
    <glyph glyph-name="uni04BC" unicode="&#x4bc;" horiz-adv-x="950" 
d="M522 -3q-92 0 -160.5 37.5t-106 106t-37.5 160.5q0 82 32.5 155t89 128.5t130.5 87t157 31.5q78 0 138.5 -28t99 -78t51.5 -117.5t-4 -146.5l-717 1q-47 0 -76.5 20t-38.5 53.5t3 73.5t48 80l16 -11q-43 -47 -50 -92.5t19.5 -75t81.5 -29.5h707l-10 -2q19 95 -10 170.5
t-96 119t-162 43.5q-79 0 -149.5 -30t-124.5 -83.5t-84.5 -122.5t-30.5 -147q0 -86 35.5 -150t99.5 -99.5t150 -35.5q66 0 132 24t122 68l12 -15q-61 -47 -129 -71.5t-138 -24.5z" />
    <glyph glyph-name="uni04BD" unicode="&#x4bd;" horiz-adv-x="719" 
d="M170 259h-28q-54 0 -77.5 25t-18 64t39.5 80l17 -10q-30 -32 -36 -64.5t13.5 -54t65.5 -21.5h28zM395 -3q-74 0 -127 25t-81.5 72.5t-28.5 115.5q0 88 37.5 158t102.5 111t148 41q68 0 117 -25t75.5 -72t26.5 -113q0 -13 -1.5 -26.5t-3.5 -24.5h-485l4 19h472l-9 -11
q12 76 -10.5 128t-71 79t-115.5 27q-76 0 -136.5 -38t-95.5 -103.5t-35 -149.5q0 -94 56.5 -144t162.5 -50q61 0 112 20.5t83 56.5l13 -13q-33 -37 -88.5 -60t-121.5 -23z" />
    <glyph glyph-name="uni04BE" unicode="&#x4be;" horiz-adv-x="950" 
d="M522 -3q-92 0 -160.5 37.5t-106 106t-37.5 160.5q0 82 32.5 155t89 128.5t130.5 87t157 31.5q78 0 138.5 -28t99 -78t51.5 -117.5t-4 -146.5l-717 1q-47 0 -76.5 20t-38.5 53.5t3 73.5t48 80l16 -11q-43 -47 -50 -92.5t19.5 -75t81.5 -29.5h707l-10 -2q19 95 -10 170.5
t-96 119t-162 43.5q-79 0 -149.5 -30t-124.5 -83.5t-84.5 -122.5t-30.5 -147q0 -86 35.5 -150t99.5 -99.5t150 -35.5q66 0 132 24t122 68l12 -15q-61 -47 -129 -71.5t-138 -24.5zM517 10l-35 -175h-20l35 175h20z" />
    <glyph glyph-name="uni04BF" unicode="&#x4bf;" horiz-adv-x="719" 
d="M170 259h-28q-54 0 -77.5 25t-18 64t39.5 80l17 -10q-30 -32 -36 -64.5t13.5 -54t65.5 -21.5h28zM395 -3q-74 0 -127 25t-81.5 72.5t-28.5 115.5q0 88 37.5 158t102.5 111t148 41q68 0 117 -25t75.5 -72t26.5 -113q0 -13 -1.5 -26.5t-3.5 -24.5h-485l4 19h472l-9 -11
q12 76 -10.5 128t-71 79t-115.5 27q-76 0 -136.5 -38t-95.5 -103.5t-35 -149.5q0 -94 56.5 -144t162.5 -50q61 0 112 20.5t83 56.5l13 -13q-33 -37 -88.5 -60t-121.5 -23zM385 10l-26 -131h-20l26 131h20z" />
    <glyph glyph-name="uni04C0" unicode="&#x4c0;" horiz-adv-x="294" 
d="M85 0l140 700h20l-140 -700h-20z" />
    <glyph glyph-name="uni04C1" unicode="&#x4c1;" horiz-adv-x="975" 
d="M866 0l-190 357l19 8l195 -365h-24zM507 347l3 19h189l-3 -19h-189zM692 349l-16 8l308 343h26zM6 0h-26l341 365l17 -8zM445 0h-20l140 700h20zM503 347h-189l3 19h189zM318 349l-176 351h24l172 -343zM590 756q-61 0 -95.5 32t-26.5 81h18q-6 -41 22.5 -67.5
t80.5 -26.5q51 0 89.5 26t49.5 68h18q-11 -51 -54 -82t-102 -31z" />
    <glyph glyph-name="uni04C2" unicode="&#x4c2;" horiz-adv-x="778" 
d="M676 0l-149 263l17 8l154 -271h-22zM390 254l4 18h155l-4 -18h-155zM545 257l-19 6l237 254h25zM2 0h-27l262 271l18 -8zM347 0h-20l104 517h20zM385 254h-153l4 18h153zM235 257l-140 260h22l136 -254zM463 604q-58 0 -90 32t-24 81h18q-6 -41 20.5 -67.5t75.5 -26.5
q48 0 84.5 26t46.5 68h18q-11 -51 -52 -82t-97 -31z" />
    <glyph glyph-name="uni04C3" unicode="&#x4c3;" horiz-adv-x="678" 
d="M427 -196q-47 0 -98 29l10 18q24 -14 45 -20.5t43 -6.5q57 0 92 43t35 113q0 54 -23.5 116.5t-68.5 127t-108 126.5l14 14q65 -64 111 -130.5t70.5 -131.5t24.5 -122q0 -52 -18.5 -92t-51.5 -62t-77 -22zM85 0l140 700h20l-140 -700h-20zM167 347l3 19h204l-3 -19h-204z
M367 349l-18 8l350 343h26z" />
    <glyph glyph-name="uni04C4" unicode="&#x4c4;" horiz-adv-x="542" 
d="M308 -196q-51 0 -101 26l8 18q24 -12 47.5 -18t45.5 -6q57 0 91 37.5t34 101.5q0 65 -42 140t-125 157l14 14q86 -85 129.5 -163t43.5 -148q0 -47 -18 -83t-50.5 -56t-76.5 -20zM65 0l103 517h20l-103 -517h-20zM129 254l3 18h157l-3 -18h-157zM284 257l-22 6l273 254h28
z" />
    <glyph glyph-name="uni04C6" unicode="&#x4c6;" horiz-adv-x="629" 
d="M-45 2l6 18q8 -1 14 -2.5t10 -1.5q35 0 64.5 32.5t57.5 106t59 194.5l43 168h340l-104 -517h-20l101 506l7 -8h-316l9 8l-41 -163q-24 -94 -46.5 -160t-46 -107t-49 -60t-55.5 -19q-8 0 -15 1t-18 4zM444 -121l67 129l10 -8h-96l4 18h108l-75 -139h-18z" />
    <glyph glyph-name="uni04C7" unicode="&#x4c7;" horiz-adv-x="817" 
d="M371 -159l15 13q24 -22 56 -29t64 2t56 34t32 65l83 418h-503l-69 -344h-20l140 700h20l-67 -336h503l67 336h20l-156 -781q-9 -46 -38 -73.5t-66.5 -37t-74.5 -1.5t-62 34z" />
    <glyph glyph-name="uni04C8" unicode="&#x4c8;" horiz-adv-x="672" 
d="M343 -197q-30 0 -56.5 9t-40.5 28l17 14q27 -32 82 -32q50 0 82.5 29t43.5 84l63 317h-399l-50 -252h-20l103 517h20l-49 -247h399l49 247h20l-117 -587q-11 -57 -49.5 -92t-97.5 -35z" />
    <glyph glyph-name="uni04C9" unicode="&#x4c9;" horiz-adv-x="838" 
d="M755 700h20l-140 -700h-20zM105 0h-20l140 700h20zM689 346h-520l4 19h520zM622 -165l87 174l13 -9h-107l8 19h113l-96 -184h-18z" />
    <glyph glyph-name="uni04CA" unicode="&#x4ca;" horiz-adv-x="677" 
d="M64 0l104 517h20l-50 -247h389l50 247h20l-104 -517h-20l51 252h-389l-51 -252h-20zM492 -121l67 129l10 -8h-96l4 18h108l-75 -139h-18z" />
    <glyph glyph-name="uni04CB" unicode="&#x4cb;" horiz-adv-x="719" 
d="M312 255q-114 0 -167.5 55.5t-34.5 152.5l47 237h20l-47 -239q-18 -88 30.5 -137.5t151.5 -49.5q59 0 129.5 17t146.5 49l-5 -21q-73 -31 -142.5 -47.5t-128.5 -16.5zM360 -165l37 184h137l-4 -19h-126l11 9l-35 -174h-20zM510 0l140 700h20l-140 -700h-20z" />
    <glyph glyph-name="uni04CC" unicode="&#x4cc;" horiz-adv-x="577" 
d="M231 187q-85 0 -130.5 39.5t-29.5 116.5l35 174h20l-35 -176q-13 -66 26 -101t115 -35q44 0 97.5 12t113.5 36l-3 -20q-58 -23 -111.5 -34.5t-97.5 -11.5zM274 -121l28 139h111l-4 -18h-99l10 8l-26 -129h-20zM389 0l104 517h20l-104 -517h-20z" />
    <glyph glyph-name="uni04CD" unicode="&#x4cd;" horiz-adv-x="978" 
d="M85 0l140 700h17l222 -582l-9 3l441 579h19l-140 -700h-20l134 671l9 -2l-436 -570h-12l-219 573l8 -1l-134 -671h-20zM762 -165l87 174l13 -9h-107l8 19h113l-96 -184h-18z" />
    <glyph glyph-name="uni04CE" unicode="&#x4ce;" horiz-adv-x="789" 
d="M64 0l104 517h16l173 -427h-10l344 427h18l-104 -517h-19l98 488h6l-335 -416h-11l-169 416h7l-98 -488h-20zM605 -121l67 129l10 -8h-96l4 18h108l-75 -139h-18z" />
    <glyph glyph-name="uni04CF" unicode="&#x4cf;" horiz-adv-x="256" 
d="M66 0l148 742h20l-148 -742h-20z" />
    <glyph glyph-name="uni04D0" unicode="&#x4d0;" horiz-adv-x="716" 
d="M-29 0l465 700h20l185 -700h-21l-180 684h9l-454 -684h-24zM120 211l14 19h435l6 -19h-455zM460 756q-61 0 -95.5 32t-26.5 81h18q-6 -41 22.5 -67.5t80.5 -26.5q51 0 89.5 26t49.5 68h18q-11 -51 -54 -82t-102 -31z" />
    <glyph glyph-name="uni04D1" unicode="&#x4d1;" horiz-adv-x="686" 
d="M281 -3q-67 0 -116.5 25.5t-76.5 73t-27 111.5q0 67 21.5 124t60.5 99.5t92.5 66t117.5 23.5q69 0 117 -25t73.5 -71.5t25.5 -111.5q1 -89 -35.5 -160.5t-101.5 -113t-151 -41.5zM284 16q78 0 138.5 38t95.5 104.5t35 150.5q0 92 -53.5 142t-149.5 50q-77 0 -138 -38.5
t-96 -104.5t-35 -150q0 -91 53.5 -141.5t149.5 -50.5zM497 0l36 180l26 70l3 77l38 190h20l-103 -517h-20zM402 604q-58 0 -90 32t-24 81h18q-6 -41 20.5 -67.5t75.5 -26.5q48 0 84.5 26t46.5 68h18q-11 -51 -52 -82t-97 -31z" />
    <glyph glyph-name="uni04D2" unicode="&#x4d2;" horiz-adv-x="716" 
d="M-29 0l465 700h20l185 -700h-21l-180 684h9l-454 -684h-24zM120 211l14 19h435l6 -19h-455zM550 791q-10 0 -17.5 7t-7.5 17q0 11 8 19.5t19 8.5q10 0 17.5 -7t7.5 -17q0 -11 -8 -19.5t-19 -8.5zM386 791q-10 0 -17.5 7t-7.5 17q0 11 8 19.5t19 8.5q10 0 17.5 -7t7.5 -17
q0 -11 -8 -19.5t-19 -8.5z" />
    <glyph glyph-name="uni04D3" unicode="&#x4d3;" horiz-adv-x="686" 
d="M281 -3q-67 0 -116.5 25.5t-76.5 73t-27 111.5q0 67 21.5 124t60.5 99.5t92.5 66t117.5 23.5q69 0 117 -25t73.5 -71.5t25.5 -111.5q1 -89 -35.5 -160.5t-101.5 -113t-151 -41.5zM284 16q78 0 138.5 38t95.5 104.5t35 150.5q0 92 -53.5 142t-149.5 50q-77 0 -138 -38.5
t-96 -104.5t-35 -150q0 -91 53.5 -141.5t149.5 -50.5zM497 0l36 180l26 70l3 77l38 190h20l-103 -517h-20zM491 641q-10 0 -17.5 7t-7.5 17q0 11 8 19.5t19 8.5q10 0 17.5 -7t7.5 -17q0 -11 -8 -19.5t-19 -8.5zM327 641q-10 0 -17.5 7t-7.5 17q0 11 8 19.5t19 8.5
q10 0 17.5 -7t7.5 -17q0 -11 -8 -19.5t-19 -8.5z" />
    <glyph glyph-name="uni04D4" unicode="&#x4d4;" horiz-adv-x="983" 
d="M-38 0l583 700h23l-4 -19h-22l16 4l-571 -685h-25zM148 211l14 19h312l-4 -19h-322zM423 0l140 700h451l-4 -19h-431l-132 -662h446l-4 -19h-466zM507 346l4 19h391l-4 -19h-391z" />
    <glyph glyph-name="uni04D5" unicode="&#x4d5;" horiz-adv-x="1003" 
d="M206 -3q-52 0 -89 15t-57 43t-20 67q0 74 56.5 116t155.5 42h203l-4 -19h-199q-91 0 -141.5 -36.5t-50.5 -101.5q0 -52 38 -79.5t110 -27.5q54 0 100.5 21.5t79.5 63t45 101.5l26 129q17 84 -17 127t-120 43q-55 0 -106.5 -19.5t-87.5 -51.5l-12 14q26 24 60 41t71.5 26
t75.5 9q92 0 131 -46t27 -124l-6 9q25 51 62.5 87t84 55t98.5 19q66 0 113.5 -25t73 -72t25.5 -113q0 -13 -2 -26t-4 -23h-465l4 19h454l-10 -13q12 76 -9.5 128t-68.5 79t-112 27q-72 0 -130.5 -38t-92.5 -103.5t-34 -149.5q0 -94 54 -144t157 -50q58 0 106 20.5t80 56.5
l13 -13q-33 -37 -85.5 -60t-115.5 -23q-66 0 -115.5 21.5t-78.5 64.5t-34 106l6 -2q-17 -67 -55 -109t-87 -61.5t-101 -19.5z" />
    <glyph glyph-name="uni04D6" unicode="&#x4d6;" horiz-adv-x="645" 
d="M173 365h391l-4 -19h-391zM109 19h446l-4 -19h-466l140 700h451l-4 -19h-431zM465 756q-61 0 -95.5 32t-26.5 81h18q-6 -41 22.5 -67.5t80.5 -26.5q51 0 89.5 26t49.5 68h18q-11 -51 -54 -82t-102 -31z" />
    <glyph glyph-name="uni04D7" unicode="&#x4d7;" horiz-adv-x="623" 
d="M290 -3q-71 0 -122.5 25t-78.5 72.5t-27 115.5q0 88 36 158t98.5 111t141.5 41q66 0 113 -25t72.5 -72t25.5 -113q0 -13 -1.5 -26.5t-3.5 -24.5h-466l4 19h453l-8 -11q12 76 -10 128t-68.5 79t-110.5 27q-73 0 -131.5 -38t-92 -103.5t-33.5 -149.5q0 -94 54 -144t156 -50
q59 0 108 20.5t80 56.5l12 -13q-31 -37 -84.5 -60t-116.5 -23zM373 604q-58 0 -90 32t-24 81h18q-6 -41 20.5 -67.5t75.5 -26.5q48 0 84.5 26t46.5 68h18q-11 -51 -52 -82t-97 -31z" />
    <glyph glyph-name="uni04D8" unicode="&#x4d8;" horiz-adv-x="822" 
d="M366 -3q-96 0 -165 35.5t-105.5 98t-36.5 143.5q0 20 3 40.5t7 45.5h683l-4 -19h-671l11 9q-4 -19 -6.5 -37.5t-2.5 -37.5q0 -77 35 -135.5t100 -91t154 -32.5q86 0 156.5 32t121.5 88t78.5 129t27.5 155q0 79 -33 138t-97 92.5t-157 33.5q-77 0 -138 -22t-103 -60
l-12 14q41 39 108.5 63t146.5 24q97 0 165 -35.5t104 -99t36 -148.5q0 -84 -28.5 -160t-81.5 -135.5t-128 -93.5t-168 -34z" />
    <glyph glyph-name="uni04D9" unicode="&#x4d9;" horiz-adv-x="622" 
d="M327 520q72 0 123 -25t78 -72.5t27 -115.5q0 -88 -36 -158t-98 -111t-142 -41q-65 0 -112.5 25t-73 72.5t-25.5 112.5q0 14 1.5 27t3.5 24h466l-4 -19h-453l8 11q-11 -75 10.5 -127.5t68.5 -79.5t110 -27q74 0 132 38t91.5 104t33.5 149q0 94 -54 144t-156 50
q-58 0 -107 -20.5t-81 -56.5l-12 13q32 38 85 60.5t116 22.5z" />
    <glyph glyph-name="uni04DA" unicode="&#x4da;" horiz-adv-x="822" 
d="M366 -3q-96 0 -165 35.5t-105.5 98t-36.5 143.5q0 20 3 40.5t7 45.5h683l-4 -19h-671l11 9q-4 -19 -6.5 -37.5t-2.5 -37.5q0 -77 35 -135.5t100 -91t154 -32.5q86 0 156.5 32t121.5 88t78.5 129t27.5 155q0 79 -33 138t-97 92.5t-157 33.5q-77 0 -138 -22t-103 -60
l-12 14q41 39 108.5 63t146.5 24q97 0 165 -35.5t104 -99t36 -148.5q0 -84 -28.5 -160t-81.5 -135.5t-128 -93.5t-168 -34zM603 791q-10 0 -17.5 7t-7.5 17q0 11 8 19.5t19 8.5q10 0 17.5 -7t7.5 -17q0 -11 -8 -19.5t-19 -8.5zM439 791q-10 0 -17.5 7t-7.5 17q0 11 8 19.5
t19 8.5q10 0 17.5 -7t7.5 -17q0 -11 -8 -19.5t-19 -8.5z" />
    <glyph glyph-name="uni04DB" unicode="&#x4db;" horiz-adv-x="622" 
d="M327 520q72 0 123 -25t78 -72.5t27 -115.5q0 -88 -36 -158t-98 -111t-142 -41q-65 0 -112.5 25t-73 72.5t-25.5 112.5q0 14 1.5 27t3.5 24h466l-4 -19h-453l8 11q-11 -75 10.5 -127.5t68.5 -79.5t110 -27q74 0 132 38t91.5 104t33.5 149q0 94 -54 144t-156 50
q-58 0 -107 -20.5t-81 -56.5l-12 13q32 38 85 60.5t116 22.5zM474 641q-10 0 -17.5 7t-7.5 17q0 11 8 19.5t19 8.5q10 0 17.5 -7t7.5 -17q0 -11 -8 -19.5t-19 -8.5zM310 641q-10 0 -17.5 7t-7.5 17q0 11 8 19.5t19 8.5q10 0 17.5 -7t7.5 -17q0 -11 -8 -19.5t-19 -8.5z" />
    <glyph glyph-name="uni04DC" unicode="&#x4dc;" horiz-adv-x="975" 
d="M866 0l-190 357l19 8l195 -365h-24zM507 347l3 19h189l-3 -19h-189zM692 349l-16 8l308 343h26zM6 0h-26l341 365l17 -8zM445 0h-20l140 700h20zM503 347h-189l3 19h189zM318 349l-176 351h24l172 -343zM680 791q-10 0 -17.5 7t-7.5 17q0 11 8 19.5t19 8.5q10 0 17.5 -7
t7.5 -17q0 -11 -8 -19.5t-19 -8.5zM516 791q-10 0 -17.5 7t-7.5 17q0 11 8 19.5t19 8.5q10 0 17.5 -7t7.5 -17q0 -11 -8 -19.5t-19 -8.5z" />
    <glyph glyph-name="uni04DD" unicode="&#x4dd;" horiz-adv-x="778" 
d="M676 0l-149 263l17 8l154 -271h-22zM390 254l4 18h155l-4 -18h-155zM545 257l-19 6l237 254h25zM2 0h-27l262 271l18 -8zM347 0h-20l104 517h20zM385 254h-153l4 18h153zM235 257l-140 260h22l136 -254zM552 641q-10 0 -17.5 7t-7.5 17q0 11 8 19.5t19 8.5q10 0 17.5 -7
t7.5 -17q0 -11 -8 -19.5t-19 -8.5zM388 641q-10 0 -17.5 7t-7.5 17q0 11 8 19.5t19 8.5q10 0 17.5 -7t7.5 -17q0 -11 -8 -19.5t-19 -8.5z" />
    <glyph glyph-name="uni04DE" unicode="&#x4de;" horiz-adv-x="623" 
d="M238 -3q-67 0 -129 25.5t-102 78.5l15 11q38 -49 96.5 -72t121.5 -23q51 0 99 14t87 41t62 64.5t23 84.5q0 67 -49.5 101t-142.5 34h-137l4 19h138q68 0 117.5 21.5t77 60t27.5 87.5q0 46 -24.5 77t-66 47t-94.5 16q-49 0 -105 -15.5t-111 -47.5l-7 17q57 33 115 49
t110 16q58 0 103.5 -18t72.5 -53.5t27 -86.5q0 -54 -30 -96t-84 -66t-126 -24l7 13q63 0 107 -18t67.5 -52.5t23.5 -82.5q0 -50 -25 -91t-67 -70.5t-94.5 -45t-106.5 -15.5zM501 791q-10 0 -17.5 7t-7.5 17q0 11 8 19.5t19 8.5q10 0 17.5 -7t7.5 -17q0 -11 -8 -19.5
t-19 -8.5zM337 791q-10 0 -17.5 7t-7.5 17q0 11 8 19.5t19 8.5q10 0 17.5 -7t7.5 -17q0 -11 -8 -19.5t-19 -8.5z" />
    </font>
</defs>
</svg>
