<?xml version="1.0" standalone="no"?>
<!DOCTYPE svg PUBLIC "-//W3C//DTD SVG 1.1//EN" "http://www.w3.org/Graphics/SVG/1.1/DTD/svg11.dtd" >
<svg xmlns="http://www.w3.org/2000/svg" xmlns:xlink="http://www.w3.org/1999/xlink" version="1.1">
<metadata>
Created by FontForge 20170731 at Mon Oct 25 17:33:40 2021
 By Aleksey,,,
Copyright 2011 The Montserrat Project Authors (https://github.com/JulietaUla/Montserrat)
</metadata>
<defs>
<font id="Montserrat-Italic" horiz-adv-x="0" >
  <font-face 
    font-family="Montserrat"
    font-weight="400"
    font-style="italic"
    font-stretch="normal"
    units-per-em="1000"
    panose-1="0 0 0 0 0 0 0 0 0 0"
    ascent="800"
    descent="-200"
    x-height="525"
    cap-height="700"
    bbox="-236 -262 1599 1043"
    underline-thickness="50"
    underline-position="-175"
    slope="-11.3"
    unicode-range="U+000D-FB02"
  />
<missing-glyph horiz-adv-x="587" 
d="M-13 0l140 700h507l-140 -700h-507zM81 70h347l112 560h-347z" />
    <glyph glyph-name="fi" unicode="fi" horiz-adv-x="609" 
d="M59 0l118 592q15 74 60.5 114.5t119.5 40.5q32 0 60 -9t46 -25l-32 -52q-28 26 -74 26t-73.5 -24.5t-38.5 -78.5l-16 -77l-4 -31l-95 -476h-71zM58 466l11 59h325l-12 -59h-324zM386 0l104 525h71l-104 -525h-71zM556 641q-21 0 -34.5 14t-13.5 33q0 22 15.5 38t39.5 16
q21 0 35 -13t14 -33q0 -24 -16 -39.5t-40 -15.5z" />
    <glyph glyph-name="fl" unicode="fl" horiz-adv-x="609" 
d="M59 0l118 592q15 74 60.5 114.5t119.5 40.5q32 0 60 -9t46 -25l-32 -52q-28 26 -74 26t-73.5 -24.5t-38.5 -78.5l-16 -77l-4 -31l-95 -476h-71zM58 466l11 59h325l-12 -59h-324zM386 0l148 742h71l-148 -742h-71z" />
    <glyph glyph-name=".notdef" horiz-adv-x="587" 
d="M-13 0l140 700h507l-140 -700h-507zM81 70h347l112 560h-347z" />
    <glyph glyph-name=".null" 
 />
    <glyph glyph-name="nonmarkingreturn" horiz-adv-x="333" 
 />
    <glyph glyph-name="NULL" 
 />
    <glyph glyph-name="NULL" 
 />
    <glyph glyph-name="CR" unicode="&#xd;" horiz-adv-x="262" 
 />
    <glyph glyph-name="space" unicode=" " horiz-adv-x="262" 
 />
    <glyph glyph-name="exclam" unicode="!" horiz-adv-x="260" 
d="M92 210l83 490h84l-112 -490h-55zM85 -5q-22 0 -36.5 14.5t-14.5 34.5q0 23 16 38.5t38 15.5t36.5 -14t14.5 -34q0 -15 -7.5 -27.5t-19.5 -20t-27 -7.5z" />
    <glyph glyph-name="quotedbl" unicode="&#x22;" horiz-adv-x="373" 
d="M110 436l47 264h63l-57 -264h-53zM281 436l47 264h63l-57 -264h-53z" />
    <glyph glyph-name="numbersign" unicode="#" horiz-adv-x="696" 
d="M355 0l224 700h57l-225 -700h-56zM16 190l11 55h605l-11 -55h-605zM95 0l225 700h56l-225 -700h-56zM101 455l10 55h605l-11 -55h-604z" />
    <glyph glyph-name="dollar" unicode="$" horiz-adv-x="615" 
d="M210 -120l188 940h49l-188 -940h-49zM266 -6q-51 0 -100.5 11.5t-89.5 32t-64 45.5l36 58q24 -25 59.5 -44t78.5 -29.5t86 -10.5q62 0 108.5 16t72.5 47t26 75q0 35 -20 56.5t-52 35t-71 24.5t-78 24t-71.5 32t-52 50t-19.5 78q0 66 36 113.5t99 72.5t145 25
q62 0 119.5 -15t97.5 -45l-31 -60q-38 28 -87 42.5t-103 14.5q-61 0 -107 -17t-71.5 -48.5t-25.5 -75.5q0 -35 19.5 -57t52 -36t71.5 -25.5t78 -24t71.5 -31t52.5 -48t20 -75.5q0 -67 -37 -114.5t-101.5 -72t-147.5 -24.5z" />
    <glyph glyph-name="percent" unicode="%" horiz-adv-x="829" 
d="M93 0l615 700h62l-614 -700h-63zM224 326q-62 0 -98.5 39.5t-36.5 109.5q0 61 22.5 113t64.5 84t100 32q62 0 98.5 -39.5t36.5 -109.5q0 -60 -22.5 -112.5t-64 -84.5t-100.5 -32zM228 370q44 0 73.5 27.5t44.5 69.5t15 84q0 53 -23.5 81t-65.5 28q-43 0 -73 -27.5
t-45 -69.5t-15 -84q0 -53 24 -81t65 -28zM588 -5q-62 0 -99 39.5t-37 109.5q0 61 22.5 113t65 84t100.5 32q62 0 98.5 -39.5t36.5 -109.5q0 -60 -22.5 -112.5t-64 -84.5t-100.5 -32zM592 39q44 0 73.5 27.5t44.5 69.5t15 84q0 53 -23.5 81t-65.5 28q-43 0 -73.5 -27.5
t-45.5 -69.5t-15 -84q0 -53 24 -81t66 -28z" />
    <glyph glyph-name="ampersand" unicode="&#x26;" horiz-adv-x="669" 
d="M243 -6q-66 0 -113.5 19.5t-74 55.5t-26.5 85q0 51 26 92.5t81.5 80.5t143.5 79q76 35 119 61.5t60 52t17 57.5q0 31 -24 53t-69 22q-57 0 -91.5 -31t-34.5 -82q0 -27 13.5 -56.5t41.5 -66.5l298 -381l-48 -46l-310 397q-29 38 -45 73t-16 72q0 54 25 93t69 60t100 21
q46 0 80.5 -14.5t53.5 -42.5t19 -66q0 -47 -24.5 -83.5t-76 -69.5t-133.5 -70q-76 -36 -120.5 -66.5t-64 -60.5t-19.5 -67q0 -50 38.5 -81t109.5 -31q68 0 128.5 29t110 88t83.5 148l56 -18q-39 -102 -97 -170.5t-130.5 -102t-155.5 -33.5z" />
    <glyph glyph-name="quotesingle" unicode="'" horiz-adv-x="202" 
d="M110 436l47 264h63l-57 -264h-53z" />
    <glyph glyph-name="parenleft" unicode="(" horiz-adv-x="329" 
d="M132 -194q-14 37 -24.5 81t-16 91.5t-5.5 92.5q0 92 16 184.5t45.5 180t71 165.5t92.5 141h73q-53 -66 -95 -146.5t-72.5 -168.5t-46.5 -179.5t-16 -180.5q0 -66 10.5 -129.5t31.5 -131.5h-64z" />
    <glyph glyph-name="parenright" unicode=")" horiz-adv-x="329" 
d="M-2 -194q53 67 95.5 147t72.5 168t46 179.5t16 180.5q0 66 -10 129.5t-32 131.5h64q15 -36 25 -80.5t15.5 -91.5t5.5 -93q0 -92 -16 -184.5t-45.5 -180t-70.5 -165.5t-93 -141h-73z" />
    <glyph glyph-name="asterisk" unicode="*" horiz-adv-x="386" 
d="M440 630l-156 -79l3 18l122 -78l-28 -42l-121 80l10 4l-30 -153h-47l32 153l11 -5l-150 -79l-19 41l155 79l-2 -15l-122 77l28 42l119 -79l-9 -5l29 153h47l-32 -153l-9 4l151 80z" />
    <glyph glyph-name="plus" unicode="+" horiz-adv-x="575" 
d="M231 138l85 424h63l-85 -424h-63zM81 320l12 59h436l-12 -59h-436z" />
    <glyph glyph-name="comma" unicode="," horiz-adv-x="212" 
d="M-26 -146l81 185l7 -44q-22 0 -37 15t-15 37q0 25 17 41t39 16t36.5 -14.5t14.5 -37.5q0 -13 -4.5 -24.5t-14.5 -28.5l-76 -145h-48z" />
    <glyph glyph-name="hyphen" unicode="-" horiz-adv-x="382" 
d="M56 240l12 62h262l-12 -62h-262z" />
    <glyph glyph-name="period" unicode="." horiz-adv-x="212" 
d="M62 -5q-22 0 -37 15t-15 37q0 25 17 41t39 16t36.5 -14.5t14.5 -37.5q0 -17 -7.5 -29.5t-20.5 -20t-27 -7.5z" />
    <glyph glyph-name="slash" unicode="/" horiz-adv-x="335" 
d="M-99 -100l516 942h69l-516 -942h-69z" />
    <glyph glyph-name="zero" unicode="0" horiz-adv-x="662" 
d="M287 -6q-71 0 -122 30t-78.5 87t-27.5 136q0 89 24.5 171.5t70 147.5t110 102.5t145.5 37.5q72 0 122.5 -30t78 -86.5t27.5 -136.5q0 -89 -24.5 -171.5t-70 -147.5t-110 -102.5t-145.5 -37.5zM293 60q65 0 115.5 35t85 93t52.5 127t18 137q0 91 -42.5 139.5t-118.5 48.5
q-65 0 -115.5 -35t-85 -93t-52.5 -127t-18 -137q0 -91 42.5 -139.5t118.5 -48.5z" />
    <glyph glyph-name="one" unicode="1" horiz-adv-x="361" 
d="M121 0l133 667l26 -31h-197l13 64h238l-140 -700h-73z" />
    <glyph glyph-name="two" unicode="2" horiz-adv-x="568" 
d="M-14 0l11 51l350 284q51 40 79 72.5t39.5 61.5t11.5 60q0 52 -36.5 82.5t-114.5 30.5q-55 0 -105.5 -21t-87.5 -59l-50 43q43 47 109.5 74t143.5 27q70 0 118 -21.5t72.5 -59t24.5 -87.5q0 -39 -14 -77.5t-47.5 -79t-92.5 -88.5l-322 -259l-19 30h435l-13 -64h-492z" />
    <glyph glyph-name="three" unicode="3" horiz-adv-x="564" 
d="M218 -6q-80 0 -143.5 25t-96.5 66l40 56q27 -35 80 -58t124 -23q66 0 112.5 19.5t71.5 55.5t25 84q0 60 -41.5 90.5t-127.5 30.5h-45l11 53l267 270l9 -27h-391l13 64h449l-10 -51l-268 -271l-34 23h17q73 0 123 -21.5t76 -61t26 -95.5q0 -67 -36 -119t-100.5 -81
t-150.5 -29z" />
    <glyph glyph-name="four" unicode="4" horiz-adv-x="661" 
d="M25 184l10 52l458 464h85l-456 -464l-42 12h564l-12 -64h-607zM382 0l37 184l15 64l33 162h69l-82 -410h-72z" />
    <glyph glyph-name="five" unicode="5" horiz-adv-x="566" 
d="M232 -6q-80 0 -143.5 25t-96.5 66l41 56q27 -35 80 -58t124 -23q99 0 154 43.5t55 118.5q0 59 -45 93t-150 34h-162l106 351h382l-13 -64h-354l48 35l-91 -294l-32 36h128q133 0 194.5 -49.5t61.5 -133.5q0 -72 -35.5 -125t-100 -82t-151.5 -29z" />
    <glyph glyph-name="six" unicode="6" horiz-adv-x="609" 
d="M317 -6q-75 0 -133.5 31t-91 92.5t-32.5 153.5q0 59 13 120.5t41.5 118t73.5 101t109 70t148 25.5q49 0 93 -9t75 -30l-34 -58q-28 19 -64 26.5t-74 7.5q-65 0 -114.5 -20.5t-85 -55t-58.5 -79t-34.5 -94t-12.5 -98.5q-1 -24 -1 -36.5v-22.5l-30 7q17 64 53 102.5
t85 55.5t102 17q63 0 113.5 -23t81 -67t30.5 -107q0 -70 -32.5 -121.5t-89.5 -79t-131 -27.5zM316 55q81 0 131 43t50 119q0 69 -47 105t-120 36q-56 0 -98.5 -21t-66 -57t-23.5 -81q0 -35 19.5 -68.5t58.5 -54.5t96 -21z" />
    <glyph glyph-name="seven" unicode="7" horiz-adv-x="589" 
d="M122 0l433 668l19 -32h-433l44 35l-33 -166h-71l38 195h515l-10 -51l-420 -649h-82z" />
    <glyph glyph-name="eight" unicode="8" horiz-adv-x="638" 
d="M291 -6q-79 0 -137 22.5t-89 64t-31 98.5q0 64 33.5 110.5t97 72t152.5 25.5q82 0 140 -21.5t88.5 -62t30.5 -95.5q0 -66 -35.5 -114t-99.5 -74t-150 -26zM294 55q97 0 153 41t56 111q0 60 -50 94.5t-138 34.5q-97 0 -152.5 -41t-55.5 -111q0 -60 49.5 -94.5t137.5 -34.5
zM361 344q-76 0 -129 20t-80 57t-27 87q0 61 32 105.5t90 68.5t135 24q71 0 124 -20.5t82.5 -58.5t29.5 -91q0 -59 -30.5 -102t-88 -66.5t-138.5 -23.5zM362 393q85 0 134 37t49 97q0 55 -45 86.5t-121 31.5q-82 0 -131.5 -36.5t-49.5 -99.5q0 -53 43 -84.5t121 -31.5z" />
    <glyph glyph-name="nine" unicode="9" horiz-adv-x="609" 
d="M327 706q76 0 134 -31t90.5 -92t32.5 -154q0 -59 -13 -120.5t-41.5 -118t-73.5 -101t-109 -70t-149 -25.5q-48 0 -91.5 9t-75.5 30l34 58q29 -19 64 -26.5t74 -7.5q65 0 114.5 20.5t85 55t58.5 79t34.5 94t12.5 98.5q1 24 1 36.5v22.5l30 -7q-16 -63 -52.5 -102
t-85.5 -56t-102 -17q-62 0 -113.5 23t-81.5 67t-30 107q0 71 32.5 122t89.5 78.5t131 27.5zM328 645q-81 0 -131 -43t-50 -119q0 -68 46.5 -104.5t120.5 -36.5q56 0 98.5 21t66 57.5t23.5 80.5q0 36 -20 69t-58 54t-96 21z" />
    <glyph glyph-name="colon" unicode=":" horiz-adv-x="212" 
d="M147 421q-22 0 -37 15t-15 37q0 25 17 41t39 16t36.5 -14.5t14.5 -37.5q0 -17 -7.5 -29.5t-20.5 -20t-27 -7.5zM62 -5q-22 0 -37 15t-15 37q0 25 17 41t39 16t36.5 -14.5t14.5 -37.5q0 -17 -7.5 -29.5t-20.5 -20t-27 -7.5z" />
    <glyph glyph-name="semicolon" unicode=";" horiz-adv-x="212" 
d="M147 421q-22 0 -37 15t-15 37q0 25 17 41t39 16t36.5 -14.5t14.5 -37.5q0 -17 -7.5 -29.5t-20.5 -20t-27 -7.5zM-26 -146l81 185l7 -44q-22 0 -37 15t-15 37q0 25 17 41t39 16t36.5 -14.5t14.5 -37.5q0 -13 -4.5 -24.5t-14.5 -28.5l-76 -145h-48z" />
    <glyph glyph-name="less" unicode="&#x3c;" horiz-adv-x="575" 
d="M563 557l-14 -66l-441 -161l6 33l379 -161l-12 -59l-401 174l13 66z" />
    <glyph glyph-name="equal" unicode="=" horiz-adv-x="575" 
d="M105 435l12 59h435l-13 -59h-434zM59 205l12 59h435l-12 -59h-435z" />
    <glyph glyph-name="greater" unicode="&#x3e;" horiz-adv-x="575" 
d="M47 143l14 66l440 161l-7 -33l-376 161l12 59l399 -174l-13 -66z" />
    <glyph glyph-name="question" unicode="?" horiz-adv-x="567" 
d="M225 210q8 45 29 76.5t49 55t57.5 44t54.5 41.5t40.5 48t15.5 65q0 49 -36.5 76t-105.5 27q-66 0 -115.5 -20.5t-87.5 -60.5l-47 43q44 49 109.5 75t150.5 26q64 0 110 -18.5t71 -53t25 -83.5q0 -47 -15.5 -80.5t-40.5 -57.5t-54 -45t-57 -42.5t-49.5 -49t-30.5 -66.5
h-73zM227 -5q-21 0 -35.5 14.5t-14.5 34.5q0 23 16 38.5t38 15.5q21 0 35.5 -14t14.5 -34q0 -15 -7 -27.5t-19.5 -20t-27.5 -7.5z" />
    <glyph glyph-name="at" unicode="@" horiz-adv-x="1033" 
d="M439 -200q-124 0 -213 47t-136.5 131t-47.5 194q0 109 38 206t109 170.5t171 115.5t224 42q130 0 220.5 -45.5t137.5 -127t47 -190.5q0 -69 -16.5 -131.5t-46 -111t-69 -77t-85.5 -28.5q-55 0 -83 32t-16 86l15 72l24 64l7 105l31 153h65l-76 -380q-8 -40 6 -57.5
t43 -17.5q32 0 59 25t47.5 67t32 93t11.5 105q0 94 -40.5 164.5t-120.5 109.5t-199 39q-109 0 -197.5 -37.5t-151.5 -103.5t-97 -153.5t-34 -185.5q0 -96 39.5 -169t117 -114t189.5 -41q54 0 104 11t91 32l11 -50q-43 -21 -98.5 -32.5t-112.5 -11.5zM468 -5q-64 0 -113.5 26
t-77 74t-27.5 113q0 64 21 119t59 96.5t90 64.5t115 23q101 0 155 -54.5t55 -154.5q1 -85 -32 -154.5t-95 -111t-150 -41.5zM482 53q65 0 115 32t79 86.5t29 123.5q0 76 -45 117t-124 41q-63 0 -113 -31t-78.5 -85.5t-28.5 -124.5q0 -76 44 -117.5t122 -41.5z" />
    <glyph glyph-name="A" unicode="A" horiz-adv-x="717" 
d="M-50 0l460 700h73l180 -700h-74l-164 659h30l-425 -659h-80zM113 187l34 60h407l11 -60h-452z" />
    <glyph glyph-name="B" unicode="B" horiz-adv-x="754" 
d="M62 0l140 700h299q101 0 158 -38t57 -111q0 -68 -33 -113.5t-86.5 -68.5t-115.5 -23l22 23q84 0 133.5 -38.5t49.5 -113.5q0 -70 -36.5 -119t-103.5 -73.5t-159 -24.5h-325zM147 61h246q105 0 162.5 40t57.5 115q0 60 -41.5 84t-121.5 24h-263l12 61h236q60 0 106.5 17
t72.5 51.5t26 84.5q0 52 -40 76.5t-113 24.5h-225z" />
    <glyph glyph-name="C" unicode="C" horiz-adv-x="719" 
d="M391 -6q-104 0 -177 36.5t-111.5 102t-38.5 152.5q0 86 29.5 162t85 134.5t134 91.5t177.5 33q84 0 149 -26t100 -76l-52 -46q-33 41 -83 61.5t-120 20.5q-79 0 -143.5 -27.5t-109.5 -76.5t-69.5 -112.5t-24.5 -135.5q0 -67 29.5 -118.5t87.5 -80.5t142 -29q69 0 125 21
t98 62l43 -49q-46 -49 -117 -74.5t-154 -25.5z" />
    <glyph glyph-name="D" unicode="D" horiz-adv-x="826" 
d="M62 0l140 700h266q106 0 179.5 -35.5t112 -99t38.5 -150.5q0 -92 -30.5 -168.5t-88 -131.5t-137.5 -85t-179 -30h-301zM148 64h217q111 0 191.5 45t124 123.5t43.5 179.5q0 67 -29 117.5t-87.5 78.5t-147.5 28h-198z" />
    <glyph glyph-name="E" unicode="E" horiz-adv-x="669" 
d="M205 387h370l-12 -63h-370zM148 64h421l-13 -64h-494l140 700h480l-13 -64h-407z" />
    <glyph glyph-name="F" unicode="F" horiz-adv-x="633" 
d="M200 361h370l-13 -64h-371zM135 0h-73l140 700h480l-13 -64h-407z" />
    <glyph glyph-name="G" unicode="G" horiz-adv-x="773" 
d="M391 -6q-103 0 -176 36.5t-112 102t-39 152.5q0 86 29.5 162t85 134.5t134.5 91.5t178 33q88 0 154.5 -26.5t105.5 -75.5l-52 -45q-36 42 -88.5 61.5t-122.5 19.5q-81 0 -145.5 -27.5t-110 -75.5t-70.5 -112t-25 -137q0 -67 29.5 -118.5t88 -80.5t144.5 -29
q63 0 115.5 21t97.5 60l30 -60q-48 -40 -113.5 -63.5t-137.5 -23.5zM574 92l51 258h71l-54 -269z" />
    <glyph glyph-name="H" unicode="H" horiz-adv-x="813" 
d="M713 700h73l-140 -700h-73zM135 0h-73l140 700h73zM645 323h-452l12 65h453z" />
    <glyph glyph-name="I" unicode="I" horiz-adv-x="302" 
d="M62 0l140 700h73l-140 -700h-73z" />
    <glyph glyph-name="J" unicode="J" horiz-adv-x="501" 
d="M154 -6q-68 0 -117.5 27t-73.5 74l52 47q19 -39 55.5 -61.5t85.5 -22.5q61 0 99.5 34.5t54.5 116.5l85 427h-255l13 64h327l-98 -491q-15 -79 -45.5 -126t-76 -68t-106.5 -21z" />
    <glyph glyph-name="K" unicode="K" horiz-adv-x="711" 
d="M163 176l11 91l505 433h97l-378 -325l-44 -36zM62 0l140 700h73l-140 -700h-73zM570 0l-238 348l50 49l271 -397h-83z" />
    <glyph glyph-name="L" unicode="L" horiz-adv-x="589" 
d="M62 0l140 700h73l-127 -636h392l-13 -64h-465z" />
    <glyph glyph-name="M" unicode="M" horiz-adv-x="955" 
d="M62 0l140 700h60l213 -547l-31 1l420 546h65l-140 -700h-71l118 591l19 -2l-388 -500h-35l-198 503l16 -3l-117 -589h-71z" />
    <glyph glyph-name="N" unicode="N" horiz-adv-x="813" 
d="M62 0l140 700h60l353 -611l-23 4l121 607h73l-140 -700h-60l-353 611l23 -4l-121 -607h-73z" />
    <glyph glyph-name="O" unicode="O" horiz-adv-x="839" 
d="M388 -6q-103 0 -176 36.5t-110.5 102t-37.5 152.5q0 86 29 162t84.5 134.5t133.5 91.5t175 33q104 0 176.5 -36.5t110 -102t37.5 -152.5q0 -86 -29 -162t-84.5 -134.5t-133.5 -91.5t-175 -33zM395 60q78 0 141 27.5t108 76.5t69 112.5t24 135.5q0 68 -29.5 119t-86.5 80
t-142 29q-78 0 -141 -27.5t-107.5 -76.5t-69 -112.5t-24.5 -135.5q0 -67 29.5 -118.5t86.5 -80.5t142 -29z" />
    <glyph glyph-name="P" unicode="P" horiz-adv-x="718" 
d="M62 0l140 700h251q119 0 184.5 -52t65.5 -146q0 -90 -39.5 -152.5t-112.5 -95.5t-173 -33h-231l40 35l-52 -256h-73zM185 250l-26 36h220q119 0 184.5 53t65.5 156q0 69 -47 105t-135 36h-216l39 37z" />
    <glyph glyph-name="Q" unicode="Q" horiz-adv-x="839" 
d="M388 -6q-103 0 -176 36.5t-110.5 102t-37.5 152.5q0 86 29 162t84.5 134.5t133.5 91.5t175 33q104 0 176.5 -36.5t110 -102t37.5 -152.5q0 -86 -29 -162t-84.5 -134.5t-133.5 -91.5t-175 -33zM588 -139q-75 0 -135 39t-106 110l83 18q32 -55 71 -81.5t89 -26.5
q39 0 73.5 16t61.5 45l32 -45q-31 -38 -75.5 -56.5t-93.5 -18.5zM395 60q78 0 141 27.5t108 76.5t69 112.5t24 135.5q0 68 -29.5 119t-86.5 80t-142 29q-78 0 -141 -27.5t-107.5 -76.5t-69 -112.5t-24.5 -135.5q0 -67 29.5 -118.5t86.5 -80.5t142 -29z" />
    <glyph glyph-name="R" unicode="R" horiz-adv-x="723" 
d="M62 0l140 700h252q119 0 184.5 -52t65.5 -146q0 -89 -39.5 -151.5t-112.5 -95.5t-173 -33h-231l39 34l-51 -256h-74zM541 0l-143 254h79l144 -254h-80zM185 250l-25 36h220q119 0 184.5 53t65.5 156q0 69 -47 105t-134 36h-217l38 36z" />
    <glyph glyph-name="S" unicode="S" horiz-adv-x="615" 
d="M266 -6q-51 0 -100.5 11.5t-89.5 32t-64 45.5l36 58q24 -25 59.5 -44t78.5 -29.5t86 -10.5q62 0 108.5 16t72.5 47t26 75q0 35 -20 56.5t-52 35t-71 24.5t-78 24t-71.5 32t-52 50t-19.5 78q0 66 36 113.5t99 72.5t145 25q62 0 119.5 -15t97.5 -45l-31 -60
q-38 28 -87 42.5t-103 14.5q-61 0 -107 -17t-71.5 -48.5t-25.5 -75.5q0 -35 19.5 -57t52 -36t71.5 -25.5t78 -24t71.5 -31t52.5 -48t20 -75.5q0 -67 -37 -114.5t-101.5 -72t-147.5 -24.5z" />
    <glyph glyph-name="T" unicode="T" horiz-adv-x="574" 
d="M198 0l127 636h-247l13 64h566l-13 -64h-246l-127 -636h-73z" />
    <glyph glyph-name="U" unicode="U" horiz-adv-x="792" 
d="M359 -6q-96 0 -156.5 39t-82.5 108t-4 157l80 402h73l-80 -402q-11 -52 -6 -96t26.5 -76t60.5 -49t96 -17q72 0 122 26.5t81.5 78.5t47.5 128l81 407h72l-82 -412q-28 -144 -110.5 -219t-218.5 -75z" />
    <glyph glyph-name="V" unicode="V" horiz-adv-x="698" 
d="M261 0l-171 700h76l159 -658h-45l425 658h78l-450 -700h-72z" />
    <glyph glyph-name="W" unicode="W" horiz-adv-x="1111" 
d="M219 0l-96 700h73l90 -658h-37l359 658h69l92 -658h-36l356 658h74l-376 -700h-78l-90 623l21 1l-343 -624h-78z" />
    <glyph glyph-name="X" unicode="X" horiz-adv-x="656" 
d="M-35 0l359 382l-4 -41l-198 359h78l170 -309l-33 4l287 305h84l-335 -358l2 40l210 -382h-78l-180 329l31 -2l-305 -327h-88z" />
    <glyph glyph-name="Y" unicode="Y" horiz-adv-x="635" 
d="M228 0l52 262l8 -50l-200 488h74l175 -426l-40 -1l345 427h79l-393 -489l25 51l-52 -262h-73z" />
    <glyph glyph-name="Z" unicode="Z" horiz-adv-x="651" 
d="M-8 0l10 51l604 613l6 -28h-485l13 64h555l-10 -51l-605 -613l-5 28h504l-13 -64h-574z" />
    <glyph glyph-name="bracketleft" unicode="[" horiz-adv-x="319" 
d="M22 -194l187 936h183l-12 -60h-112l-162 -816h111l-12 -60h-183z" />
    <glyph glyph-name="backslash" unicode="\" horiz-adv-x="335" 
d="M287 -100h-62l-145 942h62z" />
    <glyph glyph-name="bracketright" unicode="]" horiz-adv-x="318" 
d="M114 -194h-183l12 60h112l162 816h-112l12 60h184z" />
    <glyph glyph-name="asciicircum" unicode="^" horiz-adv-x="576" 
d="M60 143l257 414h60l92 -414h-56l-83 389h31l-240 -389h-61z" />
    <glyph glyph-name="underscore" unicode="_" horiz-adv-x="500" 
d="M-62 -48l10 48h500l-10 -48h-500z" />
    <glyph glyph-name="grave" unicode="`" horiz-adv-x="600" 
d="M363 607l-137 124h94l114 -124h-71z" />
    <glyph glyph-name="a" unicode="a" horiz-adv-x="678" 
d="M271 -5q-67 0 -119 27t-81 77t-29 119q0 67 22 124t62 99.5t94.5 65.5t118.5 23q69 0 117 -24.5t74 -71t26 -112.5q0 -95 -35 -169t-99 -116t-151 -42zM286 58q66 0 117.5 31.5t81 87.5t29.5 127q0 78 -45.5 121t-127.5 43q-65 0 -117 -32t-81.5 -87.5t-29.5 -127.5
q0 -77 45.5 -120t127.5 -43zM459 0l30 151l30 106l10 110l32 158h71l-105 -525h-68z" />
    <glyph glyph-name="b" unicode="b" horiz-adv-x="678" 
d="M47 0l148 742h71l-74 -369l-32 -104l-12 -102l-33 -167h-68zM339 -5q-68 0 -116.5 24.5t-74 71t-26.5 112.5q0 72 20 132t57.5 103.5t90 67.5t117.5 24q68 0 119.5 -26.5t81 -76.5t29.5 -119q0 -68 -22 -125t-62.5 -99t-94.5 -65.5t-119 -23.5zM338 58q66 0 117 31.5
t80.5 87.5t29.5 127q0 78 -45 121t-128 43q-65 0 -116.5 -32t-81 -87.5t-29.5 -127.5q0 -77 45 -120t128 -43z" />
    <glyph glyph-name="c" unicode="c" horiz-adv-x="563" 
d="M285 -5q-75 0 -129.5 27.5t-84 77.5t-29.5 118q0 90 39 160.5t108.5 111t158.5 40.5q73 0 125.5 -26.5t81.5 -78.5l-60 -35q-22 40 -60.5 59t-92.5 19q-66 0 -118 -32t-81.5 -87.5t-29.5 -127.5q0 -77 45.5 -120t129.5 -43q51 0 94.5 19.5t71.5 56.5l51 -39
q-34 -47 -93 -73.5t-127 -26.5z" />
    <glyph glyph-name="d" unicode="d" horiz-adv-x="678" 
d="M271 -5q-67 0 -119 27t-81 77t-29 119q0 67 22 124t62 99.5t94.5 65.5t118.5 23q69 0 117 -24.5t74 -71t26 -112.5q0 -71 -19.5 -131t-57.5 -104t-90.5 -68t-117.5 -24zM286 58q66 0 117.5 31.5t81 87.5t29.5 127q0 78 -45.5 121t-127.5 43q-65 0 -117 -32t-81.5 -87.5
t-29.5 -127.5q0 -77 45.5 -120t127.5 -43zM459 0l30 151l30 106l10 110l75 375h71l-148 -742h-68z" />
    <glyph glyph-name="e" unicode="e" horiz-adv-x="604" 
d="M287 -5q-75 0 -130.5 27.5t-85 77.5t-29.5 119q0 90 38 160t104 110.5t149 40.5q70 0 121 -26.5t79.5 -76.5t28.5 -120q0 -16 -2 -32.5t-5 -31.5h-461l9 53h419l-29 -20q10 63 -9 106t-58.5 65.5t-94.5 22.5q-64 0 -114 -31.5t-78 -87t-28 -129.5q0 -79 45.5 -121.5
t136.5 -42.5q53 0 98 17.5t74 48.5l32 -51q-37 -37 -92.5 -57.5t-117.5 -20.5z" />
    <glyph glyph-name="f" unicode="f" horiz-adv-x="339" 
d="M59 0l118 592q15 74 60.5 114.5t119.5 40.5q32 0 60 -9t46 -25l-32 -52q-28 26 -74 26t-73.5 -24.5t-38.5 -78.5l-16 -77l-4 -31l-95 -476h-71zM58 466l11 59h325l-12 -59h-324z" />
    <glyph glyph-name="g" unicode="g" horiz-adv-x="685" 
d="M241 -199q-73 0 -133 20.5t-101 58.5l42 54q32 -32 83.5 -51t113.5 -19q100 0 155 46t73 142l28 138l27 86l11 90l31 159h68l-92 -461q-27 -139 -102 -201t-204 -62zM276 20q-69 0 -121.5 26t-81.5 73.5t-29 112.5q0 64 22 118t62 94.5t95 63t121 22.5q63 0 112 -22
t77.5 -66t28.5 -112q1 -86 -34 -156.5t-99 -112t-153 -41.5zM290 83q66 0 117.5 30t81.5 82.5t30 119.5q0 72 -46 112.5t-128 40.5q-66 0 -118 -30t-81.5 -82.5t-29.5 -119.5q0 -72 46 -112.5t128 -40.5z" />
    <glyph glyph-name="h" unicode="h" horiz-adv-x="676" 
d="M408 530q71 0 116.5 -27.5t63 -79.5t2.5 -124l-60 -299h-71l60 300q16 78 -16.5 122t-114.5 44q-84 0 -139.5 -46t-74.5 -138l-56 -282h-71l148 742h71l-74 -368l-18 26q38 68 98.5 99t135.5 31z" />
    <glyph glyph-name="i" unicode="i" horiz-adv-x="269" 
d="M47 0l104 525h71l-104 -525h-71zM217 641q-21 0 -34.5 14t-13.5 33q0 22 15.5 38t39.5 16q21 0 35 -13t14 -33q0 -24 -16 -39.5t-40 -15.5z" />
    <glyph glyph-name="j" unicode="j" horiz-adv-x="274" 
d="M-63 -199q-34 0 -62.5 8.5t-48.5 24.5l33 55q31 -27 79 -27q43 0 68.5 23.5t36.5 76.5l113 563h71l-113 -565q-32 -159 -177 -159zM221 641q-21 0 -34.5 14t-13.5 33q0 22 15.5 38t39.5 16q21 0 35 -13t14 -33q0 -24 -16 -39.5t-40 -15.5z" />
    <glyph glyph-name="k" unicode="k" horiz-adv-x="590" 
d="M132 140l14 87l382 298h101l-287 -223l-39 -30zM47 0l148 742h71l-148 -742h-71zM457 0l-166 273l49 53l200 -326h-83z" />
    <glyph glyph-name="l" unicode="l" horiz-adv-x="269" 
d="M47 0l148 742h71l-148 -742h-71z" />
    <glyph glyph-name="m" unicode="m" horiz-adv-x="1061" 
d="M795 530q71 0 115.5 -27.5t61.5 -79.5t2 -124l-60 -299h-71l60 300q16 78 -14.5 122t-110.5 44q-79 0 -132.5 -44t-71.5 -132l-58 -290h-71l60 300q16 78 -15 122t-110 44q-81 0 -134 -46t-72 -138l-56 -282h-71l104 525h68l-30 -151l-15 26q38 68 96 99t131 31
q55 0 94.5 -18.5t62 -54t24.5 -84.5l-37 8q39 75 103.5 112t146.5 37z" />
    <glyph glyph-name="n" unicode="n" horiz-adv-x="676" 
d="M408 530q71 0 116.5 -27.5t63 -79.5t2.5 -124l-60 -299h-71l60 300q16 78 -16.5 122t-114.5 44q-84 0 -139.5 -46t-74.5 -138l-56 -282h-71l104 525h68l-30 -151l-15 26q38 68 98.5 99t135.5 31z" />
    <glyph glyph-name="o" unicode="o" horiz-adv-x="627" 
d="M281 -5q-73 0 -126.5 27.5t-83 77.5t-29.5 118q0 90 39 160.5t108 111t157 40.5q73 0 126.5 -27t83 -77t29.5 -118q0 -90 -39 -160.5t-107.5 -111.5t-157.5 -41zM286 58q66 0 117.5 31.5t81 87.5t29.5 127q0 78 -45.5 121t-127.5 43q-65 0 -117 -32t-81.5 -87.5
t-29.5 -127.5q0 -77 45.5 -120t127.5 -43z" />
    <glyph glyph-name="p" unicode="p" horiz-adv-x="678" 
d="M339 -5q-68 0 -116.5 24.5t-74 71t-26.5 112.5q0 97 35 170.5t99 115t151 41.5q68 0 119.5 -26.5t81 -76.5t29.5 -119q0 -68 -22 -125t-62.5 -99t-94.5 -65.5t-119 -23.5zM8 -194l143 719h68l-30 -151l-29 -105l-11 -110l-70 -353h-71zM338 58q66 0 117 31.5t80.5 87.5
t29.5 127q0 78 -45 121t-128 43q-65 0 -116.5 -32t-81 -87.5t-29.5 -127.5q0 -77 45 -120t128 -43z" />
    <glyph glyph-name="q" unicode="q" horiz-adv-x="678" 
d="M271 -5q-67 0 -119 27t-81 77t-29 119q0 67 22 124t62 99.5t94.5 65.5t118.5 23q69 0 117 -24.5t74 -71t26 -112.5q0 -95 -35 -169t-99 -116t-151 -42zM286 58q66 0 117.5 31.5t81 87.5t29.5 127q0 78 -45.5 121t-127.5 43q-65 0 -117 -32t-81.5 -87.5t-29.5 -127.5
q0 -77 45.5 -120t127.5 -43zM417 -194l69 346l33 105l11 101l34 167h68l-144 -719h-71z" />
    <glyph glyph-name="r" unicode="r" horiz-adv-x="401" 
d="M47 0l104 525h68l-30 -155l-8 27q35 69 92.5 101t143.5 32l-13 -69q-5 0 -9.5 0.5t-10.5 0.5q-84 0 -138.5 -48.5t-74.5 -146.5l-53 -267h-71z" />
    <glyph glyph-name="s" unicode="s" horiz-adv-x="488" 
d="M200 -5q-64 0 -121 18t-88 46l34 56q30 -27 79 -42.5t103 -15.5q75 0 115.5 25t40.5 69q0 30 -21.5 45.5t-55.5 24t-72 16.5t-72 20.5t-55.5 38.5t-21.5 70q0 50 28.5 87t79.5 57t120 20q50 0 99 -13t79 -36l-30 -57q-31 24 -72 34.5t-82 10.5q-73 0 -112.5 -26.5
t-39.5 -69.5q0 -30 21.5 -46t55.5 -25t72.5 -16.5t72 -20.5t55 -37.5t21.5 -68.5q0 -52 -29 -88.5t-81.5 -56t-122.5 -19.5z" />
    <glyph glyph-name="t" unicode="t" horiz-adv-x="406" 
d="M214 -5q-45 0 -77 19.5t-44.5 55.5t-2.5 86l96 485h71l-96 -482q-10 -49 7.5 -76t64.5 -27q22 0 43 6.5t38 20.5l17 -54q-25 -19 -56 -26.5t-61 -7.5zM58 466l11 59h325l-12 -59h-324z" />
    <glyph glyph-name="u" unicode="u" horiz-adv-x="672" 
d="M267 -5q-69 0 -114.5 28t-62.5 80t-4 123l60 299h71l-60 -299q-15 -78 17 -122.5t112 -44.5q83 0 138.5 46t74.5 138l56 282h71l-105 -525h-68l30 151l15 -25q-37 -68 -97.5 -99.5t-133.5 -31.5z" />
    <glyph glyph-name="v" unicode="v" horiz-adv-x="542" 
d="M183 0l-130 525h71l118 -487h-34l312 487h74l-339 -525h-72z" />
    <glyph glyph-name="w" unicode="w" horiz-adv-x="879" 
d="M160 0l-103 525h65l93 -487h-32l278 487h60l96 -487h-32l274 487h69l-297 -525h-69l-94 458h22l-262 -458h-68z" />
    <glyph glyph-name="x" unicode="x" horiz-adv-x="534" 
d="M-35 0l283 290l-8 -35l-156 270h75l130 -227l-32 1l218 226h82l-269 -277l6 40l167 -288h-76l-137 240h32l-231 -240h-84z" />
    <glyph glyph-name="y" unicode="y" horiz-adv-x="542" 
d="M20 -199q-37 0 -71 12.5t-54 34.5l38 52q17 -18 40 -28t52 -10q34 0 62.5 18.5t59.5 66.5l53 81l9 10l312 487h73l-384 -593q-33 -50 -62 -78.5t-59.5 -40.5t-68.5 -12zM188 -15l-135 540h72l118 -482z" />
    <glyph glyph-name="z" unicode="z" horiz-adv-x="511" 
d="M-11 0l9 47l434 443l16 -24h-359l12 59h415l-10 -46l-433 -444l-19 24h375l-12 -59h-428z" />
    <glyph glyph-name="braceleft" unicode="{" horiz-adv-x="335" 
d="M184 -194q-40 0 -67.5 16t-38.5 47.5t-2 77.5l49 246q5 27 -4 39t-30 12h-35l12 60h35q23 0 36 12t18 39l53 262q13 63 51 94t110 31h37l-12 -60h-26q-40 0 -61.5 -19.5t-28.5 -52.5l-51 -254q-6 -30 -16 -47.5t-26 -26.5t-42 -13l2 9q30 -5 43.5 -25.5t5.5 -60.5
l-48 -238q-9 -46 8 -67t50 -21h27l-12 -60h-37z" />
    <glyph glyph-name="bar" unicode="|" horiz-adv-x="294" 
d="M23 -194l187 936h66l-187 -936h-66z" />
    <glyph glyph-name="braceright" unicode="}" horiz-adv-x="335" 
d="M-70 -194l12 60h27q41 0 62 19.5t28 52.5l51 254q7 31 16.5 48.5t26 26.5t41.5 12l-2 -9q-30 5 -43.5 25.5t-5.5 60.5l48 238q9 46 -8 67t-50 21h-27l11 60h38q40 0 67.5 -16t38.5 -47.5t2 -77.5l-50 -246q-5 -27 4.5 -39t29.5 -12h35l-11 -60h-35q-23 0 -36 -12t-18 -39
l-53 -262q-13 -63 -51 -94t-110 -31h-38z" />
    <glyph glyph-name="asciitilde" unicode="~" horiz-adv-x="575" 
d="M401 272q-38 0 -63 15.5t-43.5 35.5t-37.5 35t-46 15q-37 0 -62.5 -25.5t-34.5 -69.5h-49q9 50 30 83.5t51 50.5t63 17q39 0 63.5 -15.5t43 -35.5t37.5 -35.5t46 -15.5q37 0 62.5 26.5t34.5 69.5h49q-9 -49 -30 -83t-50.5 -51t-63.5 -17z" />
    <glyph glyph-name="uni00A0" unicode="&#xa0;" horiz-adv-x="262" 
 />
    <glyph glyph-name="exclamdown" unicode="&#xa1;" horiz-adv-x="260" 
d="M4 -154l109 469h54l-79 -469h-84zM171 427q-21 0 -36 14.5t-15 33.5q0 16 7.5 28t20 19.5t27.5 7.5q22 0 36 -14t14 -35q0 -22 -15.5 -38t-38.5 -16z" />
    <glyph glyph-name="cent" unicode="&#xa2;" horiz-adv-x="563" 
d="M285 -5q-75 0 -129.5 27.5t-84 77.5t-29.5 118q0 90 39 160.5t108.5 111t158.5 40.5q73 0 125.5 -26.5t81.5 -78.5l-60 -35q-22 40 -60.5 59t-92.5 19q-66 0 -118 -32t-81.5 -87.5t-29.5 -127.5q0 -77 45.5 -120t129.5 -43q51 0 94.5 19.5t71.5 56.5l51 -39
q-34 -47 -93 -73.5t-127 -26.5zM209 -120l152 765h49l-152 -765h-49z" />
    <glyph glyph-name="sterling" unicode="&#xa3;" horiz-adv-x="637" 
d="M93 13l89 446q17 86 61.5 140.5t109.5 80.5t143 26q61 0 113 -13.5t86 -42.5l-35 -58q-32 26 -74.5 37t-93.5 11q-98 0 -158 -44.5t-80 -143.5l-88 -439h-73zM-23 0l13 64h577l-13 -64h-577zM41 325l11 50h463l-10 -50h-464z" />
    <glyph glyph-name="currency" unicode="&#xa4;" horiz-adv-x="700" 
d="M161 473l-117 117l42 45l117 -117zM559 473l-42 45l118 117l42 -45zM635 0l-118 117l42 45l118 -117zM86 0l-42 45l117 117l42 -45zM360 52q-56 0 -105.5 21t-87 57.5t-59 84.5t-21.5 103t21.5 103.5t59 85.5t87 58t105.5 21q58 0 107.5 -21t87.5 -58t59.5 -85.5
t21.5 -103.5t-21.5 -103t-59.5 -84.5t-87.5 -57.5t-107.5 -21zM360 112q60 0 109 28t79 74.5t30 103.5t-30 104t-79 75.5t-109 28.5q-58 0 -107 -28.5t-78 -75.5t-29 -104t29 -103.5t78 -74.5t107 -28z" />
    <glyph glyph-name="yen" unicode="&#xa5;" horiz-adv-x="695" 
d="M258 0l61 305l9 -43l-240 438h76l213 -393h-41l367 393h78l-414 -445l26 50l-61 -305h-74zM63 130l10 44h513l-9 -44h-514zM91 268l10 44h513l-9 -44h-514z" />
    <glyph glyph-name="brokenbar" unicode="&#xa6;" horiz-adv-x="294" 
d="M140 392l70 350h66l-70 -350h-66zM23 -194l70 350h66l-70 -350h-66z" />
    <glyph glyph-name="section" unicode="&#xa7;" horiz-adv-x="490" 
d="M321 148l-49 36q61 10 94 41t33 74q0 34 -20.5 52t-52.5 29t-68.5 20.5t-68 24t-52 40.5t-20.5 71q0 50 29.5 88t83 59.5t123.5 21.5q33 0 67.5 -6t64.5 -17t50 -28l-31 -53q-30 23 -71.5 34.5t-84.5 11.5q-80 0 -123.5 -31.5t-43.5 -75.5q0 -33 20 -50.5t52.5 -27.5
t68 -19.5t67.5 -24.5t52.5 -41t20.5 -72q0 -58 -40 -99.5t-101 -57.5zM158 -105q-58 0 -107.5 18t-81.5 48l32 53q32 -29 72.5 -45t93.5 -16q75 0 117 31.5t42 76.5q0 32 -20 50t-52 28.5t-68 20t-68 25t-52.5 41t-20.5 69.5q0 55 38 97.5t100 59.5l48 -36q-59 -12 -91 -43
t-32 -72q0 -31 20.5 -49.5t52.5 -29.5t68 -21t68.5 -25t53 -41t20.5 -70q0 -50 -29.5 -88.5t-81.5 -60t-122 -21.5z" />
    <glyph glyph-name="dieresis" unicode="&#xa8;" horiz-adv-x="600" 
d="M468 630q-17 0 -28.5 11t-11.5 27q0 21 13.5 34.5t31.5 13.5q17 0 29 -11t12 -29q0 -20 -13.5 -33t-32.5 -13zM290 630q-17 0 -29 11t-12 27q0 21 14 34.5t31 13.5q18 0 29.5 -11t11.5 -29q0 -20 -13.5 -33t-31.5 -13z" />
    <glyph glyph-name="copyright" unicode="&#xa9;" horiz-adv-x="809" 
d="M421 -3q-75 0 -139 27t-112 75.5t-74.5 112.5t-26.5 138t27 138t75 112.5t112.5 75.5t139.5 27t139.5 -26.5t112 -74.5t74 -111.5t26.5 -138.5t-27 -139.5t-75.5 -113t-112.5 -75.5t-139 -27zM421 34q67 0 124.5 24.5t100.5 67.5t67 101.5t24 124.5q0 67 -23.5 124
t-66 100t-99.5 66.5t-125 23.5q-67 0 -125 -24t-100.5 -67.5t-66.5 -100.5t-24 -124q0 -66 23.5 -123.5t66 -101t100 -67.5t124.5 -24zM431 142q-60 0 -107.5 26.5t-74.5 73.5t-27 108t27 108t74.5 73.5t107.5 26.5q50 0 91.5 -20.5t66.5 -56.5l-43 -32q-20 29 -50.5 43
t-65.5 14q-43 0 -77 -19.5t-53.5 -54.5t-19.5 -82t19.5 -82t53.5 -54.5t77 -19.5q35 0 65.5 14t50.5 43l43 -31q-25 -37 -66.5 -57.5t-91.5 -20.5z" />
    <glyph glyph-name="ordfeminine" unicode="&#xaa;" horiz-adv-x="401" 
d="M314 430l13 68v11l23 113q9 41 -13 61.5t-67 20.5q-30 0 -61.5 -9t-55.5 -26l-16 36q26 19 64 30t77 11q69 0 102.5 -32.5t20.5 -96.5l-37 -187h-50zM203 427q-53 0 -82 22.5t-29 57.5q0 32 17.5 55t49 34.5t74.5 11.5h122l-6 -35h-116q-43 0 -67 -15.5t-24 -45.5
q0 -48 73 -48q38 0 67 15t49 43l5 -30q-18 -28 -50 -46.5t-83 -18.5z" />
    <glyph glyph-name="guillemotleft" unicode="&#xab;" horiz-adv-x="477" 
d="M157 74l-107 189l182 189h69l-201 -214l3 56l119 -220h-65zM335 74l-107 189l182 189h69l-201 -214l3 56l119 -220h-65z" />
    <glyph glyph-name="logicalnot" unicode="&#xac;" horiz-adv-x="576" 
d="M529 380l-47 -239h-63l36 180h-374l12 59h436z" />
    <glyph glyph-name="uni00AD" unicode="&#xad;" horiz-adv-x="382" 
d="M56 240l12 62h262l-12 -62h-262z" />
    <glyph glyph-name="registered" unicode="&#xae;" horiz-adv-x="809" 
d="M421 -3q-75 0 -139 27t-112 75.5t-74.5 112.5t-26.5 138t27 138t75 112.5t112.5 75.5t139.5 27t139.5 -26.5t112 -74.5t74 -111.5t26.5 -138.5t-27 -139.5t-75.5 -113t-112.5 -75.5t-139 -27zM551 148l-102 156h54l102 -156h-54zM421 34q67 0 124.5 24.5t100.5 67.5
t67 101.5t24 124.5q0 67 -23.5 124t-66 100t-99.5 66.5t-125 23.5q-67 0 -125 -24t-100.5 -67.5t-66.5 -100.5t-24 -124q0 -66 23.5 -123.5t66 -101t100 -67.5t124.5 -24zM284 148v404h157q74 0 116.5 -36.5t42.5 -97.5q0 -64 -42.5 -100t-116.5 -36h-105v-134h-52zM335 326
h102q53 0 82.5 24t29.5 68q0 43 -29.5 66.5t-82.5 23.5h-102v-182z" />
    <glyph glyph-name="macron" unicode="&#xaf;" horiz-adv-x="600" 
d="M222 645l9 47h309l-10 -47h-308z" />
    <glyph glyph-name="degree" unicode="&#xb0;" horiz-adv-x="419" 
d="M267 388q-45 0 -81.5 21.5t-57.5 57t-21 80.5q0 44 21 80t57.5 57t81.5 21t81 -21t57 -57t21 -80t-21 -80t-57 -57.5t-81 -21.5zM267 430q33 0 59 16t41 42t15 59t-15 59.5t-41 41.5t-59 15t-59.5 -15t-41.5 -41.5t-15 -59.5t15 -59.5t41.5 -42t59.5 -15.5z" />
    <glyph glyph-name="plusminus" unicode="&#xb1;" horiz-adv-x="575" 
d="M17 0l12 60h435l-12 -60h-435zM237 173l84 418h63l-84 -418h-63zM87 352l12 60h435l-12 -60h-435z" />
    <glyph glyph-name="uni00B2" unicode="&#xb2;" horiz-adv-x="430" 
d="M60 327l7 35l221 160q36 27 55 46t26 35t7 33q0 30 -25.5 47t-72.5 17q-41 0 -73.5 -12t-57.5 -34l-32 30q29 30 72.5 46t96.5 16q69 0 107 -29t38 -77q0 -22 -7.5 -43.5t-30.5 -45.5t-67 -56l-196 -143l-17 20h286l-9 -45h-328z" />
    <glyph glyph-name="uni00B3" unicode="&#xb3;" horiz-adv-x="430" 
d="M222 323q-55 0 -99 15t-66 39l26 40q22 -21 59 -34.5t84 -13.5q62 0 97.5 23t35.5 66q0 32 -24 49.5t-74 17.5h-47l7 37l169 155l9 -20h-271l9 45h314l-7 -35l-170 -156l-24 15h23q68 0 104 -28.5t36 -76.5q0 -43 -24 -74t-67 -47.5t-100 -16.5z" />
    <glyph glyph-name="acute" unicode="&#xb4;" horiz-adv-x="600" 
d="M301 607l152 124h97l-175 -124h-74z" />
    <glyph glyph-name="uni00B5" unicode="&#xb5;" horiz-adv-x="678" 
d="M8 -194l144 719h71l-60 -299q-15 -78 16.5 -122.5t112.5 -44.5q82 0 138 46t74 138l56 282h71l-104 -525h-68l30 151l15 -25q-25 -45 -60 -74t-75.5 -43t-82.5 -14q-67 0 -109.5 25t-59.5 77l27 30l-65 -321h-71z" />
    <glyph glyph-name="paragraph" unicode="&#xb6;" horiz-adv-x="632" 
d="M153 -100l99 495q-49 1 -88 18.5t-61.5 50t-22.5 79.5q0 68 32.5 112t90 65.5t130.5 21.5h280l-168 -842h-60l157 786h-172l-157 -786h-60z" />
    <glyph glyph-name="periodcentered" unicode="&#xb7;" horiz-adv-x="252" 
d="M126 216q-22 0 -37 15.5t-15 36.5q0 25 17 41t39 16t36.5 -14t14.5 -37q0 -17 -7.5 -30t-20 -20.5t-27.5 -7.5z" />
    <glyph glyph-name="cedilla" unicode="&#xb8;" horiz-adv-x="600" 
d="M189 -220q-25 0 -46.5 6t-37.5 17l22 38q14 -9 30.5 -14t36.5 -5q33 0 50.5 15t17.5 38q0 19 -14 29.5t-41 10.5h-22l42 91h43l-26 -57q33 -5 51.5 -23.5t18.5 -47.5q0 -44 -34.5 -71t-90.5 -27z" />
    <glyph glyph-name="uni00B9" unicode="&#xb9;" horiz-adv-x="430" 
d="M219 337l77 385l20 -23h-138l9 43h167l-81 -405h-54zM96 327l8 43h285l-9 -43h-284z" />
    <glyph glyph-name="ordmasculine" unicode="&#xba;" horiz-adv-x="415" 
d="M251 427q-46 0 -80.5 17.5t-54 48.5t-19.5 72q0 52 25.5 93t70 64.5t101.5 23.5q46 0 80 -17t53 -48t19 -72q0 -52 -25 -93.5t-69 -65t-101 -23.5zM255 472q41 0 72.5 18t49.5 48.5t18 67.5q0 44 -29.5 70t-76.5 26q-41 0 -72.5 -18t-49.5 -49t-18 -68q0 -44 29.5 -69.5
t76.5 -25.5z" />
    <glyph glyph-name="guillemotright" unicode="&#xbb;" horiz-adv-x="478" 
d="M143 452l107 -189l-183 -189h-68l201 214l-3 -55l-119 219h65zM321 452l107 -189l-183 -189h-68l201 214l-3 -55l-119 219h65z" />
    <glyph glyph-name="onequarter" unicode="&#xbc;" horiz-adv-x="1029" 
d="M211 295l77 385l20 -23h-138l9 43h167l-81 -405h-54zM88 285l8 43h285l-9 -43h-284zM194 0l613 700h63l-614 -700h-62zM594 106l8 36l257 273h63l-259 -273l-27 8h341l-9 -44h-374zM806 0l21 106l13 44l18 91h49l-49 -241h-52z" />
    <glyph glyph-name="onehalf" unicode="&#xbd;" horiz-adv-x="1029" 
d="M211 295l77 385l20 -23h-138l9 43h167l-81 -405h-54zM88 285l8 43h285l-9 -43h-284zM194 0l613 700h63l-614 -700h-62zM594 0l7 35l221 160q36 27 55 46t26 35t7 33q0 30 -25.5 47t-72.5 17q-41 0 -73.5 -12t-57.5 -34l-32 30q29 30 72.5 46t96.5 16q69 0 107 -29t38 -77
q0 -22 -7.5 -43.5t-30.5 -45.5t-67 -56l-196 -143l-17 20h286l-9 -45h-328z" />
    <glyph glyph-name="threequarters" unicode="&#xbe;" horiz-adv-x="1029" 
d="M214 281q-55 0 -99 15t-66 39l26 40q22 -21 59 -34.5t84 -13.5q62 0 97.5 23t35.5 66q0 32 -24 49.5t-74 17.5h-47l7 37l169 155l9 -20h-271l9 45h314l-7 -35l-170 -156l-24 15h23q68 0 104 -28.5t36 -76.5q0 -43 -24 -74t-67 -47.5t-100 -16.5zM194 0l613 700h63
l-614 -700h-62zM594 106l8 36l257 273h63l-259 -273l-27 8h341l-9 -44h-374zM806 0l21 106l13 44l18 91h49l-49 -241h-52z" />
    <glyph glyph-name="questiondown" unicode="&#xbf;" horiz-adv-x="567" 
d="M231 -160q-63 0 -109.5 18.5t-71 52.5t-24.5 82q0 44 15.5 76t40.5 56t53.5 44.5t56.5 41t49 46t29 58.5h73q-7 -40 -28 -69t-48.5 -51.5t-56.5 -42t-54 -40.5t-41 -47.5t-16 -62.5q0 -45 37 -72t105 -27q67 0 116.5 20.5t87.5 60.5l47 -43q-44 -48 -109.5 -74.5
t-151.5 -26.5zM338 427q-22 0 -36.5 14.5t-14.5 34.5q0 15 7.5 27.5t19.5 19.5t27 7q22 0 36 -14t14 -34q0 -23 -15.5 -39t-37.5 -16z" />
    <glyph glyph-name="Agrave" unicode="&#xc0;" horiz-adv-x="717" 
d="M-50 0l460 700h73l180 -700h-74l-164 659h30l-425 -659h-80zM113 187l34 60h407l11 -60h-452zM452 757l-137 124h94l114 -124h-71z" />
    <glyph glyph-name="Aacute" unicode="&#xc1;" horiz-adv-x="717" 
d="M-50 0l460 700h73l180 -700h-74l-164 659h30l-425 -659h-80zM113 187l34 60h407l11 -60h-452zM390 757l152 124h97l-175 -124h-74z" />
    <glyph glyph-name="Acircumflex" unicode="&#xc2;" horiz-adv-x="717" 
d="M-50 0l460 700h73l180 -700h-74l-164 659h30l-425 -659h-80zM113 187l34 60h407l11 -60h-452zM293 757l143 124h72l115 -124h-64l-116 106h56l-138 -106h-68z" />
    <glyph glyph-name="Atilde" unicode="&#xc3;" horiz-adv-x="717" 
d="M-50 0l460 700h73l180 -700h-74l-164 659h30l-425 -659h-80zM113 187l34 60h407l11 -60h-452zM535 763q-23 0 -40.5 10t-31.5 23.5t-28 24t-31 10.5q-22 0 -37 -17.5t-20 -46.5h-43q8 52 35 81t66 29q23 0 40.5 -10.5t31.5 -24t28 -23.5t30 -10q23 0 38.5 17.5t19.5 44.5
h43q-8 -50 -34.5 -79t-66.5 -29z" />
    <glyph glyph-name="Adieresis" unicode="&#xc4;" horiz-adv-x="717" 
d="M-50 0l460 700h73l180 -700h-74l-164 659h30l-425 -659h-80zM113 187l34 60h407l11 -60h-452zM557 780q-17 0 -28.5 11t-11.5 27q0 21 13.5 34.5t31.5 13.5q17 0 29 -11t12 -29q0 -20 -13.5 -33t-32.5 -13zM379 780q-17 0 -29 11t-12 27q0 21 14 34.5t31 13.5
q18 0 29.5 -11t11.5 -29q0 -20 -13.5 -33t-31.5 -13z" />
    <glyph glyph-name="Aring" unicode="&#xc5;" horiz-adv-x="717" 
d="M-50 0l460 700h73l180 -700h-74l-164 659h30l-425 -659h-80zM113 187l34 60h407l11 -60h-452zM481 770q-30 0 -53.5 14t-37 37t-13.5 51t13.5 52t37 38.5t53.5 14.5t53.5 -14.5t37 -38.5t13.5 -52t-13.5 -51t-37 -37t-53.5 -14zM481 805q30 0 49 19.5t19 47.5
q0 29 -19 49.5t-49 20.5q-29 0 -48.5 -20t-19.5 -50q0 -29 19 -48t49 -19z" />
    <glyph glyph-name="AE" unicode="&#xc6;" horiz-adv-x="1033" 
d="M-51 0l563 700h78l-11 -63h-66l52 29l-533 -666h-83zM155 187l20 60h325l-12 -60h-333zM426 0l140 700h480l-13 -64h-407l-114 -572h421l-13 -64h-494zM556 324l13 63h370l-13 -63h-370z" />
    <glyph glyph-name="Ccedilla" unicode="&#xc7;" horiz-adv-x="719" 
d="M391 -6q-104 0 -177 36.5t-111.5 102t-38.5 152.5q0 86 29.5 162t85 134.5t134 91.5t177.5 33q84 0 149 -26t100 -76l-52 -46q-33 41 -83 61.5t-120 20.5q-79 0 -143.5 -27.5t-109.5 -76.5t-69.5 -112.5t-24.5 -135.5q0 -67 29.5 -118.5t87.5 -80.5t142 -29q69 0 125 21
t98 62l43 -49q-46 -49 -117 -74.5t-154 -25.5zM303 -220q-25 0 -46.5 6t-37.5 17l22 38q14 -9 30.5 -14t36.5 -5q33 0 50.5 15t17.5 38q0 19 -14 29.5t-41 10.5h-22l42 91h43l-26 -57q33 -5 51.5 -23.5t18.5 -47.5q0 -44 -34.5 -71t-90.5 -27z" />
    <glyph glyph-name="Egrave" unicode="&#xc8;" horiz-adv-x="669" 
d="M205 387h370l-12 -63h-370zM148 64h421l-13 -64h-494l140 700h480l-13 -64h-407zM447 757l-137 124h94l114 -124h-71z" />
    <glyph glyph-name="Eacute" unicode="&#xc9;" horiz-adv-x="669" 
d="M205 387h370l-12 -63h-370zM148 64h421l-13 -64h-494l140 700h480l-13 -64h-407zM385 757l152 124h97l-175 -124h-74z" />
    <glyph glyph-name="Ecircumflex" unicode="&#xca;" horiz-adv-x="669" 
d="M205 387h370l-12 -63h-370zM148 64h421l-13 -64h-494l140 700h480l-13 -64h-407zM288 757l143 124h72l115 -124h-64l-116 106h56l-138 -106h-68z" />
    <glyph glyph-name="Edieresis" unicode="&#xcb;" horiz-adv-x="669" 
d="M205 387h370l-12 -63h-370zM148 64h421l-13 -64h-494l140 700h480l-13 -64h-407zM552 780q-17 0 -28.5 11t-11.5 27q0 21 13.5 34.5t31.5 13.5q17 0 29 -11t12 -29q0 -20 -13.5 -33t-32.5 -13zM374 780q-17 0 -29 11t-12 27q0 21 14 34.5t31 13.5q18 0 29.5 -11t11.5 -29
q0 -20 -13.5 -33t-31.5 -13z" />
    <glyph glyph-name="Igrave" unicode="&#xcc;" horiz-adv-x="302" 
d="M62 0l140 700h73l-140 -700h-73zM244 757l-137 124h94l114 -124h-71z" />
    <glyph glyph-name="Iacute" unicode="&#xcd;" horiz-adv-x="302" 
d="M62 0l140 700h73l-140 -700h-73zM182 757l152 124h97l-175 -124h-74z" />
    <glyph glyph-name="Icircumflex" unicode="&#xce;" horiz-adv-x="302" 
d="M62 0l140 700h73l-140 -700h-73zM85 757l143 124h72l115 -124h-64l-116 106h56l-138 -106h-68z" />
    <glyph glyph-name="Idieresis" unicode="&#xcf;" horiz-adv-x="302" 
d="M62 0l140 700h73l-140 -700h-73zM349 780q-17 0 -28.5 11t-11.5 27q0 21 13.5 34.5t31.5 13.5q17 0 29 -11t12 -29q0 -20 -13.5 -33t-32.5 -13zM171 780q-17 0 -29 11t-12 27q0 21 14 34.5t31 13.5q18 0 29.5 -11t11.5 -29q0 -20 -13.5 -33t-31.5 -13z" />
    <glyph glyph-name="Eth" unicode="&#xd0;" horiz-adv-x="831" 
d="M67 0l140 700h266q106 0 179.5 -35.5t112 -99t38.5 -150.5q0 -92 -30.5 -168.5t-88 -131.5t-137.5 -85t-179 -30h-301zM153 64h217q111 0 191.5 45t124 123.5t43.5 179.5q0 67 -29 117.5t-87.5 78.5t-147.5 28h-198zM25 327l12 59h387l-12 -59h-387z" />
    <glyph glyph-name="Ntilde" unicode="&#xd1;" horiz-adv-x="813" 
d="M62 0l140 700h60l353 -611l-23 4l121 607h73l-140 -700h-60l-353 611l23 -4l-121 -607h-73zM583 763q-23 0 -40.5 10t-31.5 23.5t-28 24t-31 10.5q-22 0 -37 -17.5t-20 -46.5h-43q8 52 35 81t66 29q23 0 40.5 -10.5t31.5 -24t28 -23.5t30 -10q23 0 38.5 17.5t19.5 44.5
h43q-8 -50 -34.5 -79t-66.5 -29z" />
    <glyph glyph-name="Ograve" unicode="&#xd2;" horiz-adv-x="839" 
d="M388 -6q-103 0 -176 36.5t-110.5 102t-37.5 152.5q0 86 29 162t84.5 134.5t133.5 91.5t175 33q104 0 176.5 -36.5t110 -102t37.5 -152.5q0 -86 -29 -162t-84.5 -134.5t-133.5 -91.5t-175 -33zM395 60q78 0 141 27.5t108 76.5t69 112.5t24 135.5q0 68 -29.5 119t-86.5 80
t-142 29q-78 0 -141 -27.5t-107.5 -76.5t-69 -112.5t-24.5 -135.5q0 -67 29.5 -118.5t86.5 -80.5t142 -29zM512 757l-137 124h94l114 -124h-71z" />
    <glyph glyph-name="Oacute" unicode="&#xd3;" horiz-adv-x="839" 
d="M388 -6q-103 0 -176 36.5t-110.5 102t-37.5 152.5q0 86 29 162t84.5 134.5t133.5 91.5t175 33q104 0 176.5 -36.5t110 -102t37.5 -152.5q0 -86 -29 -162t-84.5 -134.5t-133.5 -91.5t-175 -33zM395 60q78 0 141 27.5t108 76.5t69 112.5t24 135.5q0 68 -29.5 119t-86.5 80
t-142 29q-78 0 -141 -27.5t-107.5 -76.5t-69 -112.5t-24.5 -135.5q0 -67 29.5 -118.5t86.5 -80.5t142 -29zM450 757l152 124h97l-175 -124h-74z" />
    <glyph glyph-name="Ocircumflex" unicode="&#xd4;" horiz-adv-x="839" 
d="M388 -6q-103 0 -176 36.5t-110.5 102t-37.5 152.5q0 86 29 162t84.5 134.5t133.5 91.5t175 33q104 0 176.5 -36.5t110 -102t37.5 -152.5q0 -86 -29 -162t-84.5 -134.5t-133.5 -91.5t-175 -33zM395 60q78 0 141 27.5t108 76.5t69 112.5t24 135.5q0 68 -29.5 119t-86.5 80
t-142 29q-78 0 -141 -27.5t-107.5 -76.5t-69 -112.5t-24.5 -135.5q0 -67 29.5 -118.5t86.5 -80.5t142 -29zM353 757l143 124h72l115 -124h-64l-116 106h56l-138 -106h-68z" />
    <glyph glyph-name="Otilde" unicode="&#xd5;" horiz-adv-x="839" 
d="M388 -6q-103 0 -176 36.5t-110.5 102t-37.5 152.5q0 86 29 162t84.5 134.5t133.5 91.5t175 33q104 0 176.5 -36.5t110 -102t37.5 -152.5q0 -86 -29 -162t-84.5 -134.5t-133.5 -91.5t-175 -33zM395 60q78 0 141 27.5t108 76.5t69 112.5t24 135.5q0 68 -29.5 119t-86.5 80
t-142 29q-78 0 -141 -27.5t-107.5 -76.5t-69 -112.5t-24.5 -135.5q0 -67 29.5 -118.5t86.5 -80.5t142 -29zM595 763q-23 0 -40.5 10t-31.5 23.5t-28 24t-31 10.5q-22 0 -37 -17.5t-20 -46.5h-43q8 52 35 81t66 29q23 0 40.5 -10.5t31.5 -24t28 -23.5t30 -10q23 0 38.5 17.5
t19.5 44.5h43q-8 -50 -34.5 -79t-66.5 -29z" />
    <glyph glyph-name="Odieresis" unicode="&#xd6;" horiz-adv-x="839" 
d="M388 -6q-103 0 -176 36.5t-110.5 102t-37.5 152.5q0 86 29 162t84.5 134.5t133.5 91.5t175 33q104 0 176.5 -36.5t110 -102t37.5 -152.5q0 -86 -29 -162t-84.5 -134.5t-133.5 -91.5t-175 -33zM395 60q78 0 141 27.5t108 76.5t69 112.5t24 135.5q0 68 -29.5 119t-86.5 80
t-142 29q-78 0 -141 -27.5t-107.5 -76.5t-69 -112.5t-24.5 -135.5q0 -67 29.5 -118.5t86.5 -80.5t142 -29zM617 780q-17 0 -28.5 11t-11.5 27q0 21 13.5 34.5t31.5 13.5q17 0 29 -11t12 -29q0 -20 -13.5 -33t-32.5 -13zM439 780q-17 0 -29 11t-12 27q0 21 14 34.5t31 13.5
q18 0 29.5 -11t11.5 -29q0 -20 -13.5 -33t-31.5 -13z" />
    <glyph glyph-name="multiply" unicode="&#xd7;" horiz-adv-x="575" 
d="M117 218l339 308l37 -44l-339 -308zM149 485l44 41l267 -311l-43 -41z" />
    <glyph glyph-name="Oslash" unicode="&#xd8;" horiz-adv-x="839" 
d="M388 -6q-103 0 -176 36.5t-110.5 102t-37.5 152.5q0 86 29 162t84.5 134.5t133.5 91.5t175 33q104 0 176.5 -36.5t110 -102t37.5 -152.5q0 -86 -29 -162t-84.5 -134.5t-133.5 -91.5t-175 -33zM395 60q78 0 141 27.5t108 76.5t69 112.5t24 135.5q0 68 -29.5 119t-86.5 80
t-142 29q-78 0 -141 -27.5t-107.5 -76.5t-69 -112.5t-24.5 -135.5q0 -67 29.5 -118.5t86.5 -80.5t142 -29zM18 -70l774 840h62l-773 -840h-63z" />
    <glyph glyph-name="Ugrave" unicode="&#xd9;" horiz-adv-x="792" 
d="M359 -6q-96 0 -156.5 39t-82.5 108t-4 157l80 402h73l-80 -402q-11 -52 -6 -96t26.5 -76t60.5 -49t96 -17q72 0 122 26.5t81.5 78.5t47.5 128l81 407h72l-82 -412q-28 -144 -110.5 -219t-218.5 -75zM489 757l-137 124h94l114 -124h-71z" />
    <glyph glyph-name="Uacute" unicode="&#xda;" horiz-adv-x="792" 
d="M359 -6q-96 0 -156.5 39t-82.5 108t-4 157l80 402h73l-80 -402q-11 -52 -6 -96t26.5 -76t60.5 -49t96 -17q72 0 122 26.5t81.5 78.5t47.5 128l81 407h72l-82 -412q-28 -144 -110.5 -219t-218.5 -75zM427 757l152 124h97l-175 -124h-74z" />
    <glyph glyph-name="Ucircumflex" unicode="&#xdb;" horiz-adv-x="792" 
d="M359 -6q-96 0 -156.5 39t-82.5 108t-4 157l80 402h73l-80 -402q-11 -52 -6 -96t26.5 -76t60.5 -49t96 -17q72 0 122 26.5t81.5 78.5t47.5 128l81 407h72l-82 -412q-28 -144 -110.5 -219t-218.5 -75zM330 757l143 124h72l115 -124h-64l-116 106h56l-138 -106h-68z" />
    <glyph glyph-name="Udieresis" unicode="&#xdc;" horiz-adv-x="792" 
d="M359 -6q-96 0 -156.5 39t-82.5 108t-4 157l80 402h73l-80 -402q-11 -52 -6 -96t26.5 -76t60.5 -49t96 -17q72 0 122 26.5t81.5 78.5t47.5 128l81 407h72l-82 -412q-28 -144 -110.5 -219t-218.5 -75zM594 780q-17 0 -28.5 11t-11.5 27q0 21 13.5 34.5t31.5 13.5
q17 0 29 -11t12 -29q0 -20 -13.5 -33t-32.5 -13zM416 780q-17 0 -29 11t-12 27q0 21 14 34.5t31 13.5q18 0 29.5 -11t11.5 -29q0 -20 -13.5 -33t-31.5 -13z" />
    <glyph glyph-name="Yacute" unicode="&#xdd;" horiz-adv-x="635" 
d="M228 0l52 262l8 -50l-200 488h74l175 -426l-40 -1l345 427h79l-393 -489l25 51l-52 -262h-73zM348 757l152 124h97l-175 -124h-74z" />
    <glyph glyph-name="Thorn" unicode="&#xde;" horiz-adv-x="718" 
d="M143 130l12 64h207q118 0 183.5 53t65.5 157q0 69 -47 104.5t-134 35.5h-204l12 65h199q118 0 183 -52t65 -147q0 -89 -39 -152t-112 -95.5t-174 -32.5h-217zM62 0l140 700h73l-140 -700h-73z" />
    <glyph glyph-name="germandbls" unicode="&#xdf;" horiz-adv-x="667" 
d="M341 -5q-31 0 -63.5 5t-52.5 13l20 60q21 -8 46 -12t50 -4q59 0 103.5 20.5t69.5 59.5t25 92q0 59 -41 86.5t-109 27.5h-56l12 61q61 1 108 21.5t73.5 59.5t26.5 92q0 51 -33 79.5t-97 28.5q-77 0 -131.5 -42t-73.5 -138l-101 -505h-71l99 500q18 87 57.5 141t97 80
t128.5 26q60 0 103.5 -20t67 -56.5t23.5 -87.5q0 -62 -31 -112t-84.5 -79t-122.5 -29l31 31q58 0 102 -18.5t69 -54.5t25 -89q0 -72 -35 -125.5t-96 -82.5t-139 -29z" />
    <glyph glyph-name="agrave" unicode="&#xe0;" horiz-adv-x="678" 
d="M271 -5q-67 0 -119 27t-81 77t-29 119q0 67 22 124t62 99.5t94.5 65.5t118.5 23q69 0 117 -24.5t74 -71t26 -112.5q0 -95 -35 -169t-99 -116t-151 -42zM286 58q66 0 117.5 31.5t81 87.5t29.5 127q0 78 -45.5 121t-127.5 43q-65 0 -117 -32t-81.5 -87.5t-29.5 -127.5
q0 -77 45.5 -120t127.5 -43zM459 0l30 151l30 106l10 110l32 158h71l-105 -525h-68zM392 607l-137 124h94l114 -124h-71z" />
    <glyph glyph-name="aacute" unicode="&#xe1;" horiz-adv-x="678" 
d="M271 -5q-67 0 -119 27t-81 77t-29 119q0 67 22 124t62 99.5t94.5 65.5t118.5 23q69 0 117 -24.5t74 -71t26 -112.5q0 -95 -35 -169t-99 -116t-151 -42zM286 58q66 0 117.5 31.5t81 87.5t29.5 127q0 78 -45.5 121t-127.5 43q-65 0 -117 -32t-81.5 -87.5t-29.5 -127.5
q0 -77 45.5 -120t127.5 -43zM459 0l30 151l30 106l10 110l32 158h71l-105 -525h-68zM330 607l152 124h97l-175 -124h-74z" />
    <glyph glyph-name="acircumflex" unicode="&#xe2;" horiz-adv-x="678" 
d="M271 -5q-67 0 -119 27t-81 77t-29 119q0 67 22 124t62 99.5t94.5 65.5t118.5 23q69 0 117 -24.5t74 -71t26 -112.5q0 -95 -35 -169t-99 -116t-151 -42zM286 58q66 0 117.5 31.5t81 87.5t29.5 127q0 78 -45.5 121t-127.5 43q-65 0 -117 -32t-81.5 -87.5t-29.5 -127.5
q0 -77 45.5 -120t127.5 -43zM459 0l30 151l30 106l10 110l32 158h71l-105 -525h-68zM233 607l143 124h72l115 -124h-64l-116 106h56l-138 -106h-68z" />
    <glyph glyph-name="atilde" unicode="&#xe3;" horiz-adv-x="678" 
d="M271 -5q-67 0 -119 27t-81 77t-29 119q0 67 22 124t62 99.5t94.5 65.5t118.5 23q69 0 117 -24.5t74 -71t26 -112.5q0 -95 -35 -169t-99 -116t-151 -42zM286 58q66 0 117.5 31.5t81 87.5t29.5 127q0 78 -45.5 121t-127.5 43q-65 0 -117 -32t-81.5 -87.5t-29.5 -127.5
q0 -77 45.5 -120t127.5 -43zM459 0l30 151l30 106l10 110l32 158h71l-105 -525h-68zM475 613q-23 0 -40.5 10t-31.5 23.5t-28 24t-31 10.5q-22 0 -37 -17.5t-20 -46.5h-43q8 52 35 81t66 29q23 0 40.5 -10.5t31.5 -24t28 -23.5t30 -10q23 0 38.5 17.5t19.5 44.5h43
q-8 -50 -34.5 -79t-66.5 -29z" />
    <glyph glyph-name="adieresis" unicode="&#xe4;" horiz-adv-x="678" 
d="M271 -5q-67 0 -119 27t-81 77t-29 119q0 67 22 124t62 99.5t94.5 65.5t118.5 23q69 0 117 -24.5t74 -71t26 -112.5q0 -95 -35 -169t-99 -116t-151 -42zM286 58q66 0 117.5 31.5t81 87.5t29.5 127q0 78 -45.5 121t-127.5 43q-65 0 -117 -32t-81.5 -87.5t-29.5 -127.5
q0 -77 45.5 -120t127.5 -43zM459 0l30 151l30 106l10 110l32 158h71l-105 -525h-68zM497 630q-17 0 -28.5 11t-11.5 27q0 21 13.5 34.5t31.5 13.5q17 0 29 -11t12 -29q0 -20 -13.5 -33t-32.5 -13zM319 630q-17 0 -29 11t-12 27q0 21 14 34.5t31 13.5q18 0 29.5 -11t11.5 -29
q0 -20 -13.5 -33t-31.5 -13z" />
    <glyph glyph-name="aring" unicode="&#xe5;" horiz-adv-x="678" 
d="M271 -5q-67 0 -119 27t-81 77t-29 119q0 67 22 124t62 99.5t94.5 65.5t118.5 23q69 0 117 -24.5t74 -71t26 -112.5q0 -95 -35 -169t-99 -116t-151 -42zM286 58q66 0 117.5 31.5t81 87.5t29.5 127q0 78 -45.5 121t-127.5 43q-65 0 -117 -32t-81.5 -87.5t-29.5 -127.5
q0 -77 45.5 -120t127.5 -43zM459 0l30 151l30 106l10 110l32 158h71l-105 -525h-68zM416 595q-30 0 -53.5 14t-37 37t-13.5 51t13.5 52t37 38.5t53.5 14.5t53.5 -14.5t37 -38.5t13.5 -52t-13.5 -51t-37 -37t-53.5 -14zM416 630q30 0 49 19.5t19 47.5q0 29 -19 49.5t-49 20.5
q-29 0 -48.5 -20t-19.5 -50q0 -29 19 -48t49 -19z" />
    <glyph glyph-name="ae" unicode="&#xe6;" horiz-adv-x="987" 
d="M219 -5q-59 0 -101 17t-64 48t-22 74q0 74 57 118.5t166 44.5h183l-8 -53h-180q-71 0 -109.5 -28t-38.5 -78q0 -42 30.5 -64.5t93.5 -22.5q44 0 82.5 16.5t65.5 50t37 83.5l25 123q15 70 -16.5 107t-108.5 37q-51 0 -99 -17t-82 -44l-24 56q29 22 64.5 37t74 22.5
t76.5 7.5q93 0 138.5 -40t44.5 -112l-35 6q26 47 64 79.5t85 49.5t97 17q70 0 121.5 -26.5t80.5 -76.5t29 -120q0 -16 -2 -32.5t-6 -30.5h-462l9 53h420l-31 -21q10 63 -8.5 106t-58.5 65.5t-95 22.5q-63 0 -113 -31.5t-78.5 -87t-28.5 -129.5q0 -82 46 -123t136 -41
q55 0 98 17.5t73 48.5l33 -51q-38 -37 -93.5 -57.5t-116.5 -20.5q-62 0 -112.5 20t-83 61.5t-41.5 103.5l38 -2q-18 -67 -57 -107t-89 -58t-104 -18z" />
    <glyph glyph-name="ccedilla" unicode="&#xe7;" horiz-adv-x="563" 
d="M285 -5q-75 0 -129.5 27.5t-84 77.5t-29.5 118q0 90 39 160.5t108.5 111t158.5 40.5q73 0 125.5 -26.5t81.5 -78.5l-60 -35q-22 40 -60.5 59t-92.5 19q-66 0 -118 -32t-81.5 -87.5t-29.5 -127.5q0 -77 45.5 -120t129.5 -43q51 0 94.5 19.5t71.5 56.5l51 -39
q-34 -47 -93 -73.5t-127 -26.5zM221 -221q-25 0 -46.5 6t-37.5 17l22 38q14 -9 30.5 -14t36.5 -5q33 0 50.5 15t17.5 38q0 19 -14 29.5t-41 10.5h-22l42 91h43l-26 -57q33 -5 51.5 -23.5t18.5 -47.5q0 -44 -34.5 -71t-90.5 -27z" />
    <glyph glyph-name="egrave" unicode="&#xe8;" horiz-adv-x="604" 
d="M287 -5q-75 0 -130.5 27.5t-85 77.5t-29.5 119q0 90 38 160t104 110.5t149 40.5q70 0 121 -26.5t79.5 -76.5t28.5 -120q0 -16 -2 -32.5t-5 -31.5h-461l9 53h419l-29 -20q10 63 -9 106t-58.5 65.5t-94.5 22.5q-64 0 -114 -31.5t-78 -87t-28 -129.5q0 -79 45.5 -121.5
t136.5 -42.5q53 0 98 17.5t74 48.5l32 -51q-37 -37 -92.5 -57.5t-117.5 -20.5zM359 606l-137 124h94l114 -124h-71z" />
    <glyph glyph-name="eacute" unicode="&#xe9;" horiz-adv-x="604" 
d="M287 -5q-75 0 -130.5 27.5t-85 77.5t-29.5 119q0 90 38 160t104 110.5t149 40.5q70 0 121 -26.5t79.5 -76.5t28.5 -120q0 -16 -2 -32.5t-5 -31.5h-461l9 53h419l-29 -20q10 63 -9 106t-58.5 65.5t-94.5 22.5q-64 0 -114 -31.5t-78 -87t-28 -129.5q0 -79 45.5 -121.5
t136.5 -42.5q53 0 98 17.5t74 48.5l32 -51q-37 -37 -92.5 -57.5t-117.5 -20.5zM297 606l152 124h97l-175 -124h-74z" />
    <glyph glyph-name="ecircumflex" unicode="&#xea;" horiz-adv-x="604" 
d="M287 -5q-75 0 -130.5 27.5t-85 77.5t-29.5 119q0 90 38 160t104 110.5t149 40.5q70 0 121 -26.5t79.5 -76.5t28.5 -120q0 -16 -2 -32.5t-5 -31.5h-461l9 53h419l-29 -20q10 63 -9 106t-58.5 65.5t-94.5 22.5q-64 0 -114 -31.5t-78 -87t-28 -129.5q0 -79 45.5 -121.5
t136.5 -42.5q53 0 98 17.5t74 48.5l32 -51q-37 -37 -92.5 -57.5t-117.5 -20.5zM200 606l143 124h72l115 -124h-64l-116 106h56l-138 -106h-68z" />
    <glyph glyph-name="edieresis" unicode="&#xeb;" horiz-adv-x="604" 
d="M287 -5q-75 0 -130.5 27.5t-85 77.5t-29.5 119q0 90 38 160t104 110.5t149 40.5q70 0 121 -26.5t79.5 -76.5t28.5 -120q0 -16 -2 -32.5t-5 -31.5h-461l9 53h419l-29 -20q10 63 -9 106t-58.5 65.5t-94.5 22.5q-64 0 -114 -31.5t-78 -87t-28 -129.5q0 -79 45.5 -121.5
t136.5 -42.5q53 0 98 17.5t74 48.5l32 -51q-37 -37 -92.5 -57.5t-117.5 -20.5zM464 629q-17 0 -28.5 11t-11.5 27q0 21 13.5 34.5t31.5 13.5q17 0 29 -11t12 -29q0 -20 -13.5 -33t-32.5 -13zM286 629q-17 0 -29 11t-12 27q0 21 14 34.5t31 13.5q18 0 29.5 -11t11.5 -29
q0 -20 -13.5 -33t-31.5 -13z" />
    <glyph glyph-name="igrave" unicode="&#xec;" horiz-adv-x="269" 
d="M47 0l104 525h71l-104 -525h-71zM198 607l-137 124h94l114 -124h-71z" />
    <glyph glyph-name="iacute" unicode="&#xed;" horiz-adv-x="269" 
d="M47 0l104 525h71l-104 -525h-71zM136 607l152 124h97l-175 -124h-74z" />
    <glyph glyph-name="icircumflex" unicode="&#xee;" horiz-adv-x="269" 
d="M47 0l104 525h71l-104 -525h-71zM64 607l120 124h69l91 -124h-62l-88 106h47l-112 -106h-65z" />
    <glyph glyph-name="idieresis" unicode="&#xef;" horiz-adv-x="269" 
d="M47 0l104 525h71l-104 -525h-71zM280 630q-17 0 -28 11t-11 27q0 20 13 34t32 14q16 0 27 -11t11 -29q0 -19 -12.5 -32.5t-31.5 -13.5zM147 630q-17 0 -28 11t-11 27q0 20 13 34t32 14q17 0 27.5 -11.5t10.5 -28.5q0 -20 -12.5 -33t-31.5 -13z" />
    <glyph glyph-name="eth" unicode="&#xf0;" horiz-adv-x="633" 
d="M260 -6q-67 0 -117 24t-78.5 68t-28.5 101q0 75 36 131t99.5 87t145.5 31q62 0 109.5 -23t73.5 -65t25 -99l-32 -16q25 46 36 104.5t11 108.5q0 106 -57.5 158.5t-160.5 52.5q-35 0 -72.5 -5t-66.5 -16l-2 61q30 10 69 15.5t77 5.5q86 0 150 -31t99.5 -91.5t35.5 -148.5
q0 -68 -14.5 -133t-43.5 -123t-71.5 -102.5t-98.5 -69.5t-124 -25zM266 55q40 0 78.5 13.5t68.5 38.5t47.5 58.5t17.5 72.5q0 64 -42.5 101t-116.5 37q-63 0 -111 -23t-75 -64t-27 -97q0 -64 42 -100.5t118 -36.5zM207 494l-18 49l424 167l19 -49z" />
    <glyph glyph-name="ntilde" unicode="&#xf1;" horiz-adv-x="676" 
d="M408 530q71 0 116.5 -27.5t63 -79.5t2.5 -124l-60 -299h-71l60 300q16 78 -16.5 122t-114.5 44q-84 0 -139.5 -46t-74.5 -138l-56 -282h-71l104 525h68l-30 -151l-15 26q38 68 98.5 99t135.5 31zM486 613q-23 0 -40.5 10t-31.5 23.5t-28 24t-31 10.5q-22 0 -37 -17.5
t-20 -46.5h-43q8 52 35 81t66 29q23 0 40.5 -10.5t31.5 -24t28 -23.5t30 -10q23 0 38.5 17.5t19.5 44.5h43q-8 -50 -34.5 -79t-66.5 -29z" />
    <glyph glyph-name="ograve" unicode="&#xf2;" horiz-adv-x="627" 
d="M281 -5q-73 0 -126.5 27.5t-83 77.5t-29.5 118q0 90 39 160.5t108 111t157 40.5q73 0 126.5 -27t83 -77t29.5 -118q0 -90 -39 -160.5t-107.5 -111.5t-157.5 -41zM286 58q66 0 117.5 31.5t81 87.5t29.5 127q0 78 -45.5 121t-127.5 43q-65 0 -117 -32t-81.5 -87.5
t-29.5 -127.5q0 -77 45.5 -120t127.5 -43zM375 607l-137 124h94l114 -124h-71z" />
    <glyph glyph-name="oacute" unicode="&#xf3;" horiz-adv-x="627" 
d="M281 -5q-73 0 -126.5 27.5t-83 77.5t-29.5 118q0 90 39 160.5t108 111t157 40.5q73 0 126.5 -27t83 -77t29.5 -118q0 -90 -39 -160.5t-107.5 -111.5t-157.5 -41zM286 58q66 0 117.5 31.5t81 87.5t29.5 127q0 78 -45.5 121t-127.5 43q-65 0 -117 -32t-81.5 -87.5
t-29.5 -127.5q0 -77 45.5 -120t127.5 -43zM313 607l152 124h97l-175 -124h-74z" />
    <glyph glyph-name="ocircumflex" unicode="&#xf4;" horiz-adv-x="627" 
d="M281 -5q-73 0 -126.5 27.5t-83 77.5t-29.5 118q0 90 39 160.5t108 111t157 40.5q73 0 126.5 -27t83 -77t29.5 -118q0 -90 -39 -160.5t-107.5 -111.5t-157.5 -41zM286 58q66 0 117.5 31.5t81 87.5t29.5 127q0 78 -45.5 121t-127.5 43q-65 0 -117 -32t-81.5 -87.5
t-29.5 -127.5q0 -77 45.5 -120t127.5 -43zM216 607l143 124h72l115 -124h-64l-116 106h56l-138 -106h-68z" />
    <glyph glyph-name="otilde" unicode="&#xf5;" horiz-adv-x="627" 
d="M281 -5q-73 0 -126.5 27.5t-83 77.5t-29.5 118q0 90 39 160.5t108 111t157 40.5q73 0 126.5 -27t83 -77t29.5 -118q0 -90 -39 -160.5t-107.5 -111.5t-157.5 -41zM286 58q66 0 117.5 31.5t81 87.5t29.5 127q0 78 -45.5 121t-127.5 43q-65 0 -117 -32t-81.5 -87.5
t-29.5 -127.5q0 -77 45.5 -120t127.5 -43zM458 613q-23 0 -40.5 10t-31.5 23.5t-28 24t-31 10.5q-22 0 -37 -17.5t-20 -46.5h-43q8 52 35 81t66 29q23 0 40.5 -10.5t31.5 -24t28 -23.5t30 -10q23 0 38.5 17.5t19.5 44.5h43q-8 -50 -34.5 -79t-66.5 -29z" />
    <glyph glyph-name="odieresis" unicode="&#xf6;" horiz-adv-x="627" 
d="M281 -5q-73 0 -126.5 27.5t-83 77.5t-29.5 118q0 90 39 160.5t108 111t157 40.5q73 0 126.5 -27t83 -77t29.5 -118q0 -90 -39 -160.5t-107.5 -111.5t-157.5 -41zM286 58q66 0 117.5 31.5t81 87.5t29.5 127q0 78 -45.5 121t-127.5 43q-65 0 -117 -32t-81.5 -87.5
t-29.5 -127.5q0 -77 45.5 -120t127.5 -43zM480 630q-17 0 -28.5 11t-11.5 27q0 21 13.5 34.5t31.5 13.5q17 0 29 -11t12 -29q0 -20 -13.5 -33t-32.5 -13zM302 630q-17 0 -29 11t-12 27q0 21 14 34.5t31 13.5q18 0 29.5 -11t11.5 -29q0 -20 -13.5 -33t-31.5 -13z" />
    <glyph glyph-name="divide" unicode="&#xf7;" horiz-adv-x="575" 
d="M81 320l12 59h436l-12 -59h-436zM264 110q-18 0 -31.5 13.5t-13.5 32.5q0 23 15 37t35 14q19 0 32 -12.5t13 -32.5q0 -22 -14.5 -37t-35.5 -15zM340 493q-18 0 -31.5 13t-13.5 32q0 23 15 37.5t35 14.5q19 0 32 -12.5t13 -32.5q0 -22 -14.5 -37t-35.5 -15z" />
    <glyph glyph-name="oslash" unicode="&#xf8;" horiz-adv-x="627" 
d="M281 -5q-73 0 -126.5 27.5t-83 77.5t-29.5 118q0 90 39 160.5t108 111t157 40.5q73 0 126.5 -27t83 -77t29.5 -118q0 -90 -39 -160.5t-107.5 -111.5t-157.5 -41zM286 58q66 0 117.5 31.5t81 87.5t29.5 127q0 78 -45.5 121t-127.5 43q-65 0 -117 -32t-81.5 -87.5
t-29.5 -127.5q0 -77 45.5 -120t127.5 -43zM0 -70l573 665h51l-573 -665h-51z" />
    <glyph glyph-name="ugrave" unicode="&#xf9;" horiz-adv-x="672" 
d="M267 -5q-69 0 -114.5 28t-62.5 80t-4 123l60 299h71l-60 -299q-15 -78 17 -122.5t112 -44.5q83 0 138.5 46t74.5 138l56 282h71l-105 -525h-68l30 151l15 -25q-37 -68 -97.5 -99.5t-133.5 -31.5zM397 607l-137 124h94l114 -124h-71z" />
    <glyph glyph-name="uacute" unicode="&#xfa;" horiz-adv-x="672" 
d="M267 -5q-69 0 -114.5 28t-62.5 80t-4 123l60 299h71l-60 -299q-15 -78 17 -122.5t112 -44.5q83 0 138.5 46t74.5 138l56 282h71l-105 -525h-68l30 151l15 -25q-37 -68 -97.5 -99.5t-133.5 -31.5zM335 607l152 124h97l-175 -124h-74z" />
    <glyph glyph-name="ucircumflex" unicode="&#xfb;" horiz-adv-x="672" 
d="M267 -5q-69 0 -114.5 28t-62.5 80t-4 123l60 299h71l-60 -299q-15 -78 17 -122.5t112 -44.5q83 0 138.5 46t74.5 138l56 282h71l-105 -525h-68l30 151l15 -25q-37 -68 -97.5 -99.5t-133.5 -31.5zM238 607l143 124h72l115 -124h-64l-116 106h56l-138 -106h-68z" />
    <glyph glyph-name="udieresis" unicode="&#xfc;" horiz-adv-x="672" 
d="M267 -5q-69 0 -114.5 28t-62.5 80t-4 123l60 299h71l-60 -299q-15 -78 17 -122.5t112 -44.5q83 0 138.5 46t74.5 138l56 282h71l-105 -525h-68l30 151l15 -25q-37 -68 -97.5 -99.5t-133.5 -31.5zM502 630q-17 0 -28.5 11t-11.5 27q0 21 13.5 34.5t31.5 13.5q17 0 29 -11
t12 -29q0 -20 -13.5 -33t-32.5 -13zM324 630q-17 0 -29 11t-12 27q0 21 14 34.5t31 13.5q18 0 29.5 -11t11.5 -29q0 -20 -13.5 -33t-31.5 -13z" />
    <glyph glyph-name="yacute" unicode="&#xfd;" horiz-adv-x="542" 
d="M20 -199q-37 0 -71 12.5t-54 34.5l38 52q17 -18 40 -28t52 -10q34 0 62.5 18.5t59.5 66.5l53 81l9 10l312 487h73l-384 -593q-33 -50 -62 -78.5t-59.5 -40.5t-68.5 -12zM188 -15l-135 540h72l118 -482zM258 607l152 124h97l-175 -124h-74z" />
    <glyph glyph-name="thorn" unicode="&#xfe;" horiz-adv-x="678" 
d="M8 -194l187 936h71l-74 -368l-32 -105l-11 -109l-70 -354h-71zM339 -5q-68 0 -116.5 24.5t-74 71t-26.5 112.5q0 97 35 170.5t99 115t151 41.5q68 0 119.5 -26.5t81 -76.5t29.5 -119q0 -68 -22 -125t-62.5 -99t-94.5 -65.5t-119 -23.5zM338 58q66 0 117 31.5t80.5 87.5
t29.5 127q0 78 -45 121t-128 43q-65 0 -116.5 -32t-81 -87.5t-29.5 -127.5q0 -77 45 -120t128 -43z" />
    <glyph glyph-name="ydieresis" unicode="&#xff;" horiz-adv-x="542" 
d="M20 -199q-37 0 -71 12.5t-54 34.5l38 52q17 -18 40 -28t52 -10q34 0 62.5 18.5t59.5 66.5l53 81l9 10l312 487h73l-384 -593q-33 -50 -62 -78.5t-59.5 -40.5t-68.5 -12zM188 -15l-135 540h72l118 -482zM425 630q-17 0 -28.5 11t-11.5 27q0 21 13.5 34.5t31.5 13.5
q17 0 29 -11t12 -29q0 -20 -13.5 -33t-32.5 -13zM247 630q-17 0 -29 11t-12 27q0 21 14 34.5t31 13.5q18 0 29.5 -11t11.5 -29q0 -20 -13.5 -33t-31.5 -13z" />
    <glyph glyph-name="Amacron" unicode="&#x100;" horiz-adv-x="717" 
d="M-50 0l460 700h73l180 -700h-74l-164 659h30l-425 -659h-80zM113 187l34 60h407l11 -60h-452zM311 795l9 47h309l-10 -47h-308z" />
    <glyph glyph-name="amacron" unicode="&#x101;" horiz-adv-x="678" 
d="M271 -5q-67 0 -119 27t-81 77t-29 119q0 67 22 124t62 99.5t94.5 65.5t118.5 23q69 0 117 -24.5t74 -71t26 -112.5q0 -95 -35 -169t-99 -116t-151 -42zM286 58q66 0 117.5 31.5t81 87.5t29.5 127q0 78 -45.5 121t-127.5 43q-65 0 -117 -32t-81.5 -87.5t-29.5 -127.5
q0 -77 45.5 -120t127.5 -43zM459 0l30 151l30 106l10 110l32 158h71l-105 -525h-68zM251 645l9 47h309l-10 -47h-308z" />
    <glyph glyph-name="Abreve" unicode="&#x102;" horiz-adv-x="717" 
d="M-50 0l460 700h73l180 -700h-74l-164 659h30l-425 -659h-80zM113 187l34 60h407l11 -60h-452zM468 752q-41 0 -74 16t-50.5 44.5t-14.5 68.5h49q-2 -39 24 -62t70 -23q42 0 73 22.5t37 62.5h52q-10 -60 -56.5 -94.5t-109.5 -34.5z" />
    <glyph glyph-name="abreve" unicode="&#x103;" horiz-adv-x="678" 
d="M271 -5q-67 0 -119 27t-81 77t-29 119q0 67 22 124t62 99.5t94.5 65.5t118.5 23q69 0 117 -24.5t74 -71t26 -112.5q0 -95 -35 -169t-99 -116t-151 -42zM286 58q66 0 117.5 31.5t81 87.5t29.5 127q0 78 -45.5 121t-127.5 43q-65 0 -117 -32t-81.5 -87.5t-29.5 -127.5
q0 -77 45.5 -120t127.5 -43zM459 0l30 151l30 106l10 110l32 158h71l-105 -525h-68zM408 602q-41 0 -74 16t-50.5 44.5t-14.5 68.5h49q-2 -39 24 -62t70 -23q42 0 73 22.5t37 62.5h52q-10 -60 -56.5 -94.5t-109.5 -34.5z" />
    <glyph glyph-name="Aogonek" unicode="&#x104;" horiz-adv-x="717" 
d="M-50 0l460 700h73l180 -700h-74l-164 659h30l-425 -659h-80zM113 187l34 60h407l11 -60h-452zM558 -220q-43 0 -70 21.5t-27 60.5q0 33 19 62.5t57 56t95 48.5l30 -29q-48 -18 -81 -39.5t-49.5 -43.5t-16.5 -47q0 -22 14.5 -34t38.5 -12q18 0 36 5t32 14l11 -39
q-19 -11 -41 -17.5t-48 -6.5z" />
    <glyph glyph-name="aogonek" unicode="&#x105;" horiz-adv-x="678" 
d="M271 -5q-67 0 -119 27t-81 77t-29 119q0 67 22 124t62 99.5t94.5 65.5t118.5 23q69 0 117 -24.5t74 -71t26 -112.5q0 -95 -35 -169t-99 -116t-151 -42zM286 58q66 0 117.5 31.5t81 87.5t29.5 127q0 78 -45.5 121t-127.5 43q-65 0 -117 -32t-81.5 -87.5t-29.5 -127.5
q0 -77 45.5 -120t127.5 -43zM459 0l30 151l30 106l10 110l32 158h71l-105 -525h-68zM422 -220q-43 0 -70 21.5t-27 60.5q0 33 19 62.5t57 56t95 48.5l30 -29q-48 -18 -81 -39.5t-49.5 -43.5t-16.5 -47q0 -22 14.5 -34t38.5 -12q18 0 36 5t32 14l11 -39q-19 -11 -41 -17.5
t-48 -6.5z" />
    <glyph glyph-name="Cacute" unicode="&#x106;" horiz-adv-x="719" 
d="M391 -6q-104 0 -177 36.5t-111.5 102t-38.5 152.5q0 86 29.5 162t85 134.5t134 91.5t177.5 33q84 0 149 -26t100 -76l-52 -46q-33 41 -83 61.5t-120 20.5q-79 0 -143.5 -27.5t-109.5 -76.5t-69.5 -112.5t-24.5 -135.5q0 -67 29.5 -118.5t87.5 -80.5t142 -29q69 0 125 21
t98 62l43 -49q-46 -49 -117 -74.5t-154 -25.5zM440 757l152 124h97l-175 -124h-74z" />
    <glyph glyph-name="cacute" unicode="&#x107;" horiz-adv-x="563" 
d="M285 -5q-75 0 -129.5 27.5t-84 77.5t-29.5 118q0 90 39 160.5t108.5 111t158.5 40.5q73 0 125.5 -26.5t81.5 -78.5l-60 -35q-22 40 -60.5 59t-92.5 19q-66 0 -118 -32t-81.5 -87.5t-29.5 -127.5q0 -77 45.5 -120t129.5 -43q51 0 94.5 19.5t71.5 56.5l51 -39
q-34 -47 -93 -73.5t-127 -26.5zM299 607l152 124h97l-175 -124h-74z" />
    <glyph glyph-name="Ccircumflex" unicode="&#x108;" horiz-adv-x="719" 
d="M391 -6q-104 0 -177 36.5t-111.5 102t-38.5 152.5q0 86 29.5 162t85 134.5t134 91.5t177.5 33q84 0 149 -26t100 -76l-52 -46q-33 41 -83 61.5t-120 20.5q-79 0 -143.5 -27.5t-109.5 -76.5t-69.5 -112.5t-24.5 -135.5q0 -67 29.5 -118.5t87.5 -80.5t142 -29q69 0 125 21
t98 62l43 -49q-46 -49 -117 -74.5t-154 -25.5zM343 757l143 124h72l115 -124h-64l-116 106h56l-138 -106h-68z" />
    <glyph glyph-name="ccircumflex" unicode="&#x109;" horiz-adv-x="563" 
d="M285 -5q-75 0 -129.5 27.5t-84 77.5t-29.5 118q0 90 39 160.5t108.5 111t158.5 40.5q73 0 125.5 -26.5t81.5 -78.5l-60 -35q-22 40 -60.5 59t-92.5 19q-66 0 -118 -32t-81.5 -87.5t-29.5 -127.5q0 -77 45.5 -120t129.5 -43q51 0 94.5 19.5t71.5 56.5l51 -39
q-34 -47 -93 -73.5t-127 -26.5zM202 607l143 124h72l115 -124h-64l-116 106h56l-138 -106h-68z" />
    <glyph glyph-name="Cdotaccent" unicode="&#x10a;" horiz-adv-x="719" 
d="M391 -6q-104 0 -177 36.5t-111.5 102t-38.5 152.5q0 86 29.5 162t85 134.5t134 91.5t177.5 33q84 0 149 -26t100 -76l-52 -46q-33 41 -83 61.5t-120 20.5q-79 0 -143.5 -27.5t-109.5 -76.5t-69.5 -112.5t-24.5 -135.5q0 -67 29.5 -118.5t87.5 -80.5t142 -29q69 0 125 21
t98 62l43 -49q-46 -49 -117 -74.5t-154 -25.5zM519 780q-20 0 -32.5 12t-12.5 31q0 23 15 38t36 15q19 0 32 -12t13 -31q0 -23 -15 -38t-36 -15z" />
    <glyph glyph-name="cdotaccent" unicode="&#x10b;" horiz-adv-x="563" 
d="M285 -5q-75 0 -129.5 27.5t-84 77.5t-29.5 118q0 90 39 160.5t108.5 111t158.5 40.5q73 0 125.5 -26.5t81.5 -78.5l-60 -35q-22 40 -60.5 59t-92.5 19q-66 0 -118 -32t-81.5 -87.5t-29.5 -127.5q0 -77 45.5 -120t129.5 -43q51 0 94.5 19.5t71.5 56.5l51 -39
q-34 -47 -93 -73.5t-127 -26.5zM378 630q-20 0 -32.5 12t-12.5 31q0 23 15 38t36 15q19 0 32 -12t13 -31q0 -23 -15 -38t-36 -15z" />
    <glyph glyph-name="Ccaron" unicode="&#x10c;" horiz-adv-x="719" 
d="M391 -6q-104 0 -177 36.5t-111.5 102t-38.5 152.5q0 86 29.5 162t85 134.5t134 91.5t177.5 33q84 0 149 -26t100 -76l-52 -46q-33 41 -83 61.5t-120 20.5q-79 0 -143.5 -27.5t-109.5 -76.5t-69.5 -112.5t-24.5 -135.5q0 -67 29.5 -118.5t87.5 -80.5t142 -29q69 0 125 21
t98 62l43 -49q-46 -49 -117 -74.5t-154 -25.5zM479 757l-114 124h64l115 -106h-56l138 106h69l-144 -124h-72z" />
    <glyph glyph-name="ccaron" unicode="&#x10d;" horiz-adv-x="563" 
d="M285 -5q-75 0 -129.5 27.5t-84 77.5t-29.5 118q0 90 39 160.5t108.5 111t158.5 40.5q73 0 125.5 -26.5t81.5 -78.5l-60 -35q-22 40 -60.5 59t-92.5 19q-66 0 -118 -32t-81.5 -87.5t-29.5 -127.5q0 -77 45.5 -120t129.5 -43q51 0 94.5 19.5t71.5 56.5l51 -39
q-34 -47 -93 -73.5t-127 -26.5zM338 607l-114 124h64l115 -106h-56l138 106h69l-144 -124h-72z" />
    <glyph glyph-name="Dcaron" unicode="&#x10e;" horiz-adv-x="826" 
d="M62 0l140 700h266q106 0 179.5 -35.5t112 -99t38.5 -150.5q0 -92 -30.5 -168.5t-88 -131.5t-137.5 -85t-179 -30h-301zM148 64h217q111 0 191.5 45t124 123.5t43.5 179.5q0 67 -29 117.5t-87.5 78.5t-147.5 28h-198zM452 756l-114 124h64l115 -106h-56l138 106h69
l-144 -124h-72z" />
    <glyph glyph-name="dcaron" unicode="&#x10f;" horiz-adv-x="678" 
d="M271 -5q-67 0 -119 27t-81 77t-29 119q0 67 22 124t62 99.5t94.5 65.5t118.5 23q69 0 117 -24.5t74 -71t26 -112.5q0 -71 -19.5 -131t-57.5 -104t-90.5 -68t-117.5 -24zM286 58q66 0 117.5 31.5t81 87.5t29.5 127q0 78 -45.5 121t-127.5 43q-65 0 -117 -32t-81.5 -87.5
t-29.5 -127.5q0 -77 45.5 -120t127.5 -43zM459 0l30 151l30 106l10 110l75 375h71l-148 -742h-68zM735 582l38 188h60l-47 -188h-51z" />
    <glyph glyph-name="Dcroat" unicode="&#x110;" horiz-adv-x="831" 
d="M67 0l140 700h266q106 0 179.5 -35.5t112 -99t38.5 -150.5q0 -92 -30.5 -168.5t-88 -131.5t-137.5 -85t-179 -30h-301zM153 64h217q111 0 191.5 45t124 123.5t43.5 179.5q0 67 -29 117.5t-87.5 78.5t-147.5 28h-198zM25 327l12 59h387l-12 -59h-387z" />
    <glyph glyph-name="dcroat" unicode="&#x111;" horiz-adv-x="678" 
d="M271 -5q-67 0 -119 27t-81 77t-29 119q0 67 22 124t62 99.5t94.5 65.5t118.5 23q69 0 117 -24.5t74 -71t26 -112.5q0 -71 -19.5 -131t-57.5 -104t-90.5 -68t-117.5 -24zM286 58q66 0 117.5 31.5t81 87.5t29.5 127q0 78 -45.5 121t-127.5 43q-65 0 -117 -32t-81.5 -87.5
t-29.5 -127.5q0 -77 45.5 -120t127.5 -43zM459 0l30 151l30 106l10 110l75 375h71l-148 -742h-68zM356 607l10 52h390l-9 -52h-391z" />
    <glyph glyph-name="Emacron" unicode="&#x112;" horiz-adv-x="669" 
d="M205 387h370l-12 -63h-370zM148 64h421l-13 -64h-494l140 700h480l-13 -64h-407zM306 795l9 47h309l-10 -47h-308z" />
    <glyph glyph-name="emacron" unicode="&#x113;" horiz-adv-x="604" 
d="M287 -5q-75 0 -130.5 27.5t-85 77.5t-29.5 119q0 90 38 160t104 110.5t149 40.5q70 0 121 -26.5t79.5 -76.5t28.5 -120q0 -16 -2 -32.5t-5 -31.5h-461l9 53h419l-29 -20q10 63 -9 106t-58.5 65.5t-94.5 22.5q-64 0 -114 -31.5t-78 -87t-28 -129.5q0 -79 45.5 -121.5
t136.5 -42.5q53 0 98 17.5t74 48.5l32 -51q-37 -37 -92.5 -57.5t-117.5 -20.5zM218 644l9 47h309l-10 -47h-308z" />
    <glyph glyph-name="Ebreve" unicode="&#x114;" horiz-adv-x="669" 
d="M205 387h370l-12 -63h-370zM148 64h421l-13 -64h-494l140 700h480l-13 -64h-407zM463 752q-41 0 -74 16t-50.5 44.5t-14.5 68.5h49q-2 -39 24 -62t70 -23q42 0 73 22.5t37 62.5h52q-10 -60 -56.5 -94.5t-109.5 -34.5z" />
    <glyph glyph-name="ebreve" unicode="&#x115;" horiz-adv-x="604" 
d="M287 -5q-75 0 -130.5 27.5t-85 77.5t-29.5 119q0 90 38 160t104 110.5t149 40.5q70 0 121 -26.5t79.5 -76.5t28.5 -120q0 -16 -2 -32.5t-5 -31.5h-461l9 53h419l-29 -20q10 63 -9 106t-58.5 65.5t-94.5 22.5q-64 0 -114 -31.5t-78 -87t-28 -129.5q0 -79 45.5 -121.5
t136.5 -42.5q53 0 98 17.5t74 48.5l32 -51q-37 -37 -92.5 -57.5t-117.5 -20.5zM375 601q-41 0 -74 16t-50.5 44.5t-14.5 68.5h49q-2 -39 24 -62t70 -23q42 0 73 22.5t37 62.5h52q-10 -60 -56.5 -94.5t-109.5 -34.5z" />
    <glyph glyph-name="Edotaccent" unicode="&#x116;" horiz-adv-x="669" 
d="M205 387h370l-12 -63h-370zM148 64h421l-13 -64h-494l140 700h480l-13 -64h-407zM464 780q-20 0 -32.5 12t-12.5 31q0 23 15 38t36 15q19 0 32 -12t13 -31q0 -23 -15 -38t-36 -15z" />
    <glyph glyph-name="edotaccent" unicode="&#x117;" horiz-adv-x="604" 
d="M287 -5q-75 0 -130.5 27.5t-85 77.5t-29.5 119q0 90 38 160t104 110.5t149 40.5q70 0 121 -26.5t79.5 -76.5t28.5 -120q0 -16 -2 -32.5t-5 -31.5h-461l9 53h419l-29 -20q10 63 -9 106t-58.5 65.5t-94.5 22.5q-64 0 -114 -31.5t-78 -87t-28 -129.5q0 -79 45.5 -121.5
t136.5 -42.5q53 0 98 17.5t74 48.5l32 -51q-37 -37 -92.5 -57.5t-117.5 -20.5zM376 629q-20 0 -32.5 12t-12.5 31q0 23 15 38t36 15q19 0 32 -12t13 -31q0 -23 -15 -38t-36 -15z" />
    <glyph glyph-name="Eogonek" unicode="&#x118;" horiz-adv-x="669" 
d="M205 387h370l-12 -63h-370zM148 64h421l-13 -64h-494l140 700h480l-13 -64h-407zM452 -220q-43 0 -70 21.5t-27 60.5q0 33 19 62.5t57 56t95 48.5l30 -29q-48 -18 -81 -39.5t-49.5 -43.5t-16.5 -47q0 -22 14.5 -34t38.5 -12q18 0 36 5t32 14l11 -39q-19 -11 -41 -17.5
t-48 -6.5z" />
    <glyph glyph-name="eogonek" unicode="&#x119;" horiz-adv-x="604" 
d="M341 -220q-40 0 -66 21.5t-26 60.5q0 27 11.5 53.5t37 52.5t64.5 50l13 -11q-25 -6 -46.5 -9t-41.5 -3q-75 0 -130 27.5t-85 77.5t-30 119q0 90 38 160t104 110.5t150 40.5q70 0 121.5 -26.5t79.5 -76.5t28 -120q0 -16 -1.5 -32.5t-4.5 -31.5h-462l9 53h419l-29 -20
q10 63 -9 106t-58.5 65.5t-95.5 22.5q-64 0 -113.5 -31.5t-77.5 -87t-28 -129.5q0 -79 45.5 -121.5t136.5 -42.5q53 0 98 17.5t74 48.5l32 -51q-10 -10 -22 -19t-22 -15q-84 -49 -119 -90.5t-35 -76.5q0 -24 14 -36t38 -12q17 0 34 5t32 14l10 -39q-18 -11 -39.5 -17.5
t-47.5 -6.5z" />
    <glyph glyph-name="Ecaron" unicode="&#x11a;" horiz-adv-x="669" 
d="M205 387h370l-12 -63h-370zM148 64h421l-13 -64h-494l140 700h480l-13 -64h-407zM424 757l-114 124h64l115 -106h-56l138 106h69l-144 -124h-72z" />
    <glyph glyph-name="ecaron" unicode="&#x11b;" horiz-adv-x="604" 
d="M287 -5q-75 0 -130.5 27.5t-85 77.5t-29.5 119q0 90 38 160t104 110.5t149 40.5q70 0 121 -26.5t79.5 -76.5t28.5 -120q0 -16 -2 -32.5t-5 -31.5h-461l9 53h419l-29 -20q10 63 -9 106t-58.5 65.5t-94.5 22.5q-64 0 -114 -31.5t-78 -87t-28 -129.5q0 -79 45.5 -121.5
t136.5 -42.5q53 0 98 17.5t74 48.5l32 -51q-37 -37 -92.5 -57.5t-117.5 -20.5zM336 606l-114 124h64l115 -106h-56l138 106h69l-144 -124h-72z" />
    <glyph glyph-name="Gcircumflex" unicode="&#x11c;" horiz-adv-x="773" 
d="M391 -6q-103 0 -176 36.5t-112 102t-39 152.5q0 86 29.5 162t85 134.5t134.5 91.5t178 33q88 0 154.5 -26.5t105.5 -75.5l-52 -45q-36 42 -88.5 61.5t-122.5 19.5q-81 0 -145.5 -27.5t-110 -75.5t-70.5 -112t-25 -137q0 -67 29.5 -118.5t88 -80.5t144.5 -29
q63 0 115.5 21t97.5 60l30 -60q-48 -40 -113.5 -63.5t-137.5 -23.5zM574 92l51 258h71l-54 -269zM341 757l143 124h72l115 -124h-64l-116 106h56l-138 -106h-68z" />
    <glyph glyph-name="gcircumflex" unicode="&#x11d;" horiz-adv-x="685" 
d="M241 -199q-73 0 -133 20.5t-101 58.5l42 54q32 -32 83.5 -51t113.5 -19q100 0 155 46t73 142l28 138l27 86l11 90l31 159h68l-92 -461q-27 -139 -102 -201t-204 -62zM276 20q-69 0 -121.5 26t-81.5 73.5t-29 112.5q0 64 22 118t62 94.5t95 63t121 22.5q63 0 112 -22
t77.5 -66t28.5 -112q1 -86 -34 -156.5t-99 -112t-153 -41.5zM290 83q66 0 117.5 30t81.5 82.5t30 119.5q0 72 -46 112.5t-128 40.5q-66 0 -118 -30t-81.5 -82.5t-29.5 -119.5q0 -72 46 -112.5t128 -40.5zM229 607l143 124h72l115 -124h-64l-116 106h56l-138 -106h-68z" />
    <glyph glyph-name="Gbreve" unicode="&#x11e;" horiz-adv-x="773" 
d="M391 -6q-103 0 -176 36.5t-112 102t-39 152.5q0 86 29.5 162t85 134.5t134.5 91.5t178 33q88 0 154.5 -26.5t105.5 -75.5l-52 -45q-36 42 -88.5 61.5t-122.5 19.5q-81 0 -145.5 -27.5t-110 -75.5t-70.5 -112t-25 -137q0 -67 29.5 -118.5t88 -80.5t144.5 -29
q63 0 115.5 21t97.5 60l30 -60q-48 -40 -113.5 -63.5t-137.5 -23.5zM574 92l51 258h71l-54 -269zM516 752q-41 0 -74 16t-50.5 44.5t-14.5 68.5h49q-2 -39 24 -62t70 -23q42 0 73 22.5t37 62.5h52q-10 -60 -56.5 -94.5t-109.5 -34.5z" />
    <glyph glyph-name="gbreve" unicode="&#x11f;" horiz-adv-x="685" 
d="M241 -199q-73 0 -133 20.5t-101 58.5l42 54q32 -32 83.5 -51t113.5 -19q100 0 155 46t73 142l28 138l27 86l11 90l31 159h68l-92 -461q-27 -139 -102 -201t-204 -62zM276 20q-69 0 -121.5 26t-81.5 73.5t-29 112.5q0 64 22 118t62 94.5t95 63t121 22.5q63 0 112 -22
t77.5 -66t28.5 -112q1 -86 -34 -156.5t-99 -112t-153 -41.5zM290 83q66 0 117.5 30t81.5 82.5t30 119.5q0 72 -46 112.5t-128 40.5q-66 0 -118 -30t-81.5 -82.5t-29.5 -119.5q0 -72 46 -112.5t128 -40.5zM404 602q-41 0 -74 16t-50.5 44.5t-14.5 68.5h49q-2 -39 24 -62
t70 -23q42 0 73 22.5t37 62.5h52q-10 -60 -56.5 -94.5t-109.5 -34.5z" />
    <glyph glyph-name="Gdotaccent" unicode="&#x120;" horiz-adv-x="773" 
d="M391 -6q-103 0 -176 36.5t-112 102t-39 152.5q0 86 29.5 162t85 134.5t134.5 91.5t178 33q88 0 154.5 -26.5t105.5 -75.5l-52 -45q-36 42 -88.5 61.5t-122.5 19.5q-81 0 -145.5 -27.5t-110 -75.5t-70.5 -112t-25 -137q0 -67 29.5 -118.5t88 -80.5t144.5 -29
q63 0 115.5 21t97.5 60l30 -60q-48 -40 -113.5 -63.5t-137.5 -23.5zM574 92l51 258h71l-54 -269zM517 780q-20 0 -32.5 12t-12.5 31q0 23 15 38t36 15q19 0 32 -12t13 -31q0 -23 -15 -38t-36 -15z" />
    <glyph glyph-name="gdotaccent" unicode="&#x121;" horiz-adv-x="685" 
d="M241 -199q-73 0 -133 20.5t-101 58.5l42 54q32 -32 83.5 -51t113.5 -19q100 0 155 46t73 142l28 138l27 86l11 90l31 159h68l-92 -461q-27 -139 -102 -201t-204 -62zM276 20q-69 0 -121.5 26t-81.5 73.5t-29 112.5q0 64 22 118t62 94.5t95 63t121 22.5q63 0 112 -22
t77.5 -66t28.5 -112q1 -86 -34 -156.5t-99 -112t-153 -41.5zM290 83q66 0 117.5 30t81.5 82.5t30 119.5q0 72 -46 112.5t-128 40.5q-66 0 -118 -30t-81.5 -82.5t-29.5 -119.5q0 -72 46 -112.5t128 -40.5zM405 630q-20 0 -32.5 12t-12.5 31q0 23 15 38t36 15q19 0 32 -12
t13 -31q0 -23 -15 -38t-36 -15z" />
    <glyph glyph-name="uni0122" unicode="&#x122;" horiz-adv-x="773" 
d="M391 -6q-103 0 -176 36.5t-112 102t-39 152.5q0 86 29.5 162t85 134.5t134.5 91.5t178 33q88 0 154.5 -26.5t105.5 -75.5l-52 -45q-36 42 -88.5 61.5t-122.5 19.5q-81 0 -145.5 -27.5t-110 -75.5t-70.5 -112t-25 -137q0 -67 29.5 -118.5t88 -80.5t144.5 -29
q63 0 115.5 21t97.5 60l30 -60q-48 -40 -113.5 -63.5t-137.5 -23.5zM574 92l51 258h71l-54 -269zM267 -262l49 108l4 -28q-18 0 -29 10.5t-11 24.5q0 19 11.5 31t31.5 12q21 0 32 -10.5t11 -25.5q0 -12 -4 -21.5t-14 -24.5l-43 -76h-38z" />
    <glyph glyph-name="uni0123" unicode="&#x123;" horiz-adv-x="685" 
d="M241 -199q-73 0 -133 20.5t-101 58.5l42 54q32 -32 83.5 -51t113.5 -19q100 0 155 46t73 142l28 138l27 86l11 90l31 159h68l-92 -461q-27 -139 -102 -201t-204 -62zM276 20q-69 0 -121.5 26t-81.5 73.5t-29 112.5q0 64 22 118t62 94.5t95 63t121 22.5q63 0 112 -22
t77.5 -66t28.5 -112q1 -86 -34 -156.5t-99 -112t-153 -41.5zM290 83q66 0 117.5 30t81.5 82.5t30 119.5q0 72 -46 112.5t-128 40.5q-66 0 -118 -30t-81.5 -82.5t-29.5 -119.5q0 -72 46 -112.5t128 -40.5zM400 602q-21 0 -33 11t-12 26q0 11 4 21t14 24l55 97h42l-61 -129
l-5 28q20 0 32 -9.5t12 -25.5q0 -18 -12.5 -30.5t-35.5 -12.5z" />
    <glyph glyph-name="Hcircumflex" unicode="&#x124;" horiz-adv-x="813" 
d="M713 700h73l-140 -700h-73zM135 0h-73l140 700h73zM645 323h-452l12 65h453zM340 757l143 124h72l115 -124h-64l-116 106h56l-138 -106h-68z" />
    <glyph glyph-name="hcircumflex" unicode="&#x125;" horiz-adv-x="676" 
d="M408 530q71 0 116.5 -27.5t63 -79.5t2.5 -124l-60 -299h-71l60 300q16 78 -16.5 122t-114.5 44q-84 0 -139.5 -46t-74.5 -138l-56 -282h-71l148 742h71l-74 -368l-18 26q38 68 98.5 99t135.5 31zM77 799l143 124h72l115 -124h-64l-116 106h56l-138 -106h-68z" />
    <glyph glyph-name="Hbar" unicode="&#x126;" horiz-adv-x="823" 
d="M718 700h73l-140 -700h-73zM140 0h-73l140 700h73zM650 323h-452l12 65h453zM65 518l10 60h798l-11 -60h-797z" />
    <glyph glyph-name="hbar" unicode="&#x127;" horiz-adv-x="676" 
d="M408 530q71 0 116.5 -27.5t63 -79.5t2.5 -124l-60 -299h-71l60 300q16 78 -16.5 122t-114.5 44q-84 0 -139.5 -46t-74.5 -138l-56 -282h-71l148 742h71l-74 -368l-18 26q38 68 98.5 99t135.5 31zM69 607l10 52h390l-9 -52h-391z" />
    <glyph glyph-name="Itilde" unicode="&#x128;" horiz-adv-x="302" 
d="M62 0l140 700h73l-140 -700h-73zM327 763q-23 0 -40.5 10t-31.5 23.5t-28 24t-31 10.5q-22 0 -37 -17.5t-20 -46.5h-43q8 52 35 81t66 29q23 0 40.5 -10.5t31.5 -24t28 -23.5t30 -10q23 0 38.5 17.5t19.5 44.5h43q-8 -50 -34.5 -79t-66.5 -29z" />
    <glyph glyph-name="itilde" unicode="&#x129;" horiz-adv-x="269" 
d="M47 0l104 525h71l-104 -525h-71zM269 613q-21 0 -36 10t-26 23.5t-21.5 24t-23.5 10.5q-17 0 -29 -17t-15 -47h-43q6 52 29.5 81t59.5 29q21 0 35.5 -10.5t25.5 -23.5t21.5 -23t22.5 -10q18 0 30.5 16.5t15.5 44.5h42q-5 -50 -28.5 -79t-59.5 -29z" />
    <glyph glyph-name="Imacron" unicode="&#x12a;" horiz-adv-x="302" 
d="M62 0l140 700h73l-140 -700h-73zM133 795l8 47h252l-10 -47h-250z" />
    <glyph glyph-name="imacron" unicode="&#x12b;" horiz-adv-x="269" 
d="M47 0l104 525h71l-104 -525h-71zM87 645l8 47h252l-10 -47h-250z" />
    <glyph glyph-name="Ibreve" unicode="&#x12c;" horiz-adv-x="302" 
d="M62 0l140 700h73l-140 -700h-73zM260 752q-41 0 -74 16t-50.5 44.5t-14.5 68.5h49q-2 -39 24 -62t70 -23q42 0 73 22.5t37 62.5h52q-10 -60 -56.5 -94.5t-109.5 -34.5z" />
    <glyph glyph-name="ibreve" unicode="&#x12d;" horiz-adv-x="269" 
d="M47 0l104 525h71l-104 -525h-71zM216 602q-38 0 -66 16t-41 44.5t-8 68.5h46q-4 -41 14.5 -63t55.5 -22q79 0 89 85h49q-8 -62 -44.5 -95.5t-94.5 -33.5z" />
    <glyph glyph-name="Iogonek" unicode="&#x12e;" horiz-adv-x="302" 
d="M62 0l140 700h73l-140 -700h-73zM77 -220q-38 0 -58.5 21t-20.5 55q0 50 33 93.5t81 76.5l23 -26q-41 -34 -62.5 -69.5t-21.5 -67.5q0 -19 10.5 -29.5t27.5 -10.5q10 0 19 4t18 10l9 -38q-9 -9 -25 -14t-33 -5z" />
    <glyph glyph-name="iogonek" unicode="&#x12f;" horiz-adv-x="269" 
d="M47 0l104 525h71l-104 -525h-71zM217 641q-21 0 -34.5 14t-13.5 33q0 22 15.5 38t39.5 16q21 0 35 -13t14 -33q0 -24 -16 -39.5t-40 -15.5zM59 -220q-38 0 -58.5 21t-20.5 55q0 50 33 93.5t81 76.5l23 -26q-41 -34 -62.5 -69.5t-21.5 -67.5q0 -19 10.5 -29.5t27.5 -10.5
q10 0 19 4t18 10l9 -38q-9 -9 -25 -14t-33 -5z" />
    <glyph glyph-name="Idotaccent" unicode="&#x130;" horiz-adv-x="302" 
d="M62 0l140 700h73l-140 -700h-73zM261 780q-20 0 -32.5 12t-12.5 31q0 23 15 38t36 15q19 0 32 -12t13 -31q0 -23 -15 -38t-36 -15z" />
    <glyph glyph-name="dotlessi" unicode="&#x131;" horiz-adv-x="269" 
d="M47 0l104 525h71l-104 -525h-71z" />
    <glyph glyph-name="IJ" unicode="&#x132;" horiz-adv-x="718" 
d="M293 -6q-75 0 -134 19t-100 50l38 59q40 -30 91 -46t109 -16q102 0 162 57t84 182l80 401h74l-81 -406q-31 -153 -110.5 -226.5t-212.5 -73.5zM116 302l80 398h73l-80 -398h-73z" />
    <glyph glyph-name="ij" unicode="&#x133;" horiz-adv-x="544" 
d="M47 0l104 525h71l-104 -525h-71zM217 641q-21 0 -34.5 14t-13.5 33q0 22 15.5 38t39.5 16q21 0 35 -13t14 -33q0 -24 -16 -39.5t-40 -15.5zM206 -199q-34 0 -62.5 8.5t-48.5 24.5l33 55q31 -27 79 -27q43 0 68.5 23.5t36.5 76.5l113 563h71l-113 -565q-32 -159 -177 -159
zM490 641q-21 0 -34.5 14t-13.5 33q0 22 15.5 38t39.5 16q21 0 35 -13t14 -33q0 -24 -16 -39.5t-40 -15.5z" />
    <glyph glyph-name="Jcircumflex" unicode="&#x134;" horiz-adv-x="501" 
d="M154 -6q-68 0 -117.5 27t-73.5 74l52 47q19 -39 55.5 -61.5t85.5 -22.5q61 0 99.5 34.5t54.5 116.5l85 427h-255l13 64h327l-98 -491q-15 -79 -45.5 -126t-76 -68t-106.5 -21zM163 757l143 124h72l115 -124h-64l-116 106h56l-138 -106h-68z" />
    <glyph glyph-name="jcircumflex" unicode="&#x135;" horiz-adv-x="274" 
d="M-63 -199q-34 0 -62.5 8.5t-48.5 24.5l33 55q31 -27 79 -27q43 0 68.5 23.5t36.5 76.5l113 563h71l-113 -565q-32 -159 -177 -159zM68 607l120 124h69l91 -124h-62l-88 106h47l-112 -106h-65z" />
    <glyph glyph-name="uni0136" unicode="&#x136;" horiz-adv-x="711" 
d="M163 176l11 91l505 433h97l-378 -325l-44 -36zM62 0l140 700h73l-140 -700h-73zM570 0l-238 348l50 49l271 -397h-83zM236 -262l49 108l4 -28q-18 0 -29 10.5t-11 24.5q0 19 11.5 31t31.5 12q21 0 32 -10.5t11 -25.5q0 -12 -4 -21.5t-14 -24.5l-43 -76h-38z" />
    <glyph glyph-name="uni0137" unicode="&#x137;" horiz-adv-x="590" 
d="M132 140l14 87l382 298h101l-287 -223l-39 -30zM47 0l148 742h71l-148 -742h-71zM457 0l-166 273l49 53l200 -326h-83zM175 -262l49 108l4 -28q-18 0 -29 10.5t-11 24.5q0 19 11.5 31t31.5 12q21 0 32 -10.5t11 -25.5q0 -12 -4 -21.5t-14 -24.5l-43 -76h-38z" />
    <glyph glyph-name="kgreenlandic" unicode="&#x138;" horiz-adv-x="590" 
d="M132 140l14 87l382 298h101l-287 -223l-39 -30zM47 0l104 525h71l-104 -525h-71zM457 0l-166 273l49 53l200 -326h-83z" />
    <glyph glyph-name="Lacute" unicode="&#x139;" horiz-adv-x="589" 
d="M62 0l140 700h73l-127 -636h392l-13 -64h-465zM182 757l152 124h97l-175 -124h-74z" />
    <glyph glyph-name="lacute" unicode="&#x13a;" horiz-adv-x="269" 
d="M47 0l148 742h71l-148 -742h-71zM174 799l152 124h97l-175 -124h-74z" />
    <glyph glyph-name="uni013B" unicode="&#x13b;" horiz-adv-x="589" 
d="M62 0l140 700h73l-127 -636h392l-13 -64h-465zM221 -262l49 108l4 -28q-18 0 -29 10.5t-11 24.5q0 19 11.5 31t31.5 12q21 0 32 -10.5t11 -25.5q0 -12 -4 -21.5t-14 -24.5l-43 -76h-38z" />
    <glyph glyph-name="uni013C" unicode="&#x13c;" horiz-adv-x="269" 
d="M47 0l148 742h71l-148 -742h-71zM-2 -262l49 108l4 -28q-18 0 -29 10.5t-11 24.5q0 19 11.5 31t31.5 12q21 0 32 -10.5t11 -25.5q0 -12 -4 -21.5t-14 -24.5l-43 -76h-38z" />
    <glyph glyph-name="Lcaron" unicode="&#x13d;" horiz-adv-x="589" 
d="M62 0l140 700h73l-127 -636h392l-13 -64h-465zM496 540l38 188h60l-47 -188h-51z" />
    <glyph glyph-name="lcaron" unicode="&#x13e;" horiz-adv-x="269" 
d="M47 0l148 742h71l-148 -742h-71zM326 582l38 188h60l-47 -188h-51z" />
    <glyph glyph-name="Ldot" unicode="&#x13f;" horiz-adv-x="589" 
d="M62 0l140 700h73l-127 -636h392l-13 -64h-465zM468 332q-20 0 -34 14t-14 33q0 24 15.5 38.5t36.5 14.5q19 0 33 -13.5t14 -34.5q0 -22 -15.5 -37t-35.5 -15z" />
    <glyph glyph-name="ldot" unicode="&#x140;" horiz-adv-x="314" 
d="M47 0l148 742h71l-148 -742h-71zM309 309q-18 0 -31 13t-13 32q0 21 14 35t33 14t31.5 -12.5t12.5 -32.5t-13.5 -34.5t-33.5 -14.5z" />
    <glyph glyph-name="Lslash" unicode="&#x141;" horiz-adv-x="594" 
d="M67 0l140 700h73l-127 -636h392l-13 -64h-465zM54 256l-31 47l335 219l31 -46z" />
    <glyph glyph-name="lslash" unicode="&#x142;" horiz-adv-x="279" 
d="M52 0l148 742h71l-148 -742h-71zM34 242l-29 45l279 182l28 -45z" />
    <glyph glyph-name="Nacute" unicode="&#x143;" horiz-adv-x="813" 
d="M62 0l140 700h60l353 -611l-23 4l121 607h73l-140 -700h-60l-353 611l23 -4l-121 -607h-73zM438 757l152 124h97l-175 -124h-74z" />
    <glyph glyph-name="nacute" unicode="&#x144;" horiz-adv-x="676" 
d="M408 530q71 0 116.5 -27.5t63 -79.5t2.5 -124l-60 -299h-71l60 300q16 78 -16.5 122t-114.5 44q-84 0 -139.5 -46t-74.5 -138l-56 -282h-71l104 525h68l-30 -151l-15 26q38 68 98.5 99t135.5 31zM341 607l152 124h97l-175 -124h-74z" />
    <glyph glyph-name="uni0145" unicode="&#x145;" horiz-adv-x="813" 
d="M62 0l140 700h60l353 -611l-23 4l121 607h73l-140 -700h-60l-353 611l23 -4l-121 -607h-73zM270 -262l49 108l4 -28q-18 0 -29 10.5t-11 24.5q0 19 11.5 31t31.5 12q21 0 32 -10.5t11 -25.5q0 -12 -4 -21.5t-14 -24.5l-43 -76h-38z" />
    <glyph glyph-name="uni0146" unicode="&#x146;" horiz-adv-x="676" 
d="M408 530q71 0 116.5 -27.5t63 -79.5t2.5 -124l-60 -299h-71l60 300q16 78 -16.5 122t-114.5 44q-84 0 -139.5 -46t-74.5 -138l-56 -282h-71l104 525h68l-30 -151l-15 26q38 68 98.5 99t135.5 31zM203 -262l49 108l4 -28q-18 0 -29 10.5t-11 24.5q0 19 11.5 31t31.5 12
q21 0 32 -10.5t11 -25.5q0 -12 -4 -21.5t-14 -24.5l-43 -76h-38z" />
    <glyph glyph-name="Ncaron" unicode="&#x147;" horiz-adv-x="813" 
d="M62 0l140 700h60l353 -611l-23 4l121 607h73l-140 -700h-60l-353 611l23 -4l-121 -607h-73zM477 757l-114 124h64l115 -106h-56l138 106h69l-144 -124h-72z" />
    <glyph glyph-name="ncaron" unicode="&#x148;" horiz-adv-x="676" 
d="M408 530q71 0 116.5 -27.5t63 -79.5t2.5 -124l-60 -299h-71l60 300q16 78 -16.5 122t-114.5 44q-84 0 -139.5 -46t-74.5 -138l-56 -282h-71l104 525h68l-30 -151l-15 26q38 68 98.5 99t135.5 31zM380 607l-114 124h64l115 -106h-56l138 106h69l-144 -124h-72z" />
    <glyph glyph-name="napostrophe" unicode="&#x149;" horiz-adv-x="712" 
d="M28 498l80 184l7 -44q-22 0 -37 15t-15 37q0 25 17 41t39 16t36.5 -14.5t14.5 -37.5q0 -13 -4.5 -24.5t-13.5 -28.5l-76 -144h-48zM443 530q71 0 116.5 -27.5t63 -79.5t2.5 -124l-60 -299h-71l60 300q16 78 -16.5 122t-114.5 44q-84 0 -139.5 -46t-74.5 -138l-56 -282
h-71l104 525h68l-30 -151l-15 26q38 68 98.5 99t135.5 31z" />
    <glyph glyph-name="Eng" unicode="&#x14a;" horiz-adv-x="813" 
d="M62 0l140 700h60l353 -611l-29 -89l-353 611l23 -3l-121 -608h-73zM421 -199q-57 0 -104.5 24t-70.5 63l44 49q19 -33 53.5 -52.5t80.5 -19.5q61 0 98.5 34t53.5 115l137 686h73l-135 -676q-17 -84 -47.5 -132.5t-76 -69.5t-106.5 -21z" />
    <glyph glyph-name="eng" unicode="&#x14b;" horiz-adv-x="676" 
d="M346 -199q-34 0 -62.5 8.5t-48.5 24.5l33 55q31 -27 79 -27q43 0 68 23.5t36 76.5l68 338q16 78 -16.5 122t-114.5 44q-84 0 -139.5 -46t-74.5 -138l-56 -282h-71l104 525h68l-30 -151l-15 26q38 68 98.5 99t135.5 31q71 0 116.5 -27.5t63 -79.5t2.5 -124l-68 -339
q-31 -159 -176 -159z" />
    <glyph glyph-name="Omacron" unicode="&#x14c;" horiz-adv-x="839" 
d="M388 -6q-103 0 -176 36.5t-110.5 102t-37.5 152.5q0 86 29 162t84.5 134.5t133.5 91.5t175 33q104 0 176.5 -36.5t110 -102t37.5 -152.5q0 -86 -29 -162t-84.5 -134.5t-133.5 -91.5t-175 -33zM395 60q78 0 141 27.5t108 76.5t69 112.5t24 135.5q0 68 -29.5 119t-86.5 80
t-142 29q-78 0 -141 -27.5t-107.5 -76.5t-69 -112.5t-24.5 -135.5q0 -67 29.5 -118.5t86.5 -80.5t142 -29zM371 795l9 47h309l-10 -47h-308z" />
    <glyph glyph-name="omacron" unicode="&#x14d;" horiz-adv-x="627" 
d="M281 -5q-73 0 -126.5 27.5t-83 77.5t-29.5 118q0 90 39 160.5t108 111t157 40.5q73 0 126.5 -27t83 -77t29.5 -118q0 -90 -39 -160.5t-107.5 -111.5t-157.5 -41zM286 58q66 0 117.5 31.5t81 87.5t29.5 127q0 78 -45.5 121t-127.5 43q-65 0 -117 -32t-81.5 -87.5
t-29.5 -127.5q0 -77 45.5 -120t127.5 -43zM234 645l9 47h309l-10 -47h-308z" />
    <glyph glyph-name="Obreve" unicode="&#x14e;" horiz-adv-x="839" 
d="M388 -6q-103 0 -176 36.5t-110.5 102t-37.5 152.5q0 86 29 162t84.5 134.5t133.5 91.5t175 33q104 0 176.5 -36.5t110 -102t37.5 -152.5q0 -86 -29 -162t-84.5 -134.5t-133.5 -91.5t-175 -33zM395 60q78 0 141 27.5t108 76.5t69 112.5t24 135.5q0 68 -29.5 119t-86.5 80
t-142 29q-78 0 -141 -27.5t-107.5 -76.5t-69 -112.5t-24.5 -135.5q0 -67 29.5 -118.5t86.5 -80.5t142 -29zM528 752q-41 0 -74 16t-50.5 44.5t-14.5 68.5h49q-2 -39 24 -62t70 -23q42 0 73 22.5t37 62.5h52q-10 -60 -56.5 -94.5t-109.5 -34.5z" />
    <glyph glyph-name="obreve" unicode="&#x14f;" horiz-adv-x="627" 
d="M281 -5q-73 0 -126.5 27.5t-83 77.5t-29.5 118q0 90 39 160.5t108 111t157 40.5q73 0 126.5 -27t83 -77t29.5 -118q0 -90 -39 -160.5t-107.5 -111.5t-157.5 -41zM286 58q66 0 117.5 31.5t81 87.5t29.5 127q0 78 -45.5 121t-127.5 43q-65 0 -117 -32t-81.5 -87.5
t-29.5 -127.5q0 -77 45.5 -120t127.5 -43zM391 602q-41 0 -74 16t-50.5 44.5t-14.5 68.5h49q-2 -39 24 -62t70 -23q42 0 73 22.5t37 62.5h52q-10 -60 -56.5 -94.5t-109.5 -34.5z" />
    <glyph glyph-name="Ohungarumlaut" unicode="&#x150;" horiz-adv-x="839" 
d="M388 -6q-103 0 -176 36.5t-110.5 102t-37.5 152.5q0 86 29 162t84.5 134.5t133.5 91.5t175 33q104 0 176.5 -36.5t110 -102t37.5 -152.5q0 -86 -29 -162t-84.5 -134.5t-133.5 -91.5t-175 -33zM395 60q78 0 141 27.5t108 76.5t69 112.5t24 135.5q0 68 -29.5 119t-86.5 80
t-142 29q-78 0 -141 -27.5t-107.5 -76.5t-69 -112.5t-24.5 -135.5q0 -67 29.5 -118.5t86.5 -80.5t142 -29zM567 757l109 124h82l-127 -124h-64zM403 757l110 124h82l-126 -124h-66z" />
    <glyph glyph-name="ohungarumlaut" unicode="&#x151;" horiz-adv-x="627" 
d="M281 -5q-73 0 -126.5 27.5t-83 77.5t-29.5 118q0 90 39 160.5t108 111t157 40.5q73 0 126.5 -27t83 -77t29.5 -118q0 -90 -39 -160.5t-107.5 -111.5t-157.5 -41zM286 58q66 0 117.5 31.5t81 87.5t29.5 127q0 78 -45.5 121t-127.5 43q-65 0 -117 -32t-81.5 -87.5
t-29.5 -127.5q0 -77 45.5 -120t127.5 -43zM430 607l109 124h82l-127 -124h-64zM266 607l110 124h82l-126 -124h-66z" />
    <glyph glyph-name="OE" unicode="&#x152;" horiz-adv-x="1121" 
d="M394 0q-105 0 -179 35.5t-112.5 99.5t-38.5 150q0 92 30.5 168.5t88 131.5t137.5 85t179 30h174l-12 -64h-164q-111 0 -191.5 -45t-124.5 -123.5t-44 -179.5q0 -67 29.5 -117.5t88 -78.5t146.5 -28h144l-12 -64h-139zM514 0l140 700h480l-14 -64h-406l-114 -572h421
l-13 -64h-494zM645 324l12 63h370l-12 -63h-370z" />
    <glyph glyph-name="oe" unicode="&#x153;" horiz-adv-x="1069" 
d="M276 -5q-70 0 -123 27.5t-82 77.5t-29 118q0 90 38 160.5t106 111t154 40.5q72 0 124.5 -27t81 -77t28.5 -118q0 -90 -38 -160.5t-105 -111.5t-155 -41zM286 58q66 0 117.5 31.5t81 87.5t29.5 127q0 78 -45.5 121t-127.5 43q-65 0 -117 -32t-81.5 -87.5t-29.5 -127.5
q0 -77 45.5 -120t127.5 -43zM752 -5q-74 0 -128.5 27.5t-83.5 77.5t-29 119q0 90 38 160t103 110.5t147 40.5q70 0 120.5 -26.5t79 -76.5t28.5 -120q0 -16 -1.5 -32.5t-5.5 -31.5h-461l10 53h418l-29 -20q10 63 -8.5 106t-58.5 65.5t-95 22.5q-64 0 -114 -31.5t-78 -87
t-28 -129.5q0 -79 46 -121.5t136 -42.5q53 0 98 17.5t74 48.5l32 -51q-36 -37 -92 -57.5t-118 -20.5z" />
    <glyph glyph-name="Racute" unicode="&#x154;" horiz-adv-x="723" 
d="M62 0l140 700h252q119 0 184.5 -52t65.5 -146q0 -89 -39.5 -151.5t-112.5 -95.5t-173 -33h-231l39 34l-51 -256h-74zM541 0l-143 254h79l144 -254h-80zM185 250l-25 36h220q119 0 184.5 53t65.5 156q0 69 -47 105t-134 36h-217l38 36zM400 757l152 124h97l-175 -124h-74z
" />
    <glyph glyph-name="racute" unicode="&#x155;" horiz-adv-x="401" 
d="M47 0l104 525h68l-30 -155l-8 27q35 69 92.5 101t143.5 32l-13 -69q-5 0 -9.5 0.5t-10.5 0.5q-84 0 -138.5 -48.5t-74.5 -146.5l-53 -267h-71zM233 607l152 124h97l-175 -124h-74z" />
    <glyph glyph-name="uni0156" unicode="&#x156;" horiz-adv-x="723" 
d="M62 0l140 700h252q119 0 184.5 -52t65.5 -146q0 -89 -39.5 -151.5t-112.5 -95.5t-173 -33h-231l39 34l-51 -256h-74zM541 0l-143 254h79l144 -254h-80zM185 250l-25 36h220q119 0 184.5 53t65.5 156q0 69 -47 105t-134 36h-217l38 36zM232 -262l49 108l4 -28
q-18 0 -29 10.5t-11 24.5q0 19 11.5 31t31.5 12q21 0 32 -10.5t11 -25.5q0 -12 -4 -21.5t-14 -24.5l-43 -76h-38z" />
    <glyph glyph-name="uni0157" unicode="&#x157;" horiz-adv-x="401" 
d="M47 0l104 525h68l-30 -155l-8 27q35 69 92.5 101t143.5 32l-13 -69q-5 0 -9.5 0.5t-10.5 0.5q-84 0 -138.5 -48.5t-74.5 -146.5l-53 -267h-71zM-2 -262l49 108l4 -28q-18 0 -29 10.5t-11 24.5q0 19 11.5 31t31.5 12q21 0 32 -10.5t11 -25.5q0 -12 -4 -21.5t-14 -24.5
l-43 -76h-38z" />
    <glyph glyph-name="Rcaron" unicode="&#x158;" horiz-adv-x="723" 
d="M62 0l140 700h252q119 0 184.5 -52t65.5 -146q0 -89 -39.5 -151.5t-112.5 -95.5t-173 -33h-231l39 34l-51 -256h-74zM541 0l-143 254h79l144 -254h-80zM185 250l-25 36h220q119 0 184.5 53t65.5 156q0 69 -47 105t-134 36h-217l38 36zM439 757l-114 124h64l115 -106h-56
l138 106h69l-144 -124h-72z" />
    <glyph glyph-name="rcaron" unicode="&#x159;" horiz-adv-x="401" 
d="M47 0l104 525h68l-30 -155l-8 27q35 69 92.5 101t143.5 32l-13 -69q-5 0 -9.5 0.5t-10.5 0.5q-84 0 -138.5 -48.5t-74.5 -146.5l-53 -267h-71zM272 607l-114 124h64l115 -106h-56l138 106h69l-144 -124h-72z" />
    <glyph glyph-name="Sacute" unicode="&#x15a;" horiz-adv-x="615" 
d="M266 -6q-51 0 -100.5 11.5t-89.5 32t-64 45.5l36 58q24 -25 59.5 -44t78.5 -29.5t86 -10.5q62 0 108.5 16t72.5 47t26 75q0 35 -20 56.5t-52 35t-71 24.5t-78 24t-71.5 32t-52 50t-19.5 78q0 66 36 113.5t99 72.5t145 25q62 0 119.5 -15t97.5 -45l-31 -60
q-38 28 -87 42.5t-103 14.5q-61 0 -107 -17t-71.5 -48.5t-25.5 -75.5q0 -35 19.5 -57t52 -36t71.5 -25.5t78 -24t71.5 -31t52.5 -48t20 -75.5q0 -67 -37 -114.5t-101.5 -72t-147.5 -24.5zM351 757l152 124h97l-175 -124h-74z" />
    <glyph glyph-name="sacute" unicode="&#x15b;" horiz-adv-x="488" 
d="M200 -5q-64 0 -121 18t-88 46l34 56q30 -27 79 -42.5t103 -15.5q75 0 115.5 25t40.5 69q0 30 -21.5 45.5t-55.5 24t-72 16.5t-72 20.5t-55.5 38.5t-21.5 70q0 50 28.5 87t79.5 57t120 20q50 0 99 -13t79 -36l-30 -57q-31 24 -72 34.5t-82 10.5q-73 0 -112.5 -26.5
t-39.5 -69.5q0 -30 21.5 -46t55.5 -25t72.5 -16.5t72 -20.5t55 -37.5t21.5 -68.5q0 -52 -29 -88.5t-81.5 -56t-122.5 -19.5zM244 607l152 124h97l-175 -124h-74z" />
    <glyph glyph-name="Scircumflex" unicode="&#x15c;" horiz-adv-x="615" 
d="M266 -6q-51 0 -100.5 11.5t-89.5 32t-64 45.5l36 58q24 -25 59.5 -44t78.5 -29.5t86 -10.5q62 0 108.5 16t72.5 47t26 75q0 35 -20 56.5t-52 35t-71 24.5t-78 24t-71.5 32t-52 50t-19.5 78q0 66 36 113.5t99 72.5t145 25q62 0 119.5 -15t97.5 -45l-31 -60
q-38 28 -87 42.5t-103 14.5q-61 0 -107 -17t-71.5 -48.5t-25.5 -75.5q0 -35 19.5 -57t52 -36t71.5 -25.5t78 -24t71.5 -31t52.5 -48t20 -75.5q0 -67 -37 -114.5t-101.5 -72t-147.5 -24.5zM254 757l143 124h72l115 -124h-64l-116 106h56l-138 -106h-68z" />
    <glyph glyph-name="scircumflex" unicode="&#x15d;" horiz-adv-x="488" 
d="M200 -5q-64 0 -121 18t-88 46l34 56q30 -27 79 -42.5t103 -15.5q75 0 115.5 25t40.5 69q0 30 -21.5 45.5t-55.5 24t-72 16.5t-72 20.5t-55.5 38.5t-21.5 70q0 50 28.5 87t79.5 57t120 20q50 0 99 -13t79 -36l-30 -57q-31 24 -72 34.5t-82 10.5q-73 0 -112.5 -26.5
t-39.5 -69.5q0 -30 21.5 -46t55.5 -25t72.5 -16.5t72 -20.5t55 -37.5t21.5 -68.5q0 -52 -29 -88.5t-81.5 -56t-122.5 -19.5zM147 607l143 124h72l115 -124h-64l-116 106h56l-138 -106h-68z" />
    <glyph glyph-name="Scedilla" unicode="&#x15e;" horiz-adv-x="615" 
d="M266 -6q-51 0 -100.5 11.5t-89.5 32t-64 45.5l36 58q24 -25 59.5 -44t78.5 -29.5t86 -10.5q62 0 108.5 16t72.5 47t26 75q0 35 -20 56.5t-52 35t-71 24.5t-78 24t-71.5 32t-52 50t-19.5 78q0 66 36 113.5t99 72.5t145 25q62 0 119.5 -15t97.5 -45l-31 -60
q-38 28 -87 42.5t-103 14.5q-61 0 -107 -17t-71.5 -48.5t-25.5 -75.5q0 -35 19.5 -57t52 -36t71.5 -25.5t78 -24t71.5 -31t52.5 -48t20 -75.5q0 -67 -37 -114.5t-101.5 -72t-147.5 -24.5zM209 -220q-25 0 -46.5 6t-37.5 17l22 38q14 -9 30.5 -14t36.5 -5q33 0 50.5 15
t17.5 38q0 19 -14 29.5t-41 10.5h-22l42 91h43l-26 -57q33 -5 51.5 -23.5t18.5 -47.5q0 -44 -34.5 -71t-90.5 -27z" />
    <glyph glyph-name="scedilla" unicode="&#x15f;" horiz-adv-x="488" 
d="M200 -5q-64 0 -121 18t-88 46l34 56q30 -27 79 -42.5t103 -15.5q75 0 115.5 25t40.5 69q0 30 -21.5 45.5t-55.5 24t-72 16.5t-72 20.5t-55.5 38.5t-21.5 70q0 50 28.5 87t79.5 57t120 20q50 0 99 -13t79 -36l-30 -57q-31 24 -72 34.5t-82 10.5q-73 0 -112.5 -26.5
t-39.5 -69.5q0 -30 21.5 -46t55.5 -25t72.5 -16.5t72 -20.5t55 -37.5t21.5 -68.5q0 -52 -29 -88.5t-81.5 -56t-122.5 -19.5zM132 -220q-25 0 -46.5 6t-37.5 17l22 38q14 -9 30.5 -14t36.5 -5q33 0 50.5 15t17.5 38q0 19 -14 29.5t-41 10.5h-22l42 91h43l-26 -57
q33 -5 51.5 -23.5t18.5 -47.5q0 -44 -34.5 -71t-90.5 -27z" />
    <glyph glyph-name="Scaron" unicode="&#x160;" horiz-adv-x="615" 
d="M266 -6q-51 0 -100.5 11.5t-89.5 32t-64 45.5l36 58q24 -25 59.5 -44t78.5 -29.5t86 -10.5q62 0 108.5 16t72.5 47t26 75q0 35 -20 56.5t-52 35t-71 24.5t-78 24t-71.5 32t-52 50t-19.5 78q0 66 36 113.5t99 72.5t145 25q62 0 119.5 -15t97.5 -45l-31 -60
q-38 28 -87 42.5t-103 14.5q-61 0 -107 -17t-71.5 -48.5t-25.5 -75.5q0 -35 19.5 -57t52 -36t71.5 -25.5t78 -24t71.5 -31t52.5 -48t20 -75.5q0 -67 -37 -114.5t-101.5 -72t-147.5 -24.5zM390 757l-114 124h64l115 -106h-56l138 106h69l-144 -124h-72z" />
    <glyph glyph-name="scaron" unicode="&#x161;" horiz-adv-x="488" 
d="M200 -5q-64 0 -121 18t-88 46l34 56q30 -27 79 -42.5t103 -15.5q75 0 115.5 25t40.5 69q0 30 -21.5 45.5t-55.5 24t-72 16.5t-72 20.5t-55.5 38.5t-21.5 70q0 50 28.5 87t79.5 57t120 20q50 0 99 -13t79 -36l-30 -57q-31 24 -72 34.5t-82 10.5q-73 0 -112.5 -26.5
t-39.5 -69.5q0 -30 21.5 -46t55.5 -25t72.5 -16.5t72 -20.5t55 -37.5t21.5 -68.5q0 -52 -29 -88.5t-81.5 -56t-122.5 -19.5zM283 607l-114 124h64l115 -106h-56l138 106h69l-144 -124h-72z" />
    <glyph glyph-name="uni0162" unicode="&#x162;" horiz-adv-x="574" 
d="M198 0l127 636h-247l13 64h566l-13 -64h-246l-127 -636h-73zM176 -220q-25 0 -46.5 6t-37.5 17l22 38q14 -9 30.5 -14t36.5 -5q33 0 50.5 15t17.5 38q0 19 -14 29.5t-41 10.5h-22l42 91h43l-26 -57q33 -5 51.5 -23.5t18.5 -47.5q0 -44 -34.5 -71t-90.5 -27z" />
    <glyph glyph-name="uni0163" unicode="&#x163;" horiz-adv-x="406" 
d="M214 -5q-45 0 -77 19.5t-44.5 55.5t-2.5 86l96 485h71l-96 -482q-10 -49 7.5 -76t64.5 -27q22 0 43 6.5t38 20.5l17 -54q-25 -19 -56 -26.5t-61 -7.5zM58 466l11 59h325l-12 -59h-324zM138 -220q-25 0 -46.5 6t-37.5 17l22 38q14 -9 30.5 -14t36.5 -5q33 0 50.5 15
t17.5 38q0 19 -14 29.5t-41 10.5h-22l42 91h43l-26 -57q33 -5 51.5 -23.5t18.5 -47.5q0 -44 -34.5 -71t-90.5 -27z" />
    <glyph glyph-name="Tcaron" unicode="&#x164;" horiz-adv-x="574" 
d="M198 0l127 636h-247l13 64h566l-13 -64h-246l-127 -636h-73zM357 757l-114 124h64l115 -106h-56l138 106h69l-144 -124h-72z" />
    <glyph glyph-name="tcaron" unicode="&#x165;" horiz-adv-x="406" 
d="M214 -5q-45 0 -77 19.5t-44.5 55.5t-2.5 86l96 485h71l-96 -482q-10 -49 7.5 -76t64.5 -27q22 0 43 6.5t38 20.5l17 -54q-25 -19 -56 -26.5t-61 -7.5zM58 466l11 59h325l-12 -59h-324zM336 582l38 188h60l-47 -188h-51z" />
    <glyph glyph-name="Tbar" unicode="&#x166;" horiz-adv-x="574" 
d="M198 0l127 636h-247l13 64h566l-13 -64h-246l-127 -636h-73zM103 315l12 59h387l-12 -59h-387z" />
    <glyph glyph-name="tbar" unicode="&#x167;" horiz-adv-x="416" 
d="M219 -5q-45 0 -77 19.5t-44.5 55.5t-2.5 86l96 485h71l-96 -482q-10 -49 7.5 -76t64.5 -27q22 0 43 6.5t38 20.5l17 -54q-25 -19 -56 -26.5t-61 -7.5zM63 466l11 59h325l-12 -59h-324zM35 269l10 51h302l-10 -51h-302z" />
    <glyph glyph-name="Utilde" unicode="&#x168;" horiz-adv-x="792" 
d="M359 -6q-96 0 -156.5 39t-82.5 108t-4 157l80 402h73l-80 -402q-11 -52 -6 -96t26.5 -76t60.5 -49t96 -17q72 0 122 26.5t81.5 78.5t47.5 128l81 407h72l-82 -412q-28 -144 -110.5 -219t-218.5 -75zM572 763q-23 0 -40.5 10t-31.5 23.5t-28 24t-31 10.5q-22 0 -37 -17.5
t-20 -46.5h-43q8 52 35 81t66 29q23 0 40.5 -10.5t31.5 -24t28 -23.5t30 -10q23 0 38.5 17.5t19.5 44.5h43q-8 -50 -34.5 -79t-66.5 -29z" />
    <glyph glyph-name="utilde" unicode="&#x169;" horiz-adv-x="672" 
d="M267 -5q-69 0 -114.5 28t-62.5 80t-4 123l60 299h71l-60 -299q-15 -78 17 -122.5t112 -44.5q83 0 138.5 46t74.5 138l56 282h71l-105 -525h-68l30 151l15 -25q-37 -68 -97.5 -99.5t-133.5 -31.5zM480 613q-23 0 -40.5 10t-31.5 23.5t-28 24t-31 10.5q-22 0 -37 -17.5
t-20 -46.5h-43q8 52 35 81t66 29q23 0 40.5 -10.5t31.5 -24t28 -23.5t30 -10q23 0 38.5 17.5t19.5 44.5h43q-8 -50 -34.5 -79t-66.5 -29z" />
    <glyph glyph-name="Umacron" unicode="&#x16a;" horiz-adv-x="792" 
d="M359 -6q-96 0 -156.5 39t-82.5 108t-4 157l80 402h73l-80 -402q-11 -52 -6 -96t26.5 -76t60.5 -49t96 -17q72 0 122 26.5t81.5 78.5t47.5 128l81 407h72l-82 -412q-28 -144 -110.5 -219t-218.5 -75zM348 795l9 47h309l-10 -47h-308z" />
    <glyph glyph-name="umacron" unicode="&#x16b;" horiz-adv-x="672" 
d="M267 -5q-69 0 -114.5 28t-62.5 80t-4 123l60 299h71l-60 -299q-15 -78 17 -122.5t112 -44.5q83 0 138.5 46t74.5 138l56 282h71l-105 -525h-68l30 151l15 -25q-37 -68 -97.5 -99.5t-133.5 -31.5zM256 645l9 47h309l-10 -47h-308z" />
    <glyph glyph-name="Ubreve" unicode="&#x16c;" horiz-adv-x="792" 
d="M359 -6q-96 0 -156.5 39t-82.5 108t-4 157l80 402h73l-80 -402q-11 -52 -6 -96t26.5 -76t60.5 -49t96 -17q72 0 122 26.5t81.5 78.5t47.5 128l81 407h72l-82 -412q-28 -144 -110.5 -219t-218.5 -75zM505 752q-41 0 -74 16t-50.5 44.5t-14.5 68.5h49q-2 -39 24 -62t70 -23
q42 0 73 22.5t37 62.5h52q-10 -60 -56.5 -94.5t-109.5 -34.5z" />
    <glyph glyph-name="ubreve" unicode="&#x16d;" horiz-adv-x="672" 
d="M267 -5q-69 0 -114.5 28t-62.5 80t-4 123l60 299h71l-60 -299q-15 -78 17 -122.5t112 -44.5q83 0 138.5 46t74.5 138l56 282h71l-105 -525h-68l30 151l15 -25q-37 -68 -97.5 -99.5t-133.5 -31.5zM413 602q-41 0 -74 16t-50.5 44.5t-14.5 68.5h49q-2 -39 24 -62t70 -23
q42 0 73 22.5t37 62.5h52q-10 -60 -56.5 -94.5t-109.5 -34.5z" />
    <glyph glyph-name="Uring" unicode="&#x16e;" horiz-adv-x="792" 
d="M359 -6q-96 0 -156.5 39t-82.5 108t-4 157l80 402h73l-80 -402q-11 -52 -6 -96t26.5 -76t60.5 -49t96 -17q72 0 122 26.5t81.5 78.5t47.5 128l81 407h72l-82 -412q-28 -144 -110.5 -219t-218.5 -75zM518 770q-30 0 -53.5 14t-37 37t-13.5 51t13.5 52t37 38.5t53.5 14.5
t53.5 -14.5t37 -38.5t13.5 -52t-13.5 -51t-37 -37t-53.5 -14zM518 805q30 0 49 19.5t19 47.5q0 29 -19 49.5t-49 20.5q-29 0 -48.5 -20t-19.5 -50q0 -29 19 -48t49 -19z" />
    <glyph glyph-name="uring" unicode="&#x16f;" horiz-adv-x="672" 
d="M267 -5q-69 0 -114.5 28t-62.5 80t-4 123l60 299h71l-60 -299q-15 -78 17 -122.5t112 -44.5q83 0 138.5 46t74.5 138l56 282h71l-105 -525h-68l30 151l15 -25q-37 -68 -97.5 -99.5t-133.5 -31.5zM421 595q-30 0 -53.5 14t-37 37t-13.5 51t13.5 52t37 38.5t53.5 14.5
t53.5 -14.5t37 -38.5t13.5 -52t-13.5 -51t-37 -37t-53.5 -14zM421 630q30 0 49 19.5t19 47.5q0 29 -19 49.5t-49 20.5q-29 0 -48.5 -20t-19.5 -50q0 -29 19 -48t49 -19z" />
    <glyph glyph-name="Uhungarumlaut" unicode="&#x170;" horiz-adv-x="792" 
d="M359 -6q-96 0 -156.5 39t-82.5 108t-4 157l80 402h73l-80 -402q-11 -52 -6 -96t26.5 -76t60.5 -49t96 -17q72 0 122 26.5t81.5 78.5t47.5 128l81 407h72l-82 -412q-28 -144 -110.5 -219t-218.5 -75zM544 757l109 124h82l-127 -124h-64zM380 757l110 124h82l-126 -124h-66
z" />
    <glyph glyph-name="uhungarumlaut" unicode="&#x171;" horiz-adv-x="672" 
d="M267 -5q-69 0 -114.5 28t-62.5 80t-4 123l60 299h71l-60 -299q-15 -78 17 -122.5t112 -44.5q83 0 138.5 46t74.5 138l56 282h71l-105 -525h-68l30 151l15 -25q-37 -68 -97.5 -99.5t-133.5 -31.5zM452 607l109 124h82l-127 -124h-64zM288 607l110 124h82l-126 -124h-66z
" />
    <glyph glyph-name="Uogonek" unicode="&#x172;" horiz-adv-x="792" 
d="M366 60q72 0 121.5 26t81.5 78q16 26 28 58t20 71l81 407h72l-82 -412q-23 -119 -84.5 -192t-158.5 -94q-87 -22 -127.5 -59.5t-40.5 -72.5q0 -23 14 -34.5t39 -11.5q18 0 35.5 5t32.5 14l11 -39q-19 -11 -41 -17.5t-49 -6.5q-42 0 -69 21.5t-27 60.5q0 37 27 72t78 62
h-9t-8 1q-75 7 -124.5 46.5t-68.5 103.5q-10 34 -10.5 72t8.5 79l80 402h73l-80 -400q-10 -48 -6.5 -90t20.5 -73q21 -37 61.5 -57t101.5 -20z" />
    <glyph glyph-name="uogonek" unicode="&#x173;" horiz-adv-x="672" 
d="M267 -5q-69 0 -114.5 28t-62.5 80t-4 123l60 299h71l-60 -299q-15 -78 17 -122.5t112 -44.5q83 0 138.5 46t74.5 138l56 282h71l-105 -525h-68l30 151l15 -25q-37 -68 -97.5 -99.5t-133.5 -31.5zM417 -220q-43 0 -70 21.5t-27 60.5q0 33 19 62.5t57 56t95 48.5l30 -29
q-48 -18 -81 -39.5t-49.5 -43.5t-16.5 -47q0 -22 14.5 -34t38.5 -12q18 0 36 5t32 14l11 -39q-19 -11 -41 -17.5t-48 -6.5z" />
    <glyph glyph-name="Wcircumflex" unicode="&#x174;" horiz-adv-x="1111" 
d="M219 0l-96 700h73l90 -658h-37l359 658h69l92 -658h-36l356 658h74l-376 -700h-78l-90 623l21 1l-343 -624h-78zM489 757l143 124h72l115 -124h-64l-116 106h56l-138 -106h-68z" />
    <glyph glyph-name="wcircumflex" unicode="&#x175;" horiz-adv-x="879" 
d="M160 0l-103 525h65l93 -487h-32l278 487h60l96 -487h-32l274 487h69l-297 -525h-69l-94 458h22l-262 -458h-68zM344 607l143 124h72l115 -124h-64l-116 106h56l-138 -106h-68z" />
    <glyph glyph-name="Ycircumflex" unicode="&#x176;" horiz-adv-x="635" 
d="M228 0l52 262l8 -50l-200 488h74l175 -426l-40 -1l345 427h79l-393 -489l25 51l-52 -262h-73zM251 757l143 124h72l115 -124h-64l-116 106h56l-138 -106h-68z" />
    <glyph glyph-name="ycircumflex" unicode="&#x177;" horiz-adv-x="542" 
d="M20 -199q-37 0 -71 12.5t-54 34.5l38 52q17 -18 40 -28t52 -10q34 0 62.5 18.5t59.5 66.5l53 81l9 10l312 487h73l-384 -593q-33 -50 -62 -78.5t-59.5 -40.5t-68.5 -12zM188 -15l-135 540h72l118 -482zM161 607l143 124h72l115 -124h-64l-116 106h56l-138 -106h-68z" />
    <glyph glyph-name="Ydieresis" unicode="&#x178;" horiz-adv-x="635" 
d="M228 0l52 262l8 -50l-200 488h74l175 -426l-40 -1l345 427h79l-393 -489l25 51l-52 -262h-73zM515 780q-17 0 -28.5 11t-11.5 27q0 21 13.5 34.5t31.5 13.5q17 0 29 -11t12 -29q0 -20 -13.5 -33t-32.5 -13zM337 780q-17 0 -29 11t-12 27q0 21 14 34.5t31 13.5
q18 0 29.5 -11t11.5 -29q0 -20 -13.5 -33t-31.5 -13z" />
    <glyph glyph-name="Zacute" unicode="&#x179;" horiz-adv-x="651" 
d="M-8 0l10 51l604 613l6 -28h-485l13 64h555l-10 -51l-605 -613l-5 28h504l-13 -64h-574zM363 757l152 124h97l-175 -124h-74z" />
    <glyph glyph-name="zacute" unicode="&#x17a;" horiz-adv-x="511" 
d="M-11 0l9 47l434 443l16 -24h-359l12 59h415l-10 -46l-433 -444l-19 24h375l-12 -59h-428zM257 607l152 124h97l-175 -124h-74z" />
    <glyph glyph-name="Zdotaccent" unicode="&#x17b;" horiz-adv-x="651" 
d="M-8 0l10 51l604 613l6 -28h-485l13 64h555l-10 -51l-605 -613l-5 28h504l-13 -64h-574zM442 780q-20 0 -32.5 12t-12.5 31q0 23 15 38t36 15q19 0 32 -12t13 -31q0 -23 -15 -38t-36 -15z" />
    <glyph glyph-name="zdotaccent" unicode="&#x17c;" horiz-adv-x="511" 
d="M-11 0l9 47l434 443l16 -24h-359l12 59h415l-10 -46l-433 -444l-19 24h375l-12 -59h-428zM336 630q-20 0 -32.5 12t-12.5 31q0 23 15 38t36 15q19 0 32 -12t13 -31q0 -23 -15 -38t-36 -15z" />
    <glyph glyph-name="Zcaron" unicode="&#x17d;" horiz-adv-x="651" 
d="M-8 0l10 51l604 613l6 -28h-485l13 64h555l-10 -51l-605 -613l-5 28h504l-13 -64h-574zM402 757l-114 124h64l115 -106h-56l138 106h69l-144 -124h-72z" />
    <glyph glyph-name="zcaron" unicode="&#x17e;" horiz-adv-x="511" 
d="M-11 0l9 47l434 443l16 -24h-359l12 59h415l-10 -46l-433 -444l-19 24h375l-12 -59h-428zM296 607l-114 124h64l115 -106h-56l138 106h69l-144 -124h-72z" />
    <glyph glyph-name="longs" unicode="&#x17f;" horiz-adv-x="295" 
d="M69 0l119 592q15 74 60.5 114.5t119.5 40.5q32 0 60 -9t46 -25l-32 -52q-28 26 -74 26t-73 -24.5t-38 -78.5l-117 -584h-71zM69 466l11 59h136l-12 -59h-135z" />
    <glyph glyph-name="uni018F" unicode="&#x18f;" horiz-adv-x="817" 
d="M377 -6q-98 0 -169 36.5t-109 101.5t-38 150q0 20 3 41.5t9 51.5h651l-12 -63h-601l28 33q-2 -17 -4 -29.5t-2 -29.5q0 -70 29.5 -121.5t86 -79t135.5 -27.5q75 0 136 28t104 77t66.5 113t23.5 136q0 68 -28 119t-84 80t-138 29q-69 0 -129 -21t-102 -59l-37 54
q48 43 119.5 67.5t154.5 24.5q102 0 172.5 -36.5t108 -102t37.5 -152.5q0 -86 -29 -162t-83 -134.5t-129.5 -91.5t-169.5 -33z" />
    <glyph glyph-name="florin" unicode="&#x192;" horiz-adv-x="440" 
d="M-63 -199q-34 0 -63 9.5t-46 26.5l38 52q26 -27 72 -27q41 0 72.5 25t47.5 74l205 630q24 74 74.5 115t123.5 41q32 0 59 -8.5t44 -25.5l-39 -54q-11 14 -30 20.5t-41 6.5q-44 0 -75 -25t-48 -74l-26 -79l-8 -33l-171 -523q-22 -71 -70 -111t-119 -40zM126 458l18 59h325
l-18 -59h-325z" />
    <glyph glyph-name="Ohorn" unicode="&#x1a0;" horiz-adv-x="839" 
d="M388 -6q-103 0 -176 36.5t-110.5 102t-37.5 152.5q0 86 29 162t84.5 134.5t133.5 91.5t175 33q49 0 85.5 -3.5t70 -8t72.5 -4.5q49 0 75.5 20.5t26.5 56.5q0 19 -5.5 35t-14.5 29l47 19q12 -17 19 -39t7 -46q0 -38 -17 -67t-49 -44t-76 -15q-18 0 -34 1.5t-31 2.5l24 8
q61 -36 92.5 -96.5t31.5 -139.5q0 -86 -29 -162t-84.5 -134.5t-133.5 -91.5t-175 -33zM395 60q78 0 141 27.5t108 76.5t69 112.5t24 135.5q0 68 -29.5 119t-86.5 80t-142 29q-78 0 -141 -27.5t-107.5 -76.5t-69 -112.5t-24.5 -135.5q0 -67 29.5 -118.5t86.5 -80.5t142 -29z
" />
    <glyph glyph-name="ohorn" unicode="&#x1a1;" horiz-adv-x="627" 
d="M281 -5q-73 0 -126.5 27.5t-83 77.5t-29.5 118q0 90 39 160.5t108 111t157 40.5q40 0 66 -1t47 -3t46 -2q34 0 55.5 18t21.5 52q0 19 -6 34.5t-14 29.5l46 18q13 -17 19.5 -39t6.5 -45q0 -38 -15.5 -64.5t-44.5 -40.5t-68 -14q-21 0 -39 1.5t-41 3.5l55 17
q49 -27 76.5 -74t27.5 -113q0 -90 -39 -160.5t-107.5 -111.5t-157.5 -41zM286 58q66 0 117.5 31.5t81 87.5t29.5 127q0 78 -45.5 121t-127.5 43q-65 0 -117 -32t-81.5 -87.5t-29.5 -127.5q0 -77 45.5 -120t127.5 -43z" />
    <glyph glyph-name="Uhorn" unicode="&#x1af;" horiz-adv-x="797" 
d="M359 -6q-96 0 -156.5 39t-82.5 108t-4 157l80 402h73l-80 -402q-11 -52 -6 -96t26.5 -76t60.5 -49t96 -17q72 0 122 26.5t81.5 78.5t47.5 128l81 407h72l-82 -412q-28 -144 -110.5 -219t-218.5 -75zM736 646v54h15q35 0 50.5 20t15.5 48q0 19 -5.5 35t-14.5 29l47 18
q12 -17 19 -38.5t7 -45.5q0 -35 -13.5 -62t-40 -42.5t-65.5 -15.5h-15z" />
    <glyph glyph-name="uhorn" unicode="&#x1b0;" horiz-adv-x="678" 
d="M267 -5q-69 0 -114.5 28t-62.5 80t-4 123l60 299h71l-60 -299q-15 -78 17 -122.5t112 -44.5q83 0 138.5 46t74.5 138l56 282h71l-105 -525h-68l30 151l15 -25q-37 -68 -97.5 -99.5t-133.5 -31.5zM575 471v54h15q35 0 50.5 20t15.5 48q0 19 -5.5 35t-14.5 29l47 18
q12 -17 19 -38.5t7 -45.5q0 -35 -13.5 -62t-40 -42.5t-65.5 -15.5h-15z" />
    <glyph glyph-name="uni01B7" unicode="&#x1b7;" horiz-adv-x="593" 
d="M238 -6q-81 0 -144 25t-97 66l41 56q27 -35 80 -58t124 -23q65 0 112 19.5t72 55.5t25 84q0 60 -41.5 90.5t-127.5 30.5h-45l10 53l268 270l8 -27h-391l13 64h449l-9 -51l-268 -271l-34 23h17q73 0 122.5 -21.5t76 -61t26.5 -95.5q0 -67 -36 -119t-100.5 -81t-150.5 -29z
" />
    <glyph glyph-name="uni01C4" unicode="&#x1c4;" horiz-adv-x="1456" 
d="M62 0l140 700h266q106 0 179.5 -35.5t112 -99t38.5 -150.5q0 -92 -30.5 -168.5t-88 -131.5t-137.5 -85t-179 -30h-301zM148 64h217q111 0 191.5 45t124 123.5t43.5 179.5q0 67 -29 117.5t-87.5 78.5t-147.5 28h-198zM790 0l10 51l604 613l6 -28h-485l13 64h555l-10 -51
l-605 -613l-5 28h504l-13 -64h-574zM1200 757l-114 124h64l115 -106h-56l138 106h69l-144 -124h-72z" />
    <glyph glyph-name="uni01C5" unicode="&#x1c5;" horiz-adv-x="1337" 
d="M62 0l140 700h266q106 0 179.5 -35.5t112 -99t38.5 -150.5q0 -92 -30.5 -168.5t-88 -131.5t-137.5 -85t-179 -30h-301zM148 64h217q111 0 191.5 45t124 123.5t43.5 179.5q0 67 -29 117.5t-87.5 78.5t-147.5 28h-198zM815 0l9 47l434 443l16 -24h-359l12 59h415l-10 -46
l-433 -444l-19 24h375l-12 -59h-428zM1122 607l-114 124h64l115 -106h-56l138 106h69l-144 -124h-72z" />
    <glyph glyph-name="uni01C6" unicode="&#x1c6;" horiz-adv-x="1189" 
d="M271 -5q-67 0 -119 27t-81 77t-29 119q0 67 22 124t62 99.5t94.5 65.5t118.5 23q69 0 117 -24.5t74 -71t26 -112.5q0 -71 -19.5 -131t-57.5 -104t-90.5 -68t-117.5 -24zM286 58q66 0 117.5 31.5t81 87.5t29.5 127q0 78 -45.5 121t-127.5 43q-65 0 -117 -32t-81.5 -87.5
t-29.5 -127.5q0 -77 45.5 -120t127.5 -43zM459 0l30 151l30 106l10 110l75 375h71l-148 -742h-68zM667 0l9 47l434 443l16 -24h-359l12 59h415l-10 -46l-433 -444l-19 24h375l-12 -59h-428zM974 607l-114 124h64l115 -106h-56l138 106h69l-144 -124h-72z" />
    <glyph glyph-name="uni01C7" unicode="&#x1c7;" horiz-adv-x="1090" 
d="M62 0l140 700h73l-127 -636h392l-13 -64h-465zM743 -6q-68 0 -117.5 27t-73.5 74l52 47q19 -39 55.5 -61.5t85.5 -22.5q61 0 99.5 34.5t54.5 116.5l85 427h-255l13 64h327l-98 -491q-15 -79 -45.5 -126t-76 -68t-106.5 -21z" />
    <glyph glyph-name="uni01C8" unicode="&#x1c8;" horiz-adv-x="863" 
d="M62 0l140 700h73l-127 -636h392l-13 -64h-465zM526 -199q-34 0 -62.5 8.5t-48.5 24.5l33 55q31 -27 79 -27q43 0 68.5 23.5t36.5 76.5l113 563h71l-113 -565q-32 -159 -177 -159zM810 641q-21 0 -34.5 14t-13.5 33q0 22 15.5 38t39.5 16q21 0 35 -13t14 -33
q0 -24 -16 -39.5t-40 -15.5z" />
    <glyph glyph-name="uni01C9" unicode="&#x1c9;" horiz-adv-x="544" 
d="M47 0l148 742h71l-148 -742h-71zM206 -199q-34 0 -62.5 8.5t-48.5 24.5l33 55q31 -27 79 -27q43 0 68.5 23.5t36.5 76.5l113 563h71l-113 -565q-32 -159 -177 -159zM490 641q-21 0 -34.5 14t-13.5 33q0 22 15.5 38t39.5 16q21 0 35 -13t14 -33q0 -24 -16 -39.5t-40 -15.5
z" />
    <glyph glyph-name="uni01CA" unicode="&#x1ca;" horiz-adv-x="1315" 
d="M62 0l140 700h60l353 -611l-23 4l121 607h73l-140 -700h-60l-353 611l23 -4l-121 -607h-73zM967 -6q-68 0 -117.5 27t-73.5 74l52 47q19 -39 55.5 -61.5t85.5 -22.5q61 0 99.5 34.5t54.5 116.5l85 427h-255l13 64h327l-98 -491q-15 -79 -45.5 -126t-76 -68t-106.5 -21z
" />
    <glyph glyph-name="uni01CB" unicode="&#x1cb;" horiz-adv-x="1087" 
d="M62 0l140 700h60l353 -611l-23 4l121 607h73l-140 -700h-60l-353 611l23 -4l-121 -607h-73zM750 -199q-34 0 -62.5 8.5t-48.5 24.5l33 55q31 -27 79 -27q43 0 68.5 23.5t36.5 76.5l113 563h71l-113 -565q-32 -159 -177 -159zM1034 641q-21 0 -34.5 14t-13.5 33
q0 22 15.5 38t39.5 16q21 0 35 -13t14 -33q0 -24 -16 -39.5t-40 -15.5z" />
    <glyph glyph-name="uni01CC" unicode="&#x1cc;" horiz-adv-x="951" 
d="M408 530q71 0 116.5 -27.5t63 -79.5t2.5 -124l-60 -299h-71l60 300q16 78 -16.5 122t-114.5 44q-84 0 -139.5 -46t-74.5 -138l-56 -282h-71l104 525h68l-30 -151l-15 26q38 68 98.5 99t135.5 31zM613 -199q-34 0 -62.5 8.5t-48.5 24.5l33 55q31 -27 79 -27
q43 0 68.5 23.5t36.5 76.5l113 563h71l-113 -565q-32 -159 -177 -159zM897 641q-21 0 -34.5 14t-13.5 33q0 22 15.5 38t39.5 16q21 0 35 -13t14 -33q0 -24 -16 -39.5t-40 -15.5z" />
    <glyph glyph-name="uni01CD" unicode="&#x1cd;" horiz-adv-x="717" 
d="M-50 0l460 700h73l180 -700h-74l-164 659h30l-425 -659h-80zM113 187l34 60h407l11 -60h-452zM429 757l-114 124h64l115 -106h-56l138 106h69l-144 -124h-72z" />
    <glyph glyph-name="uni01CE" unicode="&#x1ce;" horiz-adv-x="678" 
d="M271 -5q-67 0 -119 27t-81 77t-29 119q0 67 22 124t62 99.5t94.5 65.5t118.5 23q69 0 117 -24.5t74 -71t26 -112.5q0 -95 -35 -169t-99 -116t-151 -42zM286 58q66 0 117.5 31.5t81 87.5t29.5 127q0 78 -45.5 121t-127.5 43q-65 0 -117 -32t-81.5 -87.5t-29.5 -127.5
q0 -77 45.5 -120t127.5 -43zM459 0l30 151l30 106l10 110l32 158h71l-105 -525h-68zM369 607l-114 124h64l115 -106h-56l138 106h69l-144 -124h-72z" />
    <glyph glyph-name="uni01D3" unicode="&#x1d3;" horiz-adv-x="792" 
d="M359 -6q-96 0 -156.5 39t-82.5 108t-4 157l80 402h73l-80 -402q-11 -52 -6 -96t26.5 -76t60.5 -49t96 -17q72 0 122 26.5t81.5 78.5t47.5 128l81 407h72l-82 -412q-28 -144 -110.5 -219t-218.5 -75zM466 757l-114 124h64l115 -106h-56l138 106h69l-144 -124h-72z" />
    <glyph glyph-name="uni01D4" unicode="&#x1d4;" horiz-adv-x="672" 
d="M267 -5q-69 0 -114.5 28t-62.5 80t-4 123l60 299h71l-60 -299q-15 -78 17 -122.5t112 -44.5q83 0 138.5 46t74.5 138l56 282h71l-105 -525h-68l30 151l15 -25q-37 -68 -97.5 -99.5t-133.5 -31.5zM374 607l-114 124h64l115 -106h-56l138 106h69l-144 -124h-72z" />
    <glyph glyph-name="uni01E4" unicode="&#x1e4;" horiz-adv-x="806" 
d="M397 206l11 60h376l-12 -60h-375zM391 -6q-103 0 -176 36.5t-112 102t-39 152.5q0 86 29.5 162t85 134.5t134.5 91.5t178 33q88 0 154.5 -26.5t105.5 -75.5l-52 -45q-36 42 -88.5 61.5t-122.5 19.5q-81 0 -145.5 -27.5t-110 -75.5t-70.5 -112t-25 -137q0 -67 29.5 -118.5
t88 -80.5t144.5 -29q63 0 115.5 21t97.5 60l30 -60q-48 -40 -113.5 -63.5t-137.5 -23.5zM574 92l51 258h71l-54 -269z" />
    <glyph glyph-name="uni01E5" unicode="&#x1e5;" horiz-adv-x="692" 
d="M242 -199q-73 0 -133 20.5t-100 58.5l41 54q32 -32 83.5 -51t113.5 -19q100 0 155 46t74 142l27 138l28 86l10 90l31 159h68l-92 -461q-27 -139 -102 -201t-204 -62zM225 -62l9 51h362l-10 -51h-361zM277 35q-69 0 -121.5 24.5t-81.5 71t-29 110.5q0 82 38.5 147
t106.5 103.5t155 38.5q63 0 112 -21.5t77.5 -64.5t28.5 -108q1 -84 -34 -152.5t-99 -108.5t-153 -40zM291 95q66 0 117.5 29t81.5 80.5t30 116.5q0 70 -46 109.5t-128 39.5q-66 0 -117.5 -29t-81.5 -80.5t-30 -116.5q0 -71 46 -110t128 -39z" />
    <glyph glyph-name="Gcaron" unicode="&#x1e6;" horiz-adv-x="773" 
d="M391 -6q-103 0 -176 36.5t-112 102t-39 152.5q0 86 29.5 162t85 134.5t134.5 91.5t178 33q88 0 154.5 -26.5t105.5 -75.5l-52 -45q-36 42 -88.5 61.5t-122.5 19.5q-81 0 -145.5 -27.5t-110 -75.5t-70.5 -112t-25 -137q0 -67 29.5 -118.5t88 -80.5t144.5 -29
q63 0 115.5 21t97.5 60l30 -60q-48 -40 -113.5 -63.5t-137.5 -23.5zM574 92l51 258h71l-54 -269zM477 757l-114 124h64l115 -106h-56l138 106h69l-144 -124h-72z" />
    <glyph glyph-name="gcaron" unicode="&#x1e7;" horiz-adv-x="685" 
d="M241 -199q-73 0 -133 20.5t-101 58.5l42 54q32 -32 83.5 -51t113.5 -19q100 0 155 46t73 142l28 138l27 86l11 90l31 159h68l-92 -461q-27 -139 -102 -201t-204 -62zM276 20q-69 0 -121.5 26t-81.5 73.5t-29 112.5q0 64 22 118t62 94.5t95 63t121 22.5q63 0 112 -22
t77.5 -66t28.5 -112q1 -86 -34 -156.5t-99 -112t-153 -41.5zM290 83q66 0 117.5 30t81.5 82.5t30 119.5q0 72 -46 112.5t-128 40.5q-66 0 -118 -30t-81.5 -82.5t-29.5 -119.5q0 -72 46 -112.5t128 -40.5zM365 607l-114 124h64l115 -106h-56l138 106h69l-144 -124h-72z" />
    <glyph glyph-name="uni01E8" unicode="&#x1e8;" horiz-adv-x="711" 
d="M163 176l11 91l505 433h97l-378 -325l-44 -36zM62 0l140 700h73l-140 -700h-73zM570 0l-238 348l50 49l271 -397h-83zM443 757l-114 124h64l115 -106h-56l138 106h69l-144 -124h-72z" />
    <glyph glyph-name="uni01E9" unicode="&#x1e9;" horiz-adv-x="590" 
d="M132 140l14 87l382 298h101l-287 -223l-39 -30zM47 0l148 742h71l-148 -742h-71zM457 0l-166 273l49 53l200 -326h-83zM218 824l-114 124h64l115 -106h-56l138 106h69l-144 -124h-72z" />
    <glyph glyph-name="uni01EA" unicode="&#x1ea;" horiz-adv-x="839" 
d="M331 -220q-43 0 -69.5 21.5t-26.5 60.5q0 44 33.5 84.5t109.5 67.5l10 -20q-103 0 -176 36.5t-110.5 102t-37.5 152.5q0 86 29 162t84.5 134.5t133.5 91.5t175 33q104 0 176.5 -36.5t110 -102t37.5 -152.5q0 -101 -40 -187.5t-113.5 -145.5t-173.5 -79q-71 -14 -114 -36
t-62 -47t-19 -50q0 -22 14.5 -34t38.5 -12q18 0 36 5t32 14l11 -39q-19 -11 -41 -17.5t-48 -6.5zM395 60q78 0 141 27.5t108 76.5t69 112.5t24 135.5q0 68 -29.5 119t-86.5 80t-142 29q-78 0 -141 -27.5t-107.5 -76.5t-69 -112.5t-24.5 -135.5q0 -67 29.5 -118.5t86.5 -80.5
t142 -29z" />
    <glyph glyph-name="uni01EB" unicode="&#x1eb;" horiz-adv-x="627" 
d="M249 -220q-43 0 -69.5 21.5t-26.5 60.5q0 43 32 82.5t103 68.5l29 -16q-11 -1 -19.5 -1.5t-16.5 -0.5q-73 0 -126.5 27.5t-83 77.5t-29.5 118q0 90 39 160.5t108 111t157 40.5q73 0 126.5 -27t83 -77t29.5 -118q0 -72 -25 -132t-72 -103t-113 -65q-59 -20 -96.5 -42.5
t-55 -46.5t-17.5 -49q0 -22 14.5 -34t38.5 -12q18 0 36 5t32 14l11 -39q-18 -11 -40.5 -17.5t-48.5 -6.5zM286 58q66 0 117.5 31.5t81 87.5t29.5 127q0 78 -45.5 121t-127.5 43q-65 0 -117 -32t-81.5 -87.5t-29.5 -127.5q0 -77 45.5 -120t127.5 -43z" />
    <glyph glyph-name="uni01EE" unicode="&#x1ee;" horiz-adv-x="593" 
d="M238 -6q-81 0 -144 25t-97 66l41 56q27 -35 80 -58t124 -23q65 0 112 19.5t72 55.5t25 84q0 60 -41.5 90.5t-127.5 30.5h-45l10 53l268 270l8 -27h-391l13 64h449l-9 -51l-268 -271l-34 23h17q73 0 122.5 -21.5t76 -61t26.5 -95.5q0 -67 -36 -119t-100.5 -81t-150.5 -29z
M348 757l-114 124h64l115 -106h-56l138 106h69l-144 -124h-72z" />
    <glyph glyph-name="uni01EF" unicode="&#x1ef;" horiz-adv-x="511" 
d="M144 -200q-66 0 -128.5 22.5t-109.5 70.5l37 57q40 -43 95 -63t111 -20q55 0 103.5 19t78 56.5t29.5 92.5q0 60 -39.5 93.5t-126.5 33.5h-47l8 50l271 278l6 -29h-389l13 64h449l-9 -50l-276 -279l-28 20h17q110 0 167.5 -46.5t57.5 -132.5q0 -58 -24 -102t-65 -74
t-93 -45.5t-108 -15.5zM292 607l-114 124h64l115 -106h-56l138 106h69l-144 -124h-72z" />
    <glyph glyph-name="Aringacute" unicode="&#x1fa;" horiz-adv-x="717" 
d="M-50 0l460 700h73l180 -700h-74l-164 659h30l-425 -659h-80zM113 187l34 60h407l11 -60h-452zM481 770q-30 0 -53.5 14t-37 37t-13.5 51t13.5 52t37 38.5t53.5 14.5t53.5 -14.5t37 -38.5t13.5 -52t-13.5 -51t-37 -37t-53.5 -14zM481 805q30 0 49 19.5t19 47.5
q0 29 -19 49.5t-49 20.5q-29 0 -48.5 -20t-19.5 -50q0 -29 19 -48t49 -19zM558 928l-41 15l101 100l39 -32z" />
    <glyph glyph-name="aringacute" unicode="&#x1fb;" horiz-adv-x="678" 
d="M271 -5q-67 0 -119 27t-81 77t-29 119q0 67 22 124t62 99.5t94.5 65.5t118.5 23q69 0 117 -24.5t74 -71t26 -112.5q0 -95 -35 -169t-99 -116t-151 -42zM286 58q66 0 117.5 31.5t81 87.5t29.5 127q0 78 -45.5 121t-127.5 43q-65 0 -117 -32t-81.5 -87.5t-29.5 -127.5
q0 -77 45.5 -120t127.5 -43zM459 0l30 151l30 106l10 110l32 158h71l-105 -525h-68zM416 595q-30 0 -53.5 14t-37 37t-13.5 51t13.5 52t37 38.5t53.5 14.5t53.5 -14.5t37 -38.5t13.5 -52t-13.5 -51t-37 -37t-53.5 -14zM416 630q30 0 49 19.5t19 47.5q0 29 -19 49.5t-49 20.5
q-29 0 -48.5 -20t-19.5 -50q0 -29 19 -48t49 -19zM493 753l-41 15l101 100l39 -32z" />
    <glyph glyph-name="AEacute" unicode="&#x1fc;" horiz-adv-x="1033" 
d="M-51 0l563 700h78l-11 -63h-66l52 29l-533 -666h-83zM155 187l20 60h325l-12 -60h-333zM426 0l140 700h480l-13 -64h-407l-114 -572h421l-13 -64h-494zM556 324l13 63h370l-13 -63h-370zM547 757l152 124h97l-175 -124h-74z" />
    <glyph glyph-name="aeacute" unicode="&#x1fd;" horiz-adv-x="987" 
d="M219 -5q-59 0 -101 17t-64 48t-22 74q0 74 57 118.5t166 44.5h183l-8 -53h-180q-71 0 -109.5 -28t-38.5 -78q0 -42 30.5 -64.5t93.5 -22.5q44 0 82.5 16.5t65.5 50t37 83.5l25 123q15 70 -16.5 107t-108.5 37q-51 0 -99 -17t-82 -44l-24 56q29 22 64.5 37t74 22.5
t76.5 7.5q93 0 138.5 -40t44.5 -112l-35 6q26 47 64 79.5t85 49.5t97 17q70 0 121.5 -26.5t80.5 -76.5t29 -120q0 -16 -2 -32.5t-6 -30.5h-462l9 53h420l-31 -21q10 63 -8.5 106t-58.5 65.5t-95 22.5q-63 0 -113 -31.5t-78.5 -87t-28.5 -129.5q0 -82 46 -123t136 -41
q55 0 98 17.5t73 48.5l33 -51q-38 -37 -93.5 -57.5t-116.5 -20.5q-62 0 -112.5 20t-83 61.5t-41.5 103.5l38 -2q-18 -67 -57 -107t-89 -58t-104 -18zM459 606l152 124h97l-175 -124h-74z" />
    <glyph glyph-name="Oslashacute" unicode="&#x1fe;" horiz-adv-x="839" 
d="M388 -6q-103 0 -176 36.5t-110.5 102t-37.5 152.5q0 86 29 162t84.5 134.5t133.5 91.5t175 33q104 0 176.5 -36.5t110 -102t37.5 -152.5q0 -86 -29 -162t-84.5 -134.5t-133.5 -91.5t-175 -33zM395 60q78 0 141 27.5t108 76.5t69 112.5t24 135.5q0 68 -29.5 119t-86.5 80
t-142 29q-78 0 -141 -27.5t-107.5 -76.5t-69 -112.5t-24.5 -135.5q0 -67 29.5 -118.5t86.5 -80.5t142 -29zM18 -70l774 840h62l-773 -840h-63zM450 757l152 124h97l-175 -124h-74z" />
    <glyph glyph-name="oslashacute" unicode="&#x1ff;" horiz-adv-x="627" 
d="M281 -5q-73 0 -126.5 27.5t-83 77.5t-29.5 118q0 90 39 160.5t108 111t157 40.5q73 0 126.5 -27t83 -77t29.5 -118q0 -90 -39 -160.5t-107.5 -111.5t-157.5 -41zM286 58q66 0 117.5 31.5t81 87.5t29.5 127q0 78 -45.5 121t-127.5 43q-65 0 -117 -32t-81.5 -87.5
t-29.5 -127.5q0 -77 45.5 -120t127.5 -43zM0 -70l573 665h51l-573 -665h-51zM313 607l152 124h97l-175 -124h-74z" />
    <glyph glyph-name="uni0200" unicode="&#x200;" horiz-adv-x="717" 
d="M-50 0l460 700h73l180 -700h-74l-164 659h30l-425 -659h-80zM113 187l34 60h407l11 -60h-452zM509 757l-89 124h77l72 -124h-60zM346 757l-89 124h78l72 -124h-61z" />
    <glyph glyph-name="uni0201" unicode="&#x201;" horiz-adv-x="678" 
d="M271 -5q-67 0 -119 27t-81 77t-29 119q0 67 22 124t62 99.5t94.5 65.5t118.5 23q69 0 117 -24.5t74 -71t26 -112.5q0 -95 -35 -169t-99 -116t-151 -42zM286 58q66 0 117.5 31.5t81 87.5t29.5 127q0 78 -45.5 121t-127.5 43q-65 0 -117 -32t-81.5 -87.5t-29.5 -127.5
q0 -77 45.5 -120t127.5 -43zM459 0l30 151l30 106l10 110l32 158h71l-105 -525h-68zM449 607l-89 124h77l72 -124h-60zM286 607l-89 124h78l72 -124h-61z" />
    <glyph glyph-name="uni0202" unicode="&#x202;" horiz-adv-x="717" 
d="M-50 0l460 700h73l180 -700h-74l-164 659h30l-425 -659h-80zM113 187l34 60h407l11 -60h-452zM305 757q10 60 56.5 94.5t109.5 34.5q41 0 73.5 -16t50.5 -44.5t15 -68.5h-49q2 39 -24 62.5t-70 23.5q-42 0 -73.5 -23.5t-37.5 -62.5h-51z" />
    <glyph glyph-name="uni0203" unicode="&#x203;" horiz-adv-x="678" 
d="M271 -5q-67 0 -119 27t-81 77t-29 119q0 67 22 124t62 99.5t94.5 65.5t118.5 23q69 0 117 -24.5t74 -71t26 -112.5q0 -95 -35 -169t-99 -116t-151 -42zM286 58q66 0 117.5 31.5t81 87.5t29.5 127q0 78 -45.5 121t-127.5 43q-65 0 -117 -32t-81.5 -87.5t-29.5 -127.5
q0 -77 45.5 -120t127.5 -43zM459 0l30 151l30 106l10 110l32 158h71l-105 -525h-68zM245 607q10 60 56.5 94.5t109.5 34.5q41 0 73.5 -16t50.5 -44.5t15 -68.5h-49q2 39 -24 62.5t-70 23.5q-42 0 -73.5 -23.5t-37.5 -62.5h-51z" />
    <glyph glyph-name="uni0204" unicode="&#x204;" horiz-adv-x="669" 
d="M205 387h370l-12 -63h-370zM148 64h421l-13 -64h-494l140 700h480l-13 -64h-407zM504 757l-89 124h77l72 -124h-60zM341 757l-89 124h78l72 -124h-61z" />
    <glyph glyph-name="uni0205" unicode="&#x205;" horiz-adv-x="604" 
d="M287 -5q-75 0 -130.5 27.5t-85 77.5t-29.5 119q0 90 38 160t104 110.5t149 40.5q70 0 121 -26.5t79.5 -76.5t28.5 -120q0 -16 -2 -32.5t-5 -31.5h-461l9 53h419l-29 -20q10 63 -9 106t-58.5 65.5t-94.5 22.5q-64 0 -114 -31.5t-78 -87t-28 -129.5q0 -79 45.5 -121.5
t136.5 -42.5q53 0 98 17.5t74 48.5l32 -51q-37 -37 -92.5 -57.5t-117.5 -20.5zM416 606l-89 124h77l72 -124h-60zM253 606l-89 124h78l72 -124h-61z" />
    <glyph glyph-name="uni0206" unicode="&#x206;" horiz-adv-x="669" 
d="M205 387h370l-12 -63h-370zM148 64h421l-13 -64h-494l140 700h480l-13 -64h-407zM300 757q10 60 56.5 94.5t109.5 34.5q41 0 73.5 -16t50.5 -44.5t15 -68.5h-49q2 39 -24 62.5t-70 23.5q-42 0 -73.5 -23.5t-37.5 -62.5h-51z" />
    <glyph glyph-name="uni0207" unicode="&#x207;" horiz-adv-x="604" 
d="M287 -5q-75 0 -130.5 27.5t-85 77.5t-29.5 119q0 90 38 160t104 110.5t149 40.5q70 0 121 -26.5t79.5 -76.5t28.5 -120q0 -16 -2 -32.5t-5 -31.5h-461l9 53h419l-29 -20q10 63 -9 106t-58.5 65.5t-94.5 22.5q-64 0 -114 -31.5t-78 -87t-28 -129.5q0 -79 45.5 -121.5
t136.5 -42.5q53 0 98 17.5t74 48.5l32 -51q-37 -37 -92.5 -57.5t-117.5 -20.5zM212 606q10 60 56.5 94.5t109.5 34.5q41 0 73.5 -16t50.5 -44.5t15 -68.5h-49q2 39 -24 62.5t-70 23.5q-42 0 -73.5 -23.5t-37.5 -62.5h-51z" />
    <glyph glyph-name="uni0208" unicode="&#x208;" horiz-adv-x="302" 
d="M62 0l140 700h73l-140 -700h-73zM301 757l-89 124h77l72 -124h-60zM138 757l-89 124h78l72 -124h-61z" />
    <glyph glyph-name="uni0209" unicode="&#x209;" horiz-adv-x="269" 
d="M47 0l104 525h71l-104 -525h-71zM255 607l-89 124h77l72 -124h-60zM92 607l-89 124h78l72 -124h-61z" />
    <glyph glyph-name="uni020A" unicode="&#x20a;" horiz-adv-x="302" 
d="M62 0l140 700h73l-140 -700h-73zM97 757q10 60 56.5 94.5t109.5 34.5q41 0 73.5 -16t50.5 -44.5t15 -68.5h-49q2 39 -24 62.5t-70 23.5q-42 0 -73.5 -23.5t-37.5 -62.5h-51z" />
    <glyph glyph-name="uni020B" unicode="&#x20b;" horiz-adv-x="269" 
d="M47 0l104 525h71l-104 -525h-71zM76 607q8 62 44.5 95t96.5 33q38 0 65.5 -15.5t40.5 -44.5t8 -68h-46q5 40 -14 62.5t-57 22.5q-79 0 -89 -85h-49z" />
    <glyph glyph-name="uni020C" unicode="&#x20c;" horiz-adv-x="839" 
d="M388 -6q-103 0 -176 36.5t-110.5 102t-37.5 152.5q0 86 29 162t84.5 134.5t133.5 91.5t175 33q104 0 176.5 -36.5t110 -102t37.5 -152.5q0 -86 -29 -162t-84.5 -134.5t-133.5 -91.5t-175 -33zM395 60q78 0 141 27.5t108 76.5t69 112.5t24 135.5q0 68 -29.5 119t-86.5 80
t-142 29q-78 0 -141 -27.5t-107.5 -76.5t-69 -112.5t-24.5 -135.5q0 -67 29.5 -118.5t86.5 -80.5t142 -29zM569 757l-89 124h77l72 -124h-60zM406 757l-89 124h78l72 -124h-61z" />
    <glyph glyph-name="uni020D" unicode="&#x20d;" horiz-adv-x="627" 
d="M281 -5q-73 0 -126.5 27.5t-83 77.5t-29.5 118q0 90 39 160.5t108 111t157 40.5q73 0 126.5 -27t83 -77t29.5 -118q0 -90 -39 -160.5t-107.5 -111.5t-157.5 -41zM286 58q66 0 117.5 31.5t81 87.5t29.5 127q0 78 -45.5 121t-127.5 43q-65 0 -117 -32t-81.5 -87.5
t-29.5 -127.5q0 -77 45.5 -120t127.5 -43zM432 607l-89 124h77l72 -124h-60zM269 607l-89 124h78l72 -124h-61z" />
    <glyph glyph-name="uni020E" unicode="&#x20e;" horiz-adv-x="839" 
d="M388 -6q-103 0 -176 36.5t-110.5 102t-37.5 152.5q0 86 29 162t84.5 134.5t133.5 91.5t175 33q104 0 176.5 -36.5t110 -102t37.5 -152.5q0 -86 -29 -162t-84.5 -134.5t-133.5 -91.5t-175 -33zM395 60q78 0 141 27.5t108 76.5t69 112.5t24 135.5q0 68 -29.5 119t-86.5 80
t-142 29q-78 0 -141 -27.5t-107.5 -76.5t-69 -112.5t-24.5 -135.5q0 -67 29.5 -118.5t86.5 -80.5t142 -29zM365 757q10 60 56.5 94.5t109.5 34.5q41 0 73.5 -16t50.5 -44.5t15 -68.5h-49q2 39 -24 62.5t-70 23.5q-42 0 -73.5 -23.5t-37.5 -62.5h-51z" />
    <glyph glyph-name="uni020F" unicode="&#x20f;" horiz-adv-x="627" 
d="M281 -5q-73 0 -126.5 27.5t-83 77.5t-29.5 118q0 90 39 160.5t108 111t157 40.5q73 0 126.5 -27t83 -77t29.5 -118q0 -90 -39 -160.5t-107.5 -111.5t-157.5 -41zM286 58q66 0 117.5 31.5t81 87.5t29.5 127q0 78 -45.5 121t-127.5 43q-65 0 -117 -32t-81.5 -87.5
t-29.5 -127.5q0 -77 45.5 -120t127.5 -43zM228 607q10 60 56.5 94.5t109.5 34.5q41 0 73.5 -16t50.5 -44.5t15 -68.5h-49q2 39 -24 62.5t-70 23.5q-42 0 -73.5 -23.5t-37.5 -62.5h-51z" />
    <glyph glyph-name="uni0210" unicode="&#x210;" horiz-adv-x="723" 
d="M62 0l140 700h252q119 0 184.5 -52t65.5 -146q0 -89 -39.5 -151.5t-112.5 -95.5t-173 -33h-231l39 34l-51 -256h-74zM541 0l-143 254h79l144 -254h-80zM185 250l-25 36h220q119 0 184.5 53t65.5 156q0 69 -47 105t-134 36h-217l38 36zM519 757l-89 124h77l72 -124h-60z
M356 757l-89 124h78l72 -124h-61z" />
    <glyph glyph-name="uni0211" unicode="&#x211;" horiz-adv-x="401" 
d="M47 0l104 525h68l-30 -155l-8 27q35 69 92.5 101t143.5 32l-13 -69q-5 0 -9.5 0.5t-10.5 0.5q-84 0 -138.5 -48.5t-74.5 -146.5l-53 -267h-71zM352 607l-89 124h77l72 -124h-60zM189 607l-89 124h78l72 -124h-61z" />
    <glyph glyph-name="uni0212" unicode="&#x212;" horiz-adv-x="723" 
d="M62 0l140 700h252q119 0 184.5 -52t65.5 -146q0 -89 -39.5 -151.5t-112.5 -95.5t-173 -33h-231l39 34l-51 -256h-74zM541 0l-143 254h79l144 -254h-80zM185 250l-25 36h220q119 0 184.5 53t65.5 156q0 69 -47 105t-134 36h-217l38 36zM315 757q10 60 56.5 94.5
t109.5 34.5q41 0 73.5 -16t50.5 -44.5t15 -68.5h-49q2 39 -24 62.5t-70 23.5q-42 0 -73.5 -23.5t-37.5 -62.5h-51z" />
    <glyph glyph-name="uni0213" unicode="&#x213;" horiz-adv-x="401" 
d="M47 0l104 525h68l-30 -155l-8 27q35 69 92.5 101t143.5 32l-13 -69q-5 0 -9.5 0.5t-10.5 0.5q-84 0 -138.5 -48.5t-74.5 -146.5l-53 -267h-71zM148 607q10 60 56.5 94.5t109.5 34.5q41 0 73.5 -16t50.5 -44.5t15 -68.5h-49q2 39 -24 62.5t-70 23.5q-42 0 -73.5 -23.5
t-37.5 -62.5h-51z" />
    <glyph glyph-name="uni0214" unicode="&#x214;" horiz-adv-x="792" 
d="M359 -6q-96 0 -156.5 39t-82.5 108t-4 157l80 402h73l-80 -402q-11 -52 -6 -96t26.5 -76t60.5 -49t96 -17q72 0 122 26.5t81.5 78.5t47.5 128l81 407h72l-82 -412q-28 -144 -110.5 -219t-218.5 -75zM546 757l-89 124h77l72 -124h-60zM383 757l-89 124h78l72 -124h-61z
" />
    <glyph glyph-name="uni0215" unicode="&#x215;" horiz-adv-x="672" 
d="M267 -5q-69 0 -114.5 28t-62.5 80t-4 123l60 299h71l-60 -299q-15 -78 17 -122.5t112 -44.5q83 0 138.5 46t74.5 138l56 282h71l-105 -525h-68l30 151l15 -25q-37 -68 -97.5 -99.5t-133.5 -31.5zM454 607l-89 124h77l72 -124h-60zM291 607l-89 124h78l72 -124h-61z" />
    <glyph glyph-name="uni0216" unicode="&#x216;" horiz-adv-x="792" 
d="M359 -6q-96 0 -156.5 39t-82.5 108t-4 157l80 402h73l-80 -402q-11 -52 -6 -96t26.5 -76t60.5 -49t96 -17q72 0 122 26.5t81.5 78.5t47.5 128l81 407h72l-82 -412q-28 -144 -110.5 -219t-218.5 -75zM342 757q10 60 56.5 94.5t109.5 34.5q41 0 73.5 -16t50.5 -44.5
t15 -68.5h-49q2 39 -24 62.5t-70 23.5q-42 0 -73.5 -23.5t-37.5 -62.5h-51z" />
    <glyph glyph-name="uni0217" unicode="&#x217;" horiz-adv-x="672" 
d="M267 -5q-69 0 -114.5 28t-62.5 80t-4 123l60 299h71l-60 -299q-15 -78 17 -122.5t112 -44.5q83 0 138.5 46t74.5 138l56 282h71l-105 -525h-68l30 151l15 -25q-37 -68 -97.5 -99.5t-133.5 -31.5zM250 607q10 60 56.5 94.5t109.5 34.5q41 0 73.5 -16t50.5 -44.5t15 -68.5
h-49q2 39 -24 62.5t-70 23.5q-42 0 -73.5 -23.5t-37.5 -62.5h-51z" />
    <glyph glyph-name="uni0218" unicode="&#x218;" horiz-adv-x="615" 
d="M266 -6q-51 0 -100.5 11.5t-89.5 32t-64 45.5l36 58q24 -25 59.5 -44t78.5 -29.5t86 -10.5q62 0 108.5 16t72.5 47t26 75q0 35 -20 56.5t-52 35t-71 24.5t-78 24t-71.5 32t-52 50t-19.5 78q0 66 36 113.5t99 72.5t145 25q62 0 119.5 -15t97.5 -45l-31 -60
q-38 28 -87 42.5t-103 14.5q-61 0 -107 -17t-71.5 -48.5t-25.5 -75.5q0 -35 19.5 -57t52 -36t71.5 -25.5t78 -24t71.5 -31t52.5 -48t20 -75.5q0 -67 -37 -114.5t-101.5 -72t-147.5 -24.5zM183 -262l49 108l4 -28q-18 0 -29 10.5t-11 24.5q0 19 11.5 31t31.5 12
q21 0 32 -10.5t11 -25.5q0 -12 -4 -21.5t-14 -24.5l-43 -76h-38z" />
    <glyph glyph-name="uni0219" unicode="&#x219;" horiz-adv-x="488" 
d="M200 -5q-64 0 -121 18t-88 46l34 56q30 -27 79 -42.5t103 -15.5q75 0 115.5 25t40.5 69q0 30 -21.5 45.5t-55.5 24t-72 16.5t-72 20.5t-55.5 38.5t-21.5 70q0 50 28.5 87t79.5 57t120 20q50 0 99 -13t79 -36l-30 -57q-31 24 -72 34.5t-82 10.5q-73 0 -112.5 -26.5
t-39.5 -69.5q0 -30 21.5 -46t55.5 -25t72.5 -16.5t72 -20.5t55 -37.5t21.5 -68.5q0 -52 -29 -88.5t-81.5 -56t-122.5 -19.5zM106 -262l49 108l4 -28q-18 0 -29 10.5t-11 24.5q0 19 11.5 31t31.5 12q21 0 32 -10.5t11 -25.5q0 -12 -4 -21.5t-14 -24.5l-43 -76h-38z" />
    <glyph glyph-name="uni021A" unicode="&#x21a;" horiz-adv-x="574" 
d="M198 0l127 636h-247l13 64h566l-13 -64h-246l-127 -636h-73zM150 -262l49 108l4 -28q-18 0 -29 10.5t-11 24.5q0 19 11.5 31t31.5 12q21 0 32 -10.5t11 -25.5q0 -12 -4 -21.5t-14 -24.5l-43 -76h-38z" />
    <glyph glyph-name="uni021B" unicode="&#x21b;" horiz-adv-x="406" 
d="M214 -5q-45 0 -77 19.5t-44.5 55.5t-2.5 86l96 485h71l-96 -482q-10 -49 7.5 -76t64.5 -27q22 0 43 6.5t38 20.5l17 -54q-25 -19 -56 -26.5t-61 -7.5zM58 466l11 59h325l-12 -59h-324zM112 -262l49 108l4 -28q-18 0 -29 10.5t-11 24.5q0 19 11.5 31t31.5 12
q21 0 32 -10.5t11 -25.5q0 -12 -4 -21.5t-14 -24.5l-43 -76h-38z" />
    <glyph glyph-name="uni021E" unicode="&#x21e;" horiz-adv-x="813" 
d="M713 700h73l-140 -700h-73zM135 0h-73l140 700h73zM645 323h-452l12 65h453zM476 757l-114 124h64l115 -106h-56l138 106h69l-144 -124h-72z" />
    <glyph glyph-name="uni021F" unicode="&#x21f;" horiz-adv-x="676" 
d="M408 530q71 0 116.5 -27.5t63 -79.5t2.5 -124l-60 -299h-71l60 300q16 78 -16.5 122t-114.5 44q-84 0 -139.5 -46t-74.5 -138l-56 -282h-71l148 742h71l-74 -368l-18 26q38 68 98.5 99t135.5 31zM218 824l-114 124h64l115 -106h-56l138 106h69l-144 -124h-72z" />
    <glyph glyph-name="uni022A" unicode="&#x22a;" horiz-adv-x="839" 
d="M388 -6q-103 0 -176 36.5t-110.5 102t-37.5 152.5q0 86 29 162t84.5 134.5t133.5 91.5t175 33q104 0 176.5 -36.5t110 -102t37.5 -152.5q0 -86 -29 -162t-84.5 -134.5t-133.5 -91.5t-175 -33zM395 60q78 0 141 27.5t108 76.5t69 112.5t24 135.5q0 68 -29.5 119t-86.5 80
t-142 29q-78 0 -141 -27.5t-107.5 -76.5t-69 -112.5t-24.5 -135.5q0 -67 29.5 -118.5t86.5 -80.5t142 -29zM616 780q-17 0 -28.5 10t-11.5 27q0 20 13.5 33t30.5 13t28.5 -11t11.5 -27q0 -20 -13 -32.5t-31 -12.5zM440 780q-17 0 -28.5 10t-11.5 27q0 20 13.5 33t30.5 13
t28.5 -11t11.5 -27q0 -20 -13 -32.5t-31 -12.5zM394 913l9 45h309l-9 -45h-309z" />
    <glyph glyph-name="uni022B" unicode="&#x22b;" horiz-adv-x="627" 
d="M281 -5q-73 0 -126.5 27.5t-83 77.5t-29.5 118q0 90 39 160.5t108 111t157 40.5q73 0 126.5 -27t83 -77t29.5 -118q0 -90 -39 -160.5t-107.5 -111.5t-157.5 -41zM286 58q66 0 117.5 31.5t81 87.5t29.5 127q0 78 -45.5 121t-127.5 43q-65 0 -117 -32t-81.5 -87.5
t-29.5 -127.5q0 -77 45.5 -120t127.5 -43zM479 630q-17 0 -28.5 10t-11.5 27q0 20 13.5 33t30.5 13t28.5 -11t11.5 -27q0 -20 -13 -32.5t-31 -12.5zM303 630q-17 0 -28.5 10t-11.5 27q0 20 13.5 33t30.5 13t28.5 -11t11.5 -27q0 -20 -13 -32.5t-31 -12.5zM257 763l9 45h309
l-9 -45h-309z" />
    <glyph glyph-name="uni022C" unicode="&#x22c;" horiz-adv-x="839" 
d="M388 -6q-103 0 -176 36.5t-110.5 102t-37.5 152.5q0 86 29 162t84.5 134.5t133.5 91.5t175 33q104 0 176.5 -36.5t110 -102t37.5 -152.5q0 -86 -29 -162t-84.5 -134.5t-133.5 -91.5t-175 -33zM395 60q78 0 141 27.5t108 76.5t69 112.5t24 135.5q0 68 -29.5 119t-86.5 80
t-142 29q-78 0 -141 -27.5t-107.5 -76.5t-69 -112.5t-24.5 -135.5q0 -67 29.5 -118.5t86.5 -80.5t142 -29zM590 765q-29 0 -49 13.5t-36.5 27t-36.5 13.5q-23 0 -38 -13.5t-20 -36.5h-43q7 43 34.5 67.5t66.5 24.5q30 0 49.5 -13.5t36 -27t36.5 -13.5q24 0 39 14t20 35h42
q-7 -41 -34 -66t-67 -25zM394 913l9 45h309l-9 -45h-309z" />
    <glyph glyph-name="uni022D" unicode="&#x22d;" horiz-adv-x="627" 
d="M281 -5q-73 0 -126.5 27.5t-83 77.5t-29.5 118q0 90 39 160.5t108 111t157 40.5q73 0 126.5 -27t83 -77t29.5 -118q0 -90 -39 -160.5t-107.5 -111.5t-157.5 -41zM286 58q66 0 117.5 31.5t81 87.5t29.5 127q0 78 -45.5 121t-127.5 43q-65 0 -117 -32t-81.5 -87.5
t-29.5 -127.5q0 -77 45.5 -120t127.5 -43zM453 615q-29 0 -49 13.5t-36.5 27t-36.5 13.5q-23 0 -38 -13.5t-20 -36.5h-43q7 43 34.5 67.5t66.5 24.5q30 0 49.5 -13.5t36 -27t36.5 -13.5q24 0 39 14t20 35h42q-7 -41 -34 -66t-67 -25zM257 763l9 45h309l-9 -45h-309z" />
    <glyph glyph-name="uni0230" unicode="&#x230;" horiz-adv-x="839" 
d="M388 -6q-103 0 -176 36.5t-110.5 102t-37.5 152.5q0 86 29 162t84.5 134.5t133.5 91.5t175 33q104 0 176.5 -36.5t110 -102t37.5 -152.5q0 -86 -29 -162t-84.5 -134.5t-133.5 -91.5t-175 -33zM395 60q78 0 141 27.5t108 76.5t69 112.5t24 135.5q0 68 -29.5 119t-86.5 80
t-142 29q-78 0 -141 -27.5t-107.5 -76.5t-69 -112.5t-24.5 -135.5q0 -67 29.5 -118.5t86.5 -80.5t142 -29zM528 780q-16 0 -28 11t-12 28q0 20 13 33.5t32 13.5q16 0 28.5 -11t12.5 -30t-14 -32t-32 -13zM395 916l9 45h309l-9 -45h-309z" />
    <glyph glyph-name="uni0231" unicode="&#x231;" horiz-adv-x="627" 
d="M281 -5q-73 0 -126.5 27.5t-83 77.5t-29.5 118q0 90 39 160.5t108 111t157 40.5q73 0 126.5 -27t83 -77t29.5 -118q0 -90 -39 -160.5t-107.5 -111.5t-157.5 -41zM286 58q66 0 117.5 31.5t81 87.5t29.5 127q0 78 -45.5 121t-127.5 43q-65 0 -117 -32t-81.5 -87.5
t-29.5 -127.5q0 -77 45.5 -120t127.5 -43zM391 630q-16 0 -28 11t-12 28q0 20 13 33.5t32 13.5q16 0 28.5 -11t12.5 -30t-14 -32t-32 -13zM258 766l9 45h309l-9 -45h-309z" />
    <glyph glyph-name="uni0232" unicode="&#x232;" horiz-adv-x="635" 
d="M228 0l52 262l8 -50l-200 488h74l175 -426l-40 -1l345 427h79l-393 -489l25 51l-52 -262h-73zM269 795l9 47h309l-10 -47h-308z" />
    <glyph glyph-name="uni0233" unicode="&#x233;" horiz-adv-x="542" 
d="M20 -199q-37 0 -71 12.5t-54 34.5l38 52q17 -18 40 -28t52 -10q34 0 62.5 18.5t59.5 66.5l53 81l9 10l312 487h73l-384 -593q-33 -50 -62 -78.5t-59.5 -40.5t-68.5 -12zM188 -15l-135 540h72l118 -482zM179 645l9 47h309l-10 -47h-308z" />
    <glyph glyph-name="uni0237" unicode="&#x237;" horiz-adv-x="274" 
d="M-63 -199q-34 0 -62.5 8.5t-48.5 24.5l33 55q31 -27 79 -27q43 0 68.5 23.5t36.5 76.5l113 563h71l-113 -565q-32 -159 -177 -159z" />
    <glyph glyph-name="uni0259" unicode="&#x259;" horiz-adv-x="604" 
d="M317 530q76 0 131 -27t84.5 -77t29.5 -120q0 -89 -38 -159t-103.5 -111t-150.5 -41q-69 0 -120.5 27t-79.5 77t-28 119q0 18 1.5 34t5.5 30h460l-9 -53h-418l29 20q-10 -62 8.5 -105t59 -65.5t94.5 -22.5q65 0 114.5 31.5t77 87.5t27.5 128q0 79 -45 122t-136 43
q-53 0 -97.5 -18t-75.5 -49l-31 51q37 38 92.5 58t117.5 20z" />
    <glyph glyph-name="uni0292" unicode="&#x292;" horiz-adv-x="515" 
d="M144 -200q-66 0 -128.5 22.5t-109.5 70.5l37 57q40 -43 95 -63t111 -20q55 0 103.5 19t78 56.5t29.5 92.5q0 60 -39.5 93.5t-126.5 33.5h-47l8 50l271 278l6 -29h-389l13 64h449l-9 -50l-276 -279l-28 20h17q110 0 167.5 -46.5t57.5 -132.5q0 -58 -24 -102t-65 -74
t-93 -45.5t-108 -15.5z" />
    <glyph glyph-name="uni02B9" unicode="&#x2b9;" horiz-adv-x="202" 
d="M109 436l48 264h63l-58 -264h-53z" />
    <glyph glyph-name="uni02BA" unicode="&#x2ba;" horiz-adv-x="373" 
d="M281 436l47 264h64l-58 -264h-53zM110 436l47 264h64l-58 -264h-53z" />
    <glyph glyph-name="uni02BB" unicode="&#x2bb;" horiz-adv-x="266" 
d="M275 840l-81 -185l-6 45q21 0 36 -15t15 -37q0 -25 -16.5 -41t-39.5 -16q-21 0 -36 15t-15 36q0 14 4.5 25.5t13.5 27.5l77 145h48z" />
    <glyph glyph-name="uni02BC" unicode="&#x2bc;" horiz-adv-x="225" 
d="M110 498l80 184l7 -44q-22 0 -37 15t-15 37q0 25 17 41t39 16t36.5 -14.5t14.5 -37.5q0 -13 -4.5 -24.5t-13.5 -28.5l-76 -144h-48z" />
    <glyph glyph-name="uni02BE" unicode="&#x2be;" horiz-adv-x="600" 
d="M374 634q3 -1 6 -1h7q29 0 48 19.5t19 48.5q0 25 -14.5 43t-38.5 23l6 35q38 -7 61.5 -35t23.5 -65q0 -29 -13.5 -52.5t-37 -38t-54.5 -14.5h-10t-10 1z" />
    <glyph glyph-name="uni02BF" unicode="&#x2bf;" horiz-adv-x="600" 
d="M400 765q-4 1 -6.5 1h-6.5q-29 0 -48 -20t-19 -49q0 -25 14.5 -42.5t38.5 -22.5l-6 -35q-38 7 -61.5 35.5t-23.5 64.5q0 29 14 52.5t37.5 38t53.5 14.5h9.5t10.5 -2z" />
    <glyph glyph-name="circumflex" unicode="&#x2c6;" horiz-adv-x="600" 
d="M204 607l143 124h72l115 -124h-64l-116 106h56l-138 -106h-68z" />
    <glyph glyph-name="caron" unicode="&#x2c7;" horiz-adv-x="600" 
d="M340 607l-114 124h64l115 -106h-56l138 106h69l-144 -124h-72z" />
    <glyph glyph-name="uni02C8" unicode="&#x2c8;" horiz-adv-x="166" 
d="M108 513l37 187h51l-37 -187h-51z" />
    <glyph glyph-name="uni02C9" unicode="&#x2c9;" horiz-adv-x="600" 
d="M223 645l9 47h309l-10 -47h-308z" />
    <glyph glyph-name="uni02CA" unicode="&#x2ca;" horiz-adv-x="600" 
d="M301 607l152 124h97l-175 -124h-74z" />
    <glyph glyph-name="uni02CB" unicode="&#x2cb;" horiz-adv-x="600" 
d="M363 607l-137 124h94l114 -124h-71z" />
    <glyph glyph-name="uni02CC" unicode="&#x2cc;" horiz-adv-x="167" 
d="M-38 -217l37 187h52l-38 -187h-51z" />
    <glyph glyph-name="breve" unicode="&#x2d8;" horiz-adv-x="600" 
d="M379 602q-41 0 -74 16t-50.5 44.5t-14.5 68.5h49q-2 -39 24 -62t70 -23q42 0 73 22.5t37 62.5h52q-10 -60 -56.5 -94.5t-109.5 -34.5z" />
    <glyph glyph-name="dotaccent" unicode="&#x2d9;" horiz-adv-x="600" 
d="M380 630q-20 0 -32.5 12t-12.5 31q0 23 15 38t36 15q19 0 32 -12t13 -31q0 -23 -15 -38t-36 -15z" />
    <glyph glyph-name="ring" unicode="&#x2da;" horiz-adv-x="600" 
d="M387 595q-30 0 -53.5 14t-37 37t-13.5 51t13.5 52t37 38.5t53.5 14.5t53.5 -14.5t37 -38.5t13.5 -52t-13.5 -51t-37 -37t-53.5 -14zM387 630q30 0 49 19.5t19 47.5q0 29 -19 49.5t-49 20.5q-29 0 -48.5 -20t-19.5 -50q0 -29 19 -48t49 -19z" />
    <glyph glyph-name="ogonek" unicode="&#x2db;" horiz-adv-x="600" 
d="M144 -220q-43 0 -70 21.5t-27 60.5q0 33 19 62.5t57 56t95 48.5l30 -29q-48 -18 -81 -39.5t-49.5 -43.5t-16.5 -47q0 -22 14.5 -34t38.5 -12q18 0 36 5t32 14l11 -39q-19 -11 -41 -17.5t-48 -6.5z" />
    <glyph glyph-name="tilde" unicode="&#x2dc;" horiz-adv-x="600" 
d="M446 613q-23 0 -40.5 10t-31.5 23.5t-28 24t-31 10.5q-22 0 -37 -17.5t-20 -46.5h-43q8 52 35 81t66 29q23 0 40.5 -10.5t31.5 -24t28 -23.5t30 -10q23 0 38.5 17.5t19.5 44.5h43q-8 -50 -34.5 -79t-66.5 -29z" />
    <glyph glyph-name="hungarumlaut" unicode="&#x2dd;" horiz-adv-x="600" 
d="M418 607l109 124h82l-127 -124h-64zM254 607l110 124h82l-126 -124h-66z" />
    <glyph glyph-name="gravecomb" unicode="&#x300;" 
d="M363 607l-137 124h94l114 -124h-71z" />
    <glyph glyph-name="acutecomb" unicode="&#x301;" 
d="M301 607l152 124h97l-175 -124h-74z" />
    <glyph glyph-name="uni0302" unicode="&#x302;" 
d="M204 607l143 124h72l115 -124h-64l-116 106h56l-138 -106h-68z" />
    <glyph glyph-name="tildecomb" unicode="&#x303;" 
d="M446 613q-23 0 -40.5 10t-31.5 23.5t-28 24t-31 10.5q-22 0 -37 -17.5t-20 -46.5h-43q8 52 35 81t66 29q23 0 40.5 -10.5t31.5 -24t28 -23.5t30 -10q23 0 38.5 17.5t19.5 44.5h43q-8 -50 -34.5 -79t-66.5 -29z" />
    <glyph glyph-name="uni0304" unicode="&#x304;" 
d="M222 645l9 47h309l-10 -47h-308z" />
    <glyph glyph-name="uni0306" unicode="&#x306;" 
d="M379 602q-41 0 -74 16t-50.5 44.5t-14.5 68.5h49q-2 -39 24 -62t70 -23q42 0 73 22.5t37 62.5h52q-10 -60 -56.5 -94.5t-109.5 -34.5z" />
    <glyph glyph-name="uni0307" unicode="&#x307;" 
d="M380 630q-20 0 -32.5 12t-12.5 31q0 23 15 38t36 15q19 0 32 -12t13 -31q0 -23 -15 -38t-36 -15z" />
    <glyph glyph-name="uni0308" unicode="&#x308;" 
d="M468 630q-17 0 -28.5 11t-11.5 27q0 21 13.5 34.5t31.5 13.5q17 0 29 -11t12 -29q0 -20 -13.5 -33t-32.5 -13zM290 630q-17 0 -29 11t-12 27q0 21 14 34.5t31 13.5q18 0 29.5 -11t11.5 -29q0 -20 -13.5 -33t-31.5 -13z" />
    <glyph glyph-name="hookabovecomb" unicode="&#x309;" 
d="M387 598l-20 33q33 14 50 33t17 44q0 19 -14 31t-36 12q-30 0 -61 -19l-16 36q19 13 42.5 19t44.5 6q40 0 63.5 -20.5t23.5 -55.5q0 -38 -23 -67.5t-71 -51.5z" />
    <glyph glyph-name="uni030A" unicode="&#x30a;" 
d="M387 595q-30 0 -53.5 14t-37 37t-13.5 51t13.5 52t37 38.5t53.5 14.5t53.5 -14.5t37 -38.5t13.5 -52t-13.5 -51t-37 -37t-53.5 -14zM387 630q30 0 49 19.5t19 47.5q0 29 -19 49.5t-49 20.5q-29 0 -48.5 -20t-19.5 -50q0 -29 19 -48t49 -19z" />
    <glyph glyph-name="uni030B" unicode="&#x30b;" 
d="M418 607l109 124h82l-127 -124h-64zM254 607l110 124h82l-126 -124h-66z" />
    <glyph glyph-name="uni030C" unicode="&#x30c;" 
d="M340 607l-114 124h64l115 -106h-56l138 106h69l-144 -124h-72z" />
    <glyph glyph-name="uni030F" unicode="&#x30f;" 
d="M420 607l-89 124h77l72 -124h-60zM257 607l-89 124h78l72 -124h-61z" />
    <glyph glyph-name="uni0311" unicode="&#x311;" 
d="M216 607q10 60 56.5 94.5t109.5 34.5q41 0 73.5 -16t50.5 -44.5t15 -68.5h-49q2 39 -24 62.5t-70 23.5q-42 0 -73.5 -23.5t-37.5 -62.5h-51z" />
    <glyph glyph-name="uni0312" unicode="&#x312;" 
d="M375 602q-21 0 -33 11t-12 26q0 11 4 21t14 24l55 97h42l-61 -129l-5 28q20 0 32 -9.5t12 -25.5q0 -18 -12.5 -30.5t-35.5 -12.5z" />
    <glyph glyph-name="uni031B" unicode="&#x31b;" 
d="M337 471v54h15q35 0 50.5 20t15.5 48q0 19 -5.5 35t-14.5 29l47 18q12 -17 19 -38.5t7 -45.5q0 -35 -13.5 -62t-40 -42.5t-65.5 -15.5h-15z" />
    <glyph glyph-name="dotbelowcomb" unicode="&#x323;" 
d="M212 -190q-16 0 -27 11.5t-10 28.5q1 19 15.5 32.5t33.5 13.5q16 0 27 -10.5t10 -28.5q-1 -20 -15 -33.5t-34 -13.5z" />
    <glyph glyph-name="uni0324" unicode="&#x324;" 
d="M299 -187q-17 0 -28.5 11t-11.5 27q0 19 13.5 32t31.5 13q15 0 27 -11t12 -26q0 -21 -13 -33.5t-31 -12.5zM133 -187q-17 0 -28 11t-11 27q0 19 13 32t31 13q16 0 27.5 -11t11.5 -26q0 -21 -13 -33.5t-31 -12.5z" />
    <glyph glyph-name="uni0326" unicode="&#x326;" 
d="M163 -262l49 108l4 -28q-18 0 -29 10.5t-11 24.5q0 19 11.5 31t31.5 12q21 0 32 -10.5t11 -25.5q0 -12 -4 -21.5t-14 -24.5l-43 -76h-38z" />
    <glyph glyph-name="uni0327" unicode="&#x327;" 
d="M189 -220q-25 0 -46.5 6t-37.5 17l22 38q14 -9 30.5 -14t36.5 -5q33 0 50.5 15t17.5 38q0 19 -14 29.5t-41 10.5h-22l42 91h43l-26 -57q33 -5 51.5 -23.5t18.5 -47.5q0 -44 -34.5 -71t-90.5 -27z" />
    <glyph glyph-name="uni0328" unicode="&#x328;" 
d="M144 -220q-43 0 -70 21.5t-27 60.5q0 33 19 62.5t57 56t95 48.5l30 -29q-48 -18 -81 -39.5t-49.5 -43.5t-16.5 -47q0 -22 14.5 -34t38.5 -12q18 0 36 5t32 14l11 -39q-19 -11 -41 -17.5t-48 -6.5z" />
    <glyph glyph-name="uni032E" unicode="&#x32e;" 
d="M218 -205q-42 0 -75 15.5t-50.5 42.5t-14.5 63h49q-2 -37 23.5 -58.5t69.5 -21.5q43 0 74 21t37 59h51q-9 -58 -56 -89.5t-108 -31.5z" />
    <glyph glyph-name="uni0331" unicode="&#x331;" 
d="M60 -169l8 47h309l-9 -47h-308z" />
    <glyph glyph-name="uni0335" unicode="&#x335;" 
d="M135 413l10 52h390l-9 -52h-391z" />
    <glyph glyph-name="uni0336" unicode="&#x336;" 
d="M56 409l10 60h798l-11 -60h-797z" />
    <glyph glyph-name="uni0337" unicode="&#x337;" 
d="M89 270l-29 45l279 182l28 -45z" />
    <glyph glyph-name="uni0338" unicode="&#x338;" 
d="M-4 -70l573 665h51l-573 -665h-51z" />
    <glyph glyph-name="uni0394" unicode="&#x394;" horiz-adv-x="717" 
d="M482 700l181 -700h-713l460 700h72zM48 29l-20 35h578l-24 -35l-157 630h30z" />
    <glyph glyph-name="uni03A9" unicode="&#x3a9;" horiz-adv-x="902" 
d="M-42 0l12 65h238q-59 51 -84.5 111t-25.5 142q0 88 30.5 159.5t86 122.5t131.5 78.5t166 27.5q97 0 172 -33.5t117.5 -97.5t42.5 -156q0 -67 -18.5 -123t-49.5 -100.5t-69 -77t-78 -53.5h223l-12 -65h-339l12 60q51 20 97 52t82 76.5t56.5 101t20.5 124.5q0 110 -71 168
t-191 58q-101 0 -177 -40.5t-118 -114t-42 -171.5q0 -59 15 -104.5t45.5 -81.5t78.5 -68l-12 -60h-339z" />
    <glyph glyph-name="uni03BC" unicode="&#x3bc;" horiz-adv-x="678" 
d="M8 -194l144 719h71l-60 -299q-15 -78 16.5 -122.5t112.5 -44.5q82 0 138 46t74 138l56 282h71l-104 -525h-68l30 151l15 -25q-25 -45 -60 -74t-75.5 -43t-82.5 -14q-67 0 -109.5 25t-59.5 77l27 30l-65 -321h-71z" />
    <glyph glyph-name="pi" unicode="&#x3c0;" horiz-adv-x="722" 
d="M35 264q-10 16 -15.5 36.5t-5.5 42.5q0 52 23.5 93t72 65t121.5 24h534l-12 -59h-531q-73 0 -109 -34t-36 -87q0 -17 4 -32.5t12 -30.5zM126 0l154 487h71l-154 -487h-71zM431 0l97 487h71l-97 -487h-71z" />
    <glyph glyph-name="uni0400" unicode="&#x400;" horiz-adv-x="659" 
d="M209 387h370l-12 -63h-370zM152 64h421l-13 -64h-494l140 700h480l-13 -64h-407zM451 757l-137 124h94l114 -124h-71z" />
    <glyph glyph-name="uni0401" unicode="&#x401;" horiz-adv-x="659" 
d="M209 387h370l-12 -63h-370zM152 64h421l-13 -64h-494l140 700h480l-13 -64h-407zM556 780q-17 0 -28.5 11t-11.5 27q0 21 13.5 34.5t31.5 13.5q17 0 29 -11t12 -29q0 -20 -13.5 -33t-32.5 -13zM378 780q-17 0 -29 11t-12 27q0 21 14 34.5t31 13.5q18 0 29.5 -11t11.5 -29
q0 -20 -13.5 -33t-31.5 -13z" />
    <glyph glyph-name="uni0402" unicode="&#x402;" horiz-adv-x="825" 
d="M206 0l130 656l15 -20h-264l13 64h585l-13 -64h-286l23 20l-130 -656h-73zM421 6l17 61q51 -14 98.5 -6t85.5 33t60 64t22 87q0 63 -48 92t-133.5 21.5t-198.5 -54.5l12 69q95 37 175 46t140 -8t93 -58t33 -104q0 -65 -29 -118t-79.5 -87t-114 -45t-133.5 7z" />
    <glyph glyph-name="uni0403" unicode="&#x403;" horiz-adv-x="575" 
d="M66 0l140 700h445l-14 -64h-393l24 19l-130 -655h-72zM364 757l152 124h97l-175 -124h-74z" />
    <glyph glyph-name="uni0404" unicode="&#x404;" horiz-adv-x="709" 
d="M519 374l-11 -61h-387l11 61h387zM355 -6q-85 0 -149.5 37.5t-99.5 103.5t-35 150q0 89 34.5 165t94 134t136.5 90t162 32q81 0 144 -26t100 -77l-55 -47q-35 45 -85.5 64.5t-113.5 19.5q-68 0 -129.5 -26.5t-109.5 -73.5t-75.5 -109t-27.5 -134q0 -68 28 -122t79 -84.5
t119 -30.5q63 0 121 20t111 64l37 -47q-57 -51 -131 -77t-155 -26z" />
    <glyph glyph-name="uni0405" unicode="&#x405;" horiz-adv-x="626" 
d="M273 -6q-51 0 -100.5 11.5t-89.5 32t-64 45.5l36 58q24 -25 59.5 -44t78.5 -29.5t86 -10.5q62 0 108.5 16t72.5 47t26 75q0 35 -20 56.5t-52 35t-71 24.5t-78 24t-71.5 32t-52 50t-19.5 78q0 66 36 113.5t99 72.5t145 25q62 0 119.5 -15t97.5 -45l-31 -60
q-38 28 -87 42.5t-103 14.5q-61 0 -107 -17t-71.5 -48.5t-25.5 -75.5q0 -35 19.5 -57t52 -36t71.5 -25.5t78 -24t71.5 -31t52.5 -48t20 -75.5q0 -67 -37 -114.5t-101.5 -72t-147.5 -24.5z" />
    <glyph glyph-name="uni0406" unicode="&#x406;" horiz-adv-x="302" 
d="M62 0l140 700h73l-140 -700h-73z" />
    <glyph glyph-name="uni0407" unicode="&#x407;" horiz-adv-x="302" 
d="M62 0l140 700h73l-140 -700h-73zM349 780q-17 0 -28.5 11t-11.5 27q0 21 13.5 34.5t31.5 13.5q17 0 29 -11t12 -29q0 -20 -13.5 -33t-32.5 -13zM171 780q-17 0 -29 11t-12 27q0 21 14 34.5t31 13.5q18 0 29.5 -11t11.5 -29q0 -20 -13.5 -33t-31.5 -13z" />
    <glyph glyph-name="uni0408" unicode="&#x408;" horiz-adv-x="528" 
d="M180 -6q-68 0 -117.5 27t-73.5 74l52 47q19 -39 55.5 -61.5t85.5 -22.5q61 0 99.5 34.5t54.5 116.5l85 427h-255l13 64h327l-98 -491q-15 -79 -45.5 -126t-76 -68t-106.5 -21z" />
    <glyph glyph-name="uni0409" unicode="&#x409;" horiz-adv-x="1189" 
d="M15 -6q-14 0 -27 2t-29 5l18 66q16 -4 31 -4q44 0 78 33t63.5 107t59.5 198l71 299h474l-140 -700h-72l131 656l15 -20h-375l23 21l-60 -255q-27 -113 -54 -191t-57.5 -125.5t-67 -69.5t-82.5 -22zM919 450q223 0 223 -186q0 -80 -39.5 -139.5t-111.5 -92t-170 -32.5
h-279l140 700h72l-50 -250h215zM828 59q73 0 126.5 24t82.5 69t29 106q0 69 -39.5 100.5t-125.5 31.5h-209l-66 -331h202z" />
    <glyph glyph-name="uni040A" unicode="&#x40a;" horiz-adv-x="1186" 
d="M66 0l140 700h72l-57 -288h423l57 288h73l-140 -700h-73l70 348h-423l-70 -348h-72zM642 39l-15 20h219q67 0 115.5 22t75 62.5t26.5 93.5q0 57 -40.5 87.5t-117.5 30.5h-219l23 21zM561 0l140 700h73l-61 -308l-15 23h237q99 0 151.5 -43t52.5 -121q0 -76 -37 -132.5
t-104.5 -87.5t-158.5 -31h-278z" />
    <glyph glyph-name="uni040B" unicode="&#x40b;" horiz-adv-x="835" 
d="M205 0l130 656l15 -20h-264l13 64h583l-13 -64h-285l23 20l-130 -656h-72zM334 368q68 27 126 39.5t108 12.5q111 0 166.5 -57t33.5 -170l-39 -193h-72l38 190q16 82 -23 123t-121 41q-49 0 -104.5 -14.5t-121.5 -42.5z" />
    <glyph glyph-name="uni040C" unicode="&#x40c;" horiz-adv-x="702" 
d="M66 0l140 700h73l-140 -700h-73zM181 322l12 64h219l-12 -64h-219zM550 0l-201 350l62 33l218 -383h-79zM411 343l-69 12l330 345h84zM384 757l152 124h97l-175 -124h-74z" />
    <glyph glyph-name="uni040D" unicode="&#x40d;" horiz-adv-x="824" 
d="M66 0l140 700h72l-116 -580l564 580h67l-140 -700h-72l117 579l-565 -579h-67zM503 757l-137 124h94l114 -124h-71z" />
    <glyph glyph-name="uni040E" unicode="&#x40e;" horiz-adv-x="681" 
d="M63 71q32 -12 64.5 -12t65 16.5t63.5 54.5l45 54l10 9l369 507h76l-435 -591q-43 -59 -92 -87t-98.5 -28.5t-94.5 20.5zM299 126l-190 574h77l163 -513zM432 751q-74 0 -112 35t-29 93h50q-5 -39 20 -62.5t73 -23.5q46 0 80 23t43 63h51q-12 -61 -58.5 -94.5
t-117.5 -33.5z" />
    <glyph glyph-name="uni040F" unicode="&#x40f;" horiz-adv-x="806" 
d="M775 700l-140 -700h-251l-32 -164h-69l33 164h-250l140 700h72l-127 -636h424l127 636h73z" />
    <glyph glyph-name="uni0410" unicode="&#x410;" horiz-adv-x="744" 
d="M-37 0l460 700h73l180 -700h-74l-164 659h30l-425 -659h-80zM126 187l34 60h407l11 -60h-452z" />
    <glyph glyph-name="uni0411" unicode="&#x411;" horiz-adv-x="729" 
d="M66 0l140 700h512l-13 -63h-440l-45 -229h229q107 0 162.5 -44t55.5 -131q0 -73 -37.5 -125t-108 -80t-169.5 -28h-286zM150 59h212q108 0 168.5 44.5t60.5 124.5q0 63 -41 92t-130 29h-212z" />
    <glyph glyph-name="uni0412" unicode="&#x412;" horiz-adv-x="754" 
d="M62 0l140 700h299q101 0 158 -38t57 -111q0 -68 -33 -113.5t-86.5 -68.5t-115.5 -23l22 23q84 0 133.5 -38.5t49.5 -113.5q0 -70 -36.5 -119t-103.5 -73.5t-159 -24.5h-325zM147 61h246q105 0 162.5 40t57.5 115q0 60 -41.5 84t-121.5 24h-263l12 61h236q60 0 106.5 17
t72.5 51.5t26 84.5q0 52 -40 76.5t-113 24.5h-225z" />
    <glyph glyph-name="uni0413" unicode="&#x413;" horiz-adv-x="575" 
d="M66 0l140 700h445l-14 -64h-393l24 19l-130 -655h-72z" />
    <glyph glyph-name="uni0414" unicode="&#x414;" horiz-adv-x="793" 
d="M537 35l120 601h-335l-40 -173q-19 -79 -39.5 -150.5t-44.5 -129t-53.5 -93.5t-66.5 -41l-84 15q40 -2 73 29t60 88t49.5 132.5t42.5 161.5l52 225h472l-133 -665h-73zM-72 -157l45 221h749l-45 -221h-69l32 157h-611l-33 -157h-68z" />
    <glyph glyph-name="uni0415" unicode="&#x415;" horiz-adv-x="659" 
d="M209 387h370l-12 -63h-370zM152 64h421l-13 -64h-494l140 700h480l-13 -64h-407z" />
    <glyph glyph-name="uni0416" unicode="&#x416;" horiz-adv-x="1011" 
d="M850 0l-164 349l68 36l180 -385h-84zM531 321l13 65h200l-13 -65h-200zM751 342l-67 12l292 346h82zM59 0h-89l334 385l57 -36zM490 0h-72l140 700h72zM505 321h-201l13 65h200zM295 342l-164 358h77l154 -346z" />
    <glyph glyph-name="uni0417" unicode="&#x417;" horiz-adv-x="636" 
d="M244 -6q-68 0 -133 22.5t-113 69.5l38 53q39 -41 95 -60.5t115 -19.5q46 0 88.5 11.5t77 33t54.5 52t20 68.5q0 54 -40.5 81.5t-118.5 27.5h-151l12 60h149q56 0 96 17t62 47.5t22 69.5q0 38 -21.5 63.5t-58 39t-83.5 13.5t-101 -14.5t-108 -43.5l-13 60q59 31 118.5 46
t113.5 15q65 0 116.5 -19.5t82.5 -57t31 -90.5q0 -54 -31 -96t-85.5 -66t-124.5 -24l8 22q62 0 106 -19t68 -54.5t24 -83.5q0 -51 -26.5 -92.5t-71.5 -71t-101 -45t-116 -15.5z" />
    <glyph glyph-name="uni0418" unicode="&#x418;" horiz-adv-x="824" 
d="M66 0l140 700h72l-116 -580l564 580h67l-140 -700h-72l117 579l-565 -579h-67z" />
    <glyph glyph-name="uni0419" unicode="&#x419;" horiz-adv-x="824" 
d="M66 0l140 700h72l-116 -580l564 580h67l-140 -700h-72l117 579l-565 -579h-67zM509 751q-74 0 -112 35t-29 93h50q-5 -39 20 -62.5t73 -23.5q46 0 80 23t43 63h51q-12 -61 -58.5 -94.5t-117.5 -33.5z" />
    <glyph glyph-name="uni041A" unicode="&#x41a;" horiz-adv-x="702" 
d="M66 0l140 700h73l-140 -700h-73zM181 322l12 64h219l-12 -64h-219zM550 0l-201 350l62 33l218 -383h-79zM411 343l-69 12l330 345h84z" />
    <glyph glyph-name="uni041B" unicode="&#x41b;" horiz-adv-x="785" 
d="M15 -6q-14 0 -27 2t-29 5l18 66q16 -4 31 -4q44 0 78 33t63.5 107t59.5 198l71 299h474l-140 -700h-72l131 656l15 -20h-375l23 21l-60 -255q-27 -113 -54 -191t-57.5 -125.5t-67 -69.5t-82.5 -22z" />
    <glyph glyph-name="uni041C" unicode="&#x41c;" horiz-adv-x="963" 
d="M66 0l140 700h60l213 -547l-31 1l420 546h65l-140 -700h-71l118 591l19 -2l-388 -500h-35l-198 503l16 -3l-117 -589h-71z" />
    <glyph glyph-name="uni041D" unicode="&#x41d;" horiz-adv-x="821" 
d="M717 700h73l-140 -700h-73zM139 0h-73l140 700h73zM649 323h-452l12 65h453z" />
    <glyph glyph-name="uni041E" unicode="&#x41e;" horiz-adv-x="860" 
d="M398 -6q-103 0 -176 36.5t-110.5 102t-37.5 152.5q0 86 29 162t84.5 134.5t133.5 91.5t175 33q104 0 176.5 -36.5t110 -102t37.5 -152.5q0 -86 -29 -162t-84.5 -134.5t-133.5 -91.5t-175 -33zM405 60q78 0 141 27.5t108 76.5t69 112.5t24 135.5q0 68 -29.5 119t-86.5 80
t-142 29q-78 0 -141 -27.5t-107.5 -76.5t-69 -112.5t-24.5 -135.5q0 -67 29.5 -118.5t86.5 -80.5t142 -29z" />
    <glyph glyph-name="uni041F" unicode="&#x41f;" horiz-adv-x="825" 
d="M66 0l140 700h588l-140 -700h-72l130 656l15 -20h-482l23 20l-130 -656h-72z" />
    <glyph glyph-name="uni0420" unicode="&#x420;" horiz-adv-x="715" 
d="M64 0l140 700h251q119 0 184.5 -52t65.5 -146q0 -90 -39.5 -152.5t-112.5 -95.5t-173 -33h-231l40 35l-52 -256h-73zM187 250l-26 36h220q119 0 184.5 53t65.5 156q0 69 -47 105t-135 36h-216l39 37z" />
    <glyph glyph-name="uni0421" unicode="&#x421;" horiz-adv-x="734" 
d="M401 -6q-104 0 -177 36.5t-111.5 102t-38.5 152.5q0 86 29.5 162t85 134.5t134 91.5t177.5 33q84 0 149 -26t100 -76l-52 -46q-33 41 -83 61.5t-120 20.5q-79 0 -143.5 -27.5t-109.5 -76.5t-69.5 -112.5t-24.5 -135.5q0 -67 29.5 -118.5t87.5 -80.5t142 -29q69 0 125 21
t98 62l43 -49q-46 -49 -117 -74.5t-154 -25.5z" />
    <glyph glyph-name="uni0422" unicode="&#x422;" horiz-adv-x="588" 
d="M205 0l130 656l15 -20h-264l13 64h565l-13 -64h-267l23 20l-130 -656h-72z" />
    <glyph glyph-name="uni0423" unicode="&#x423;" horiz-adv-x="681" 
d="M63 71q32 -12 64.5 -12t65 16.5t63.5 54.5l45 54l10 9l369 507h76l-435 -591q-43 -59 -92 -87t-98.5 -28.5t-94.5 20.5zM299 126l-190 574h77l163 -513z" />
    <glyph glyph-name="uni0424" unicode="&#x424;" horiz-adv-x="921" 
d="M412 48q-165 0 -257 66t-92 187q0 107 56.5 186t160 123t244.5 44h19q166 0 257.5 -66.5t91.5 -188.5q0 -107 -56.5 -186t-160 -122t-243.5 -43h-20zM423 107h10q121 0 207.5 34.5t133 98.5t46.5 152q0 98 -73.5 150t-212.5 52h-10q-121 0 -208.5 -34.5t-133.5 -98
t-46 -151.5q0 -99 73.5 -151t213.5 -52zM369 -24l149 748h69l-150 -748h-68z" />
    <glyph glyph-name="uni0425" unicode="&#x425;" horiz-adv-x="649" 
d="M129 700h83l142 -277l255 277h88l-306 -337l183 -363h-84l-156 301l-278 -301h-87l331 360z" />
    <glyph glyph-name="uni0426" unicode="&#x426;" horiz-adv-x="827" 
d="M66 0l140 700h72l-127 -636h424l127 636h73l-140 -700h-569zM644 -164l36 184l14 -20h-132l13 64h184l-46 -228h-69z" />
    <glyph glyph-name="uni0427" unicode="&#x427;" horiz-adv-x="730" 
d="M562 295q-67 -27 -128.5 -40.5t-113.5 -13.5q-125 0 -183 61t-36 170l45 228h73l-45 -226q-17 -81 24.5 -124.5t131.5 -43.5q55 0 116.5 15t123.5 42zM487 0l140 700h72l-140 -700h-72z" />
    <glyph glyph-name="uni0428" unicode="&#x428;" horiz-adv-x="1094" 
d="M490 64l-22 -20l131 656h72l-130 -656l-16 20h359l-23 -20l130 656h72l-140 -700h-857l140 700h72l-130 -656l-15 20h357z" />
    <glyph glyph-name="uni0429" unicode="&#x429;" horiz-adv-x="1115" 
d="M490 64l-22 -20l131 656h72l-130 -656l-16 20h359l-23 -20l130 656h72l-140 -700h-857l140 700h72l-130 -656l-15 20h357zM932 -157l35 177l17 -20h-134l14 64h181l-44 -221h-69z" />
    <glyph glyph-name="uni042A" unicode="&#x42a;" horiz-adv-x="822" 
d="M559 450q106 0 161 -44t55 -129q0 -87 -37.5 -149t-109.5 -95t-175 -33h-277l127 636h-217l13 64h290l-50 -250h220zM464 59q116 0 176.5 54t60.5 151q0 64 -43.5 95t-127.5 31h-203l-66 -331h203z" />
    <glyph glyph-name="uni042B" unicode="&#x42b;" horiz-adv-x="994" 
d="M443 450q223 0 223 -186q0 -80 -39.5 -139.5t-111.5 -92t-170 -32.5h-279l140 700h72l-50 -250h215zM352 59q73 0 126.5 24t82.5 69t29 106q0 69 -39.5 100.5t-125.5 31.5h-209l-66 -331h202zM753 0l140 700h73l-140 -700h-73z" />
    <glyph glyph-name="uni042C" unicode="&#x42c;" horiz-adv-x="713" 
d="M443 450q223 0 223 -186q0 -80 -39.5 -139.5t-111.5 -92t-170 -32.5h-279l140 700h72l-50 -250h215zM352 59q73 0 126.5 24t82.5 69t29 106q0 69 -39.5 100.5t-125.5 31.5h-209l-66 -331h202z" />
    <glyph glyph-name="uni042D" unicode="&#x42d;" horiz-adv-x="708" 
d="M224 326l11 61h387l-11 -61h-387zM388 706q86 0 150 -37.5t99.5 -103.5t35.5 -150q0 -89 -35 -165t-94.5 -134t-136.5 -90t-162 -32q-80 0 -143.5 26t-100.5 77l56 47q35 -45 85.5 -64.5t112.5 -19.5q68 0 129.5 26.5t109.5 73.5t75.5 109t27.5 134q0 69 -28 122.5
t-78.5 84t-119.5 30.5q-63 0 -121 -20t-110 -64l-38 47q57 51 131 77t155 26z" />
    <glyph glyph-name="uni042E" unicode="&#x42e;" horiz-adv-x="1095" 
d="M66 0l140 700h72l-62 -311h180l-13 -67h-180l-65 -322h-72zM641 -6q-88 0 -155.5 37t-105 104t-37.5 156q0 84 33 159t91 133t133 90.5t159 32.5q89 0 156.5 -37.5t105 -104.5t37.5 -156q0 -84 -33 -158.5t-91 -132t-133.5 -90.5t-159.5 -33zM646 62q68 0 129 27.5
t107.5 75.5t73.5 109.5t27 129.5q0 70 -28.5 123t-80 82t-120.5 29q-67 0 -128 -27.5t-107.5 -75.5t-73.5 -109.5t-27 -130.5q0 -70 28.5 -122.5t79.5 -81.5t120 -29z" />
    <glyph glyph-name="uni042F" unicode="&#x42f;" horiz-adv-x="734" 
d="M491 0l46 232l17 -20h-229q-106 0 -165 52.5t-59 147.5q0 88 41 152.5t115.5 100t173.5 35.5h272l-140 -700h-72zM16 0l222 246h81l-219 -246h-84zM542 253l80 404l16 -21h-215q-79 0 -134 -26t-84 -74t-29 -114q0 -72 43 -109.5t123 -37.5h224z" />
    <glyph glyph-name="uni0430" unicode="&#x430;" horiz-adv-x="689" 
d="M280 -5q-67 0 -119 27t-81 77t-29 119q0 67 22 124t62 99.5t94.5 65.5t118.5 23q69 0 117 -24.5t74 -71t26 -112.5q0 -95 -35 -169t-99 -116t-151 -42zM295 58q66 0 117.5 31.5t81 87.5t29.5 127q0 78 -45.5 121t-127.5 43q-65 0 -117 -32t-81.5 -87.5t-29.5 -127.5
q0 -77 45.5 -120t127.5 -43zM468 0l30 151l30 106l10 110l32 158h71l-105 -525h-68z" />
    <glyph glyph-name="uni0431" unicode="&#x431;" horiz-adv-x="665" 
d="M308 -6q-112 0 -175 66t-63 191q0 83 25 158t71 137t110 104t141 58l244 51l2 -61l-230 -48q-80 -17 -141.5 -64t-100 -118t-50.5 -160l-21 13q46 86 119 131t163 45q100 0 156.5 -54.5t56.5 -152.5q0 -85 -39.5 -152t-109 -105.5t-158.5 -38.5zM313 50q64 0 115.5 30.5
t81 82t29.5 116.5q0 74 -42 114.5t-117 40.5q-47 0 -90 -17t-77 -46t-53.5 -67t-19.5 -81q0 -78 46.5 -125.5t126.5 -47.5z" />
    <glyph glyph-name="uni0432" unicode="&#x432;" horiz-adv-x="608" 
d="M48 0l106 525h229q83 0 126 -29.5t43 -86.5q0 -67 -56 -108.5t-147 -41.5l13 19q83 0 121.5 -27.5t38.5 -86.5q0 -77 -61.5 -120.5t-169.5 -43.5h-243zM129 56h166q74 0 115.5 29t41.5 81q0 39 -26 56t-84 17h-176zM176 292h157q66 0 106.5 28.5t40.5 76.5q0 37 -27.5 55
t-82.5 18h-158z" />
    <glyph glyph-name="uni0433" unicode="&#x433;" horiz-adv-x="475" 
d="M48 0l105 525h373l-13 -62h-320l21 18l-95 -481h-71z" />
    <glyph glyph-name="uni0434" unicode="&#x434;" horiz-adv-x="650" 
d="M415 34l86 429h-253l-29 -120q-14 -53 -28.5 -103.5t-32.5 -92.5t-41.5 -68.5t-55.5 -30.5l-73 14q32 -1 56.5 22.5t44.5 65.5t36 95t30 108l42 172h387l-98 -491h-71zM-68 -127l37 189h605l-37 -189h-67l25 127h-471l-25 -127h-67z" />
    <glyph glyph-name="uni0435" unicode="&#x435;" horiz-adv-x="623" 
d="M296 -5q-75 0 -130.5 27.5t-85 77.5t-29.5 119q0 90 38 160t104 110.5t149 40.5q70 0 121 -26.5t79.5 -76.5t28.5 -120q0 -16 -2 -32.5t-5 -31.5h-461l9 53h419l-29 -20q10 63 -9 106t-58.5 65.5t-94.5 22.5q-64 0 -114 -31.5t-78 -87t-28 -129.5q0 -79 45.5 -121.5
t136.5 -42.5q53 0 98 17.5t74 48.5l32 -51q-37 -37 -92.5 -57.5t-117.5 -20.5z" />
    <glyph glyph-name="uni0436" unicode="&#x436;" horiz-adv-x="827" 
d="M673 0l-128 261l62 28l149 -289h-83zM422 236l11 58h167l-11 -58h-167zM611 256l-69 9l227 260h80zM53 0h-89l264 294l55 -33zM396 0h-71l105 525h72zM395 236h-166l12 58h165zM217 256l-131 269h75l123 -260z" />
    <glyph glyph-name="uni0437" unicode="&#x437;" horiz-adv-x="525" 
d="M195 -6q-123 0 -201 67l30 50q30 -27 74.5 -41t97.5 -14q52 0 92.5 14.5t63.5 39t23 55.5q0 38 -33 59t-93 21h-87l8 54h75q68 0 109.5 25.5t41.5 65.5q0 37 -32.5 58t-91.5 21q-41 0 -81.5 -11t-85.5 -31l-20 59q49 23 97.5 34t95.5 11q57 0 100 -16t67 -45t24 -69
q0 -35 -19 -63t-54.5 -46.5t-83.5 -25.5l-2 13q66 -9 101 -39.5t35 -79.5q0 -47 -32.5 -84.5t-89.5 -59.5t-129 -22z" />
    <glyph glyph-name="uni0438" unicode="&#x438;" horiz-adv-x="688" 
d="M48 0l106 525h71l-85 -424l432 424h68l-105 -525h-73l87 425l-432 -425h-69z" />
    <glyph glyph-name="uni0439" unicode="&#x439;" horiz-adv-x="688" 
d="M48 0l106 525h71l-85 -424l432 424h68l-105 -525h-73l87 425l-432 -425h-69zM414 602q-69 0 -104 34.5t-24 93.5h49q-7 -39 16 -63t67 -24q43 0 74.5 23.5t40.5 63.5h50q-12 -61 -56.5 -94.5t-112.5 -33.5z" />
    <glyph glyph-name="uni043A" unicode="&#x43a;" horiz-adv-x="579" 
d="M434 0l-161 261l59 27l183 -288h-81zM48 0l106 525h71l-106 -525h-71zM145 234l11 61h169l-11 -61h-169zM334 255l-69 10l263 260h80z" />
    <glyph glyph-name="uni043B" unicode="&#x43b;" horiz-adv-x="632" 
d="M-47 1l17 61q7 -1 13 -2.5t11 -1.5q36 0 63.5 32.5t50 95.5t45.5 154l46 185h385l-106 -525h-71l97 486l15 -23h-286l21 23l-38 -153q-22 -86 -43.5 -149.5t-46 -105.5t-54 -63t-67.5 -21q-13 0 -25 2t-27 5z" />
    <glyph glyph-name="uni043C" unicode="&#x43c;" horiz-adv-x="789" 
d="M48 0l105 525h71l157 -403h-30l323 403h67l-105 -525h-65l89 444l12 -6l-301 -374h-32l-151 378l14 3l-89 -445h-65z" />
    <glyph glyph-name="uni043D" unicode="&#x43d;" horiz-adv-x="674" 
d="M48 0l105 525h71l-46 -232h330l47 232h71l-105 -525h-71l46 232h-330l-47 -232h-71z" />
    <glyph glyph-name="uni043E" unicode="&#x43e;" horiz-adv-x="643" 
d="M289 -5q-73 0 -126.5 27.5t-83 77.5t-29.5 118q0 90 39 160.5t108 111t157 40.5q73 0 126.5 -27t83 -77t29.5 -118q0 -90 -39 -160.5t-107.5 -111.5t-157.5 -41zM294 58q66 0 117.5 31.5t81 87.5t29.5 127q0 78 -45.5 121t-127.5 43q-65 0 -117 -32t-81.5 -87.5
t-29.5 -127.5q0 -77 45.5 -120t127.5 -43z" />
    <glyph glyph-name="uni043F" unicode="&#x43f;" horiz-adv-x="673" 
d="M48 0l105 525h472l-105 -525h-71l95 482l15 -19h-367l22 19l-95 -482h-71z" />
    <glyph glyph-name="uni0440" unicode="&#x440;" horiz-adv-x="690" 
d="M342 -5q-68 0 -116.5 24.5t-74 71t-26.5 112.5q0 97 35 170.5t99 115t151 41.5q68 0 119.5 -26.5t81 -76.5t29.5 -119q0 -68 -22 -125t-62.5 -99t-94.5 -65.5t-119 -23.5zM11 -194l143 719h68l-30 -151l-29 -105l-11 -110l-70 -353h-71zM341 58q66 0 117 31.5t80.5 87.5
t29.5 127q0 78 -45 121t-128 43q-65 0 -116.5 -32t-81 -87.5t-29.5 -127.5q0 -77 45 -120t128 -43z" />
    <glyph glyph-name="uni0441" unicode="&#x441;" horiz-adv-x="576" 
d="M293 -5q-75 0 -129.5 27.5t-84 77.5t-29.5 118q0 90 39 160.5t108.5 111t158.5 40.5q73 0 125.5 -26.5t81.5 -78.5l-60 -35q-22 40 -60.5 59t-92.5 19q-66 0 -118 -32t-81.5 -87.5t-29.5 -127.5q0 -77 45.5 -120t129.5 -43q51 0 94.5 19.5t71.5 56.5l51 -39
q-34 -47 -93 -73.5t-127 -26.5z" />
    <glyph glyph-name="uni0442" unicode="&#x442;" horiz-adv-x="473" 
d="M148 0l96 482l14 -19h-216l12 62h470l-13 -62h-218l22 19l-96 -482h-71z" />
    <glyph glyph-name="uni0443" unicode="&#x443;" horiz-adv-x="558" 
d="M23 -199q-37 0 -71 12.5t-54 34.5l38 52q17 -18 40 -28t52 -10q34 0 62.5 18.5t59.5 66.5l53 81l9 10l312 487h73l-384 -593q-33 -50 -62 -78.5t-59.5 -40.5t-68.5 -12zM191 -15l-135 540h72l118 -482z" />
    <glyph glyph-name="uni0444" unicode="&#x444;" horiz-adv-x="781" 
d="M331 -5q-141 1 -214.5 56t-73.5 165q0 94 49.5 164.5t137.5 110t205 39.5h14q141 -1 214 -56t73 -165q0 -94 -48.5 -164.5t-135 -110t-202.5 -39.5h-19zM343 55h7q96 0 167.5 31t111 86.5t39.5 128.5q0 85 -56 126.5t-174 41.5h-8q-96 0 -168 -31t-111.5 -86t-39.5 -128
q0 -88 59 -127.5t173 -41.5zM267 -194l187 936h64l-187 -936h-64z" />
    <glyph glyph-name="uni0445" unicode="&#x445;" horiz-adv-x="526" 
d="M-39 0l283 290l-8 -35l-156 270h75l130 -227l-32 1l218 226h82l-269 -277l6 40l167 -288h-76l-137 240h32l-231 -240h-84z" />
    <glyph glyph-name="uni0446" unicode="&#x446;" horiz-adv-x="683" 
d="M48 0l105 525h71l-92 -463h320l93 463h71l-105 -525h-463zM503 -127l27 133l17 -6h-107l12 62h156l-38 -189h-67z" />
    <glyph glyph-name="uni0447" unicode="&#x447;" horiz-adv-x="598" 
d="M426 221q-49 -21 -98 -31.5t-93 -10.5q-95 0 -141.5 44t-29.5 132l34 170h71l-34 -171q-12 -60 19.5 -88.5t95.5 -28.5q41 0 87.5 11.5t95.5 31.5zM374 0l105 525h71l-105 -525h-71z" />
    <glyph glyph-name="uni0448" unicode="&#x448;" horiz-adv-x="928" 
d="M406 62l-20 -19l96 482h71l-96 -482l-15 19h293l-22 -19l96 482h70l-105 -525h-726l105 525h71l-95 -482l-14 19h291z" />
    <glyph glyph-name="uni0449" unicode="&#x449;" horiz-adv-x="946" 
d="M406 62l-20 -19l96 482h71l-96 -482l-15 19h293l-22 -19l96 482h70l-105 -525h-726l105 525h71l-95 -482l-14 19h291zM764 -115l27 134l14 -19h-106l13 62h155l-36 -177h-67z" />
    <glyph glyph-name="uni044A" unicode="&#x44a;" horiz-adv-x="628" 
d="M234 463h-192l12 62h236zM401 341q89 0 133.5 -35t44.5 -106q0 -61 -30.5 -106t-85.5 -69.5t-129 -24.5h-220l105 525h71l-37 -184h148zM334 54q52 0 91 17.5t61 49t22 73.5q0 94 -128 94h-137l-47 -234h138z" />
    <glyph glyph-name="uni044B" unicode="&#x44b;" horiz-adv-x="784" 
d="M560 0l105 525h71l-105 -525h-71zM332 341q88 0 132.5 -35t44.5 -106q0 -61 -30.5 -106t-85.5 -69.5t-129 -24.5h-216l105 524h71l-36 -183h144zM264 54q52 0 91 17.5t61 49t22 73.5q0 94 -127 94h-134l-47 -234h134z" />
    <glyph glyph-name="uni044C" unicode="&#x44c;" horiz-adv-x="562" 
d="M335 341q89 0 133.5 -35t44.5 -106q0 -61 -30.5 -106t-85.5 -69.5t-129 -24.5h-220l106 525h70l-36 -184h147zM268 54q52 0 91 17.5t61 49t22 73.5q0 94 -127 94h-138l-47 -234h138z" />
    <glyph glyph-name="uni044D" unicode="&#x44d;" horiz-adv-x="574" 
d="M168 240l12 54h304l-11 -54h-305zM287 530q73 0 127 -27.5t84.5 -78t30.5 -118.5q0 -64 -26.5 -120.5t-73 -99.5t-107.5 -67.5t-130 -24.5q-64 0 -115.5 21.5t-80.5 60.5l45 37q26 -29 66 -45t87 -16q54 0 102 20t84.5 55t57.5 80.5t21 96.5q0 78 -48.5 124t-132.5 46
q-48 0 -93 -16.5t-83 -47.5l-35 41q40 37 98.5 58t121.5 21z" />
    <glyph glyph-name="uni044E" unicode="&#x44e;" horiz-adv-x="874" 
d="M49 0l105 525h71l-45 -226h160l-13 -65h-160l-47 -234h-71zM522 -5q-71 0 -124 27.5t-82 77.5t-29 117q0 90 39 160.5t106.5 111.5t155.5 41q72 0 124.5 -27t81.5 -77t29 -117q0 -90 -38.5 -161t-106.5 -112t-156 -41zM528 58q64 0 114.5 31.5t79.5 87.5t29 128
q0 77 -44 120t-124 43q-65 0 -115.5 -32t-79.5 -87.5t-29 -128.5q0 -76 44.5 -119t124.5 -43z" />
    <glyph glyph-name="uni044F" unicode="&#x44f;" horiz-adv-x="607" 
d="M389 0l38 191l11 -19h-176q-92 0 -140 40.5t-48 112.5q0 94 70 147t191 53h223l-104 -525h-65zM5 0l185 202h75l-179 -202h-81zM431 209l55 278l10 -23h-166q-87 0 -135 -36t-48 -102q0 -97 126 -97h174z" />
    <glyph glyph-name="uni0450" unicode="&#x450;" horiz-adv-x="623" 
d="M296 -5q-75 0 -130.5 27.5t-85 77.5t-29.5 119q0 90 38 160t104 110.5t149 40.5q70 0 121 -26.5t79.5 -76.5t28.5 -120q0 -16 -2 -32.5t-5 -31.5h-461l9 53h419l-29 -20q10 63 -9 106t-58.5 65.5t-94.5 22.5q-64 0 -114 -31.5t-78 -87t-28 -129.5q0 -79 45.5 -121.5
t136.5 -42.5q53 0 98 17.5t74 48.5l32 -51q-37 -37 -92.5 -57.5t-117.5 -20.5zM368 606l-137 124h94l114 -124h-71z" />
    <glyph glyph-name="uni0451" unicode="&#x451;" horiz-adv-x="623" 
d="M296 -5q-75 0 -130.5 27.5t-85 77.5t-29.5 119q0 90 38 160t104 110.5t149 40.5q70 0 121 -26.5t79.5 -76.5t28.5 -120q0 -16 -2 -32.5t-5 -31.5h-461l9 53h419l-29 -20q10 63 -9 106t-58.5 65.5t-94.5 22.5q-64 0 -114 -31.5t-78 -87t-28 -129.5q0 -79 45.5 -121.5
t136.5 -42.5q53 0 98 17.5t74 48.5l32 -51q-37 -37 -92.5 -57.5t-117.5 -20.5zM473 629q-17 0 -28.5 11t-11.5 27q0 21 13.5 34.5t31.5 13.5q17 0 29 -11t12 -29q0 -20 -13.5 -33t-32.5 -13zM295 629q-17 0 -29 11t-12 27q0 21 14 34.5t31 13.5q18 0 29.5 -11t11.5 -29
q0 -20 -13.5 -33t-31.5 -13z" />
    <glyph glyph-name="uni0452" unicode="&#x452;" horiz-adv-x="667" 
d="M338 -199q-32 0 -60 8.5t-44 25.5l36 54q26 -27 76 -27q42 0 69.5 25.5t37.5 73.5l68 339q16 78 -16.5 122t-114.5 44q-84 0 -139.5 -46t-74.5 -138l-57 -282h-71l148 742h71l-60 -302q37 47 89 68.5t114 21.5q70 0 116 -27.5t63.5 -79.5t2.5 -124l-68 -338
q-14 -73 -62.5 -116.5t-123.5 -43.5zM61 607l10 52h426l-10 -52h-426z" />
    <glyph glyph-name="uni0453" unicode="&#x453;" horiz-adv-x="475" 
d="M48 0l105 525h373l-13 -62h-320l21 18l-95 -481h-71zM291 606l152 124h97l-175 -124h-74z" />
    <glyph glyph-name="uni0454" unicode="&#x454;" horiz-adv-x="575" 
d="M405 285l-11 -53h-305l11 53h305zM286 -5q-72 0 -126.5 28t-85 78.5t-30.5 117.5q0 64 26.5 120.5t73 99.5t107.5 67.5t130 24.5q64 0 116 -21.5t80 -59.5l-45 -37q-25 29 -65.5 44.5t-86.5 15.5q-55 0 -103 -20t-84.5 -55t-57.5 -80t-21 -96q0 -78 49 -124t133 -46
q48 0 93 16t82 47l35 -41q-40 -36 -98.5 -57.5t-121.5 -21.5z" />
    <glyph glyph-name="uni0455" unicode="&#x455;" horiz-adv-x="526" 
d="M222 -5q-64 0 -121 18t-88 46l34 56q30 -27 79 -42.5t103 -15.5q75 0 115.5 25t40.5 69q0 30 -21.5 45.5t-55.5 24t-72 16.5t-72 20.5t-55.5 38.5t-21.5 70q0 50 28.5 87t79.5 57t120 20q50 0 99 -13t79 -36l-30 -57q-31 24 -72 34.5t-82 10.5q-73 0 -112.5 -26.5
t-39.5 -69.5q0 -30 21.5 -46t55.5 -25t72.5 -16.5t72 -20.5t55 -37.5t21.5 -68.5q0 -52 -29 -88.5t-81.5 -56t-122.5 -19.5z" />
    <glyph glyph-name="uni0456" unicode="&#x456;" horiz-adv-x="273" 
d="M49 0l104 525h71l-104 -525h-71zM219 641q-21 0 -34.5 14t-13.5 33q0 22 15.5 38t39.5 16q21 0 35 -13t14 -33q0 -24 -16 -39.5t-40 -15.5z" />
    <glyph glyph-name="uni0457" unicode="&#x457;" horiz-adv-x="269" 
d="M47 0l104 525h71l-104 -525h-71zM280 630q-17 0 -28 11t-11 27q0 20 13 34t32 14q16 0 27 -11t11 -29q0 -19 -12.5 -32.5t-31.5 -13.5zM147 630q-17 0 -28 11t-11 27q0 20 13 34t32 14q17 0 27.5 -11.5t10.5 -28.5q0 -20 -12.5 -33t-31.5 -13z" />
    <glyph glyph-name="uni0458" unicode="&#x458;" horiz-adv-x="274" 
d="M-64 -199q-34 0 -62.5 8.5t-48.5 24.5l33 55q31 -27 79 -27q43 0 68.5 23.5t36.5 76.5l113 563h71l-113 -565q-32 -159 -177 -159zM220 641q-21 0 -34.5 14t-13.5 33q0 22 15.5 38t39.5 16q21 0 35 -13t14 -33q0 -24 -16 -39.5t-40 -15.5z" />
    <glyph glyph-name="uni0459" unicode="&#x459;" horiz-adv-x="921" 
d="M-47 1l17 61q7 -1 13 -2.5t11 -1.5q36 0 63.5 32.5t50 95.5t45.5 154l46 185h385l-106 -525h-71l97 486l15 -23h-286l21 23l-38 -153q-22 -86 -43.5 -149.5t-46 -105.5t-54 -63t-67.5 -21q-13 0 -25 2t-27 5zM694 341q89 0 133.5 -35t44.5 -106q0 -61 -30.5 -106
t-85.5 -69.5t-129 -24.5h-220l106 525h70l-36 -184h147zM627 54q52 0 91 17.5t61 49t22 73.5q0 94 -127 94h-138l-47 -234h138z" />
    <glyph glyph-name="uni045A" unicode="&#x45a;" horiz-adv-x="941" 
d="M524 253h-354l-51 -253h-71l105 525h71l-42 -211h355zM719 314q85 0 129.5 -35t44.5 -101q0 -54 -29 -94t-82 -62t-126 -22h-216l105 525h70l-41 -211h145zM655 53q77 0 122.5 32.5t45.5 87.5q0 84 -120 84h-141l-41 -204h134z" />
    <glyph glyph-name="uni045B" unicode="&#x45b;" horiz-adv-x="667" 
d="M36 610l9 45h455l-9 -45h-455zM410 530q70 0 116 -27.5t63.5 -79.5t2.5 -124l-60 -299h-71l60 300q16 78 -16.5 122t-114.5 44q-84 0 -139.5 -46t-74.5 -138l-57 -282h-71l148 742h71l-73 -368l-18 26q38 68 98 99t136 31z" />
    <glyph glyph-name="uni045C" unicode="&#x45c;" horiz-adv-x="579" 
d="M434 0l-161 261l59 27l183 -288h-81zM48 0l106 525h71l-106 -525h-71zM145 234l11 61h169l-11 -61h-169zM334 255l-69 10l263 260h80zM301 607l152 124h97l-175 -124h-74z" />
    <glyph glyph-name="uni045D" unicode="&#x45d;" horiz-adv-x="688" 
d="M48 0l106 525h71l-85 -424l432 424h68l-105 -525h-73l87 425l-432 -425h-69zM404 607l-137 124h94l114 -124h-71z" />
    <glyph glyph-name="uni045E" unicode="&#x45e;" horiz-adv-x="558" 
d="M23 -199q-37 0 -71 12.5t-54 34.5l38 52q17 -18 40 -28t52 -10q34 0 62.5 18.5t59.5 66.5l53 81l9 10l312 487h73l-384 -593q-33 -50 -62 -78.5t-59.5 -40.5t-68.5 -12zM191 -15l-135 540h72l118 -482zM333 602q-69 0 -104 34.5t-24 93.5h49q-7 -39 16 -63t67 -24
q43 0 74.5 23.5t40.5 63.5h50q-12 -61 -56.5 -94.5t-112.5 -33.5z" />
    <glyph glyph-name="uni045F" unicode="&#x45f;" horiz-adv-x="639" 
d="M590 525l-105 -525h-184l-26 -127h-68l26 127h-185l105 525h71l-92 -463h295l92 463h71z" />
    <glyph glyph-name="uni0462" unicode="&#x462;" horiz-adv-x="802" 
d="M156 0l148 742h73l-59 -295h215q119 0 175 -53t44 -156q-8 -74 -46.5 -127t-105.5 -82t-162 -29h-282zM241 59h203q115 0 176 54t61 144q0 67 -42 99t-129 32h-203zM79 563l11 56h482l-11 -56h-482z" />
    <glyph glyph-name="uni0463" unicode="&#x463;" horiz-adv-x="595" 
d="M47 491l11 54h400l-10 -54h-401zM369 342q89 0 133 -35.5t44 -106.5q0 -61 -30 -106t-85 -69.5t-130 -24.5h-219l148 742h70l-79 -400h148zM301 54q53 0 92 17.5t61 49t22 73.5q0 94 -128 94h-138l-46 -234h137z" />
    <glyph glyph-name="uni046A" unicode="&#x46a;" horiz-adv-x="884" 
d="M-30 0l105 163q46 71 93.5 116.5t99.5 67.5t108 22h175q56 0 99 -22t73 -67.5t47 -116.5l39 -163h-76l-34 144q-19 86 -62.5 127.5t-112.5 41.5h-39l-62 -313h-67l62 313h-37q-68 0 -128.5 -41t-115.5 -128l-91 -144h-76zM463 369l312 273h-516zM395 356l-217 293l10 51
h683l-10 -48l-336 -296h-130z" />
    <glyph glyph-name="uni046B" unicode="&#x46b;" horiz-adv-x="680" 
d="M-33 0l76 120q34 55 70 90t75 52t82 17h147q44 0 76 -17t53.5 -52.5t33.5 -89.5l28 -120h-71l-21 103q-14 64 -43 94.5t-79 30.5h-31l-45 -228h-63l46 228h-27q-50 0 -92.5 -31t-80.5 -94l-63 -103h-71zM342 279l224 196h-369zM280 266l-159 213l9 46h522l-9 -46
l-245 -213h-118z" />
    <glyph glyph-name="uni0472" unicode="&#x472;" horiz-adv-x="860" 
d="M391 -6q-103 0 -176 36.5t-110.5 102t-37.5 152.5q0 86 29 162t84.5 134.5t133.5 91.5t175 33q104 0 176.5 -36.5t110 -102t37.5 -152.5q0 -86 -29 -162t-84.5 -134.5t-133.5 -91.5t-175 -33zM398 60q78 0 141 27.5t108 76.5t69 112.5t24 135.5q0 68 -29.5 119t-86.5 80
t-142 29q-78 0 -141 -27.5t-107.5 -76.5t-69 -112.5t-24.5 -135.5q0 -67 29.5 -118.5t86.5 -80.5t142 -29zM90 321l8 59h691l-8 -59h-691z" />
    <glyph glyph-name="uni0473" unicode="&#x473;" horiz-adv-x="654" 
d="M81 238v51h497v-51h-497zM294 -5q-75 0 -130.5 27.5t-85 77.5t-29.5 118q0 90 39.5 160.5t109.5 111t162 40.5q76 0 131 -27t84.5 -77t29.5 -118q0 -90 -39.5 -160.5t-109.5 -111.5t-162 -41zM300 58q68 0 121 31.5t82.5 87.5t29.5 127q0 78 -46 121t-133 43
q-68 0 -121 -32t-82.5 -87.5t-29.5 -127.5q0 -77 46 -120t133 -43z" />
    <glyph glyph-name="uni0474" unicode="&#x474;" horiz-adv-x="746" 
d="M255 0l-149 700h78l126 -594l250 444q39 66 76.5 103.5t82.5 48.5t102 -4l-18 -70q-60 15 -103 -15t-88 -111l-284 -502h-73z" />
    <glyph glyph-name="uni0475" unicode="&#x475;" horiz-adv-x="573" 
d="M196 0l-135 524h72l121 -488h-36l209 376q30 54 58 82t61 34t77 -5l-20 -65q-29 8 -47.5 3.5t-36.5 -25.5t-44 -67l-209 -369h-70z" />
    <glyph glyph-name="uni048A" unicode="&#x48a;" horiz-adv-x="842" 
d="M66 0l140 700h72l-116 -580l564 580h67l-140 -700h-72l117 579l-565 -579h-67zM509 751q-74 0 -112 35t-29 93h50q-5 -39 20 -62.5t73 -23.5q46 0 80 23t43 63h51q-12 -61 -58.5 -94.5t-117.5 -33.5zM595 -157l82 177l27 -20h-123l15 64h170l-111 -221h-60z" />
    <glyph glyph-name="uni048B" unicode="&#x48b;" horiz-adv-x="708" 
d="M48 0l106 525h71l-85 -424l432 424h68l-105 -525h-73l87 425l-432 -425h-69zM420 602q-41 0 -74 16t-50.5 44.5t-14.5 68.5h49q-2 -39 24 -62t70 -23q42 0 73 22.5t37 62.5h52q-10 -60 -56.5 -94.5t-109.5 -34.5zM484 -115l64 134l39 -19h-124l13 62h156l-91 -177h-57z
" />
    <glyph glyph-name="uni048C" unicode="&#x48c;" horiz-adv-x="738" 
d="M91 0l148 742h73l-59 -292h215q223 0 223 -186q0 -80 -39 -139.5t-111.5 -92t-170.5 -32.5h-279zM175 59h202q73 0 127 24t83 69t29 106q0 69 -40 100.5t-126 31.5h-209zM93 563l12 56h406l-12 -56h-406z" />
    <glyph glyph-name="uni048D" unicode="&#x48d;" horiz-adv-x="591" 
d="M52 405l10 53h377l-10 -53h-377zM365 334q89 0 133.5 -35t44.5 -104q0 -59 -30.5 -103t-85 -68t-128.5 -24h-220l105 525h71l-38 -191h148zM298 54q53 0 92 17t60.5 47.5t21.5 71.5q0 91 -127 91h-139l-45 -227h137z" />
    <glyph glyph-name="uni048E" unicode="&#x48e;" horiz-adv-x="732" 
d="M627 128l-47 -34l-196 344l46 34zM66 0l140 700h251q119 0 184.5 -52t65.5 -146q0 -90 -39.5 -152.5t-112.5 -95.5t-173 -33h-231l40 35l-52 -256h-73zM189 250l-26 36h220q119 0 184.5 53t65.5 156q0 69 -47 105t-135 36h-216l39 37z" />
    <glyph glyph-name="uni048F" unicode="&#x48f;" horiz-adv-x="697" 
d="M564 -30l-48 -32l-142 241l49 33zM342 -5q-68 0 -116.5 24.5t-74 71t-26.5 112.5q0 97 35 170.5t99 115t151 41.5q68 0 119.5 -26.5t81 -76.5t29.5 -119q0 -68 -22.5 -125t-62.5 -99t-94.5 -65.5t-118.5 -23.5zM10 -194l144 719h68l-30 -151l-29 -105l-11 -110l-71 -353
h-71zM340 58q67 0 118 31.5t80.5 87.5t29.5 127q0 78 -45.5 121t-127.5 43q-65 0 -116.5 -32t-81.5 -87.5t-30 -127.5q0 -77 45.5 -120t127.5 -43z" />
    <glyph glyph-name="uni0490" unicode="&#x490;" horiz-adv-x="575" 
d="M66 0l140 700h376l28 144h69l-41 -208h-373l-127 -636h-72z" />
    <glyph glyph-name="uni0491" unicode="&#x491;" horiz-adv-x="448" 
d="M48 0l105 525h279l21 109h67l-34 -171h-274l-93 -463h-71z" />
    <glyph glyph-name="uni0492" unicode="&#x492;" horiz-adv-x="610" 
d="M34 297l11 56h481l-11 -56h-481zM94 0l140 700h445l-13 -64h-393l24 19l-130 -655h-73z" />
    <glyph glyph-name="uni0493" unicode="&#x493;" horiz-adv-x="502" 
d="M39 207l11 52h371l-11 -52h-371zM61 0l105 525h373l-13 -62h-320l21 18l-95 -481h-71z" />
    <glyph glyph-name="uni0494" unicode="&#x494;" horiz-adv-x="701" 
d="M66 0l140 700h465l-13 -64h-413l24 20l-130 -656h-73zM245 -133l17 60q61 -11 114 6.5t94 56.5t64 91t23 109q0 52 -22 85.5t-59.5 49t-85.5 14t-101 -19t-104 -49.5v61q63 35 126.5 52t120.5 14.5t101.5 -24.5t70 -66t25.5 -111q0 -76 -31.5 -142.5t-85.5 -113.5
t-123 -67.5t-144 -5.5z" />
    <glyph glyph-name="uni0495" unicode="&#x495;" horiz-adv-x="596" 
d="M50 0l104 525h369l-12 -62h-317l23 23l-97 -486h-70zM165 -194l18 63q55 -10 104 1t87 40t60 72t22 96q0 56 -25.5 90.5t-69.5 46t-101 -0.5t-121 -50v58q79 43 149.5 54t124.5 -7t85 -64t31 -117t-29 -129t-80 -97t-116.5 -54.5t-138.5 -1.5z" />
    <glyph glyph-name="uni0496" unicode="&#x496;" horiz-adv-x="1056" 
d="M850 0l-164 349l68 36l180 -385h-84zM531 321l13 65h200l-13 -65h-200zM751 342l-67 12l292 346h82zM59 0h-89l334 385l57 -36zM490 0h-72l140 700h72zM505 321h-201l13 65h200zM295 342l-164 358h77l154 -346zM887 -157l35 177l16 -20h-88l12 64h137l-43 -221h-69z" />
    <glyph glyph-name="uni0497" unicode="&#x497;" horiz-adv-x="869" 
d="M673 0l-128 261l62 28l149 -289h-83zM422 236l11 58h167l-11 -58h-167zM611 256l-69 9l227 260h80zM53 0h-89l264 294l55 -33zM396 0h-71l105 525h72zM395 236h-166l12 58h165zM217 256l-131 269h75l123 -260zM716 -116l27 135l15 -19h-85l12 61h132l-36 -177h-65z" />
    <glyph glyph-name="uni0498" unicode="&#x498;" horiz-adv-x="636" 
d="M244 -6q-68 0 -133 22.5t-113 69.5l38 53q39 -41 95 -60.5t115 -19.5q46 0 88.5 11.5t77 33t54.5 52t20 68.5q0 54 -40.5 81.5t-118.5 27.5h-151l12 60h149q56 0 96 17t62 47.5t22 69.5q0 38 -21.5 63.5t-58 39t-83.5 13.5t-101 -14.5t-108 -43.5l-13 60q59 31 118.5 46
t113.5 15q65 0 116.5 -19.5t82.5 -57t31 -90.5q0 -54 -31 -96t-85.5 -66t-124.5 -24l8 22q62 0 106 -19t68 -54.5t24 -83.5q0 -51 -26.5 -92.5t-71.5 -71t-101 -45t-116 -15.5zM290 18l-35 -175h-69l35 175h69z" />
    <glyph glyph-name="uni0499" unicode="&#x499;" horiz-adv-x="525" 
d="M195 -6q-123 0 -201 67l30 50q30 -27 74.5 -41t97.5 -14q52 0 92.5 14.5t63.5 39t23 55.5q0 38 -33 59t-93 21h-87l8 54h75q68 0 109.5 25.5t41.5 65.5q0 37 -32.5 58t-91.5 21q-41 0 -81.5 -11t-85.5 -31l-20 59q49 23 97.5 34t95.5 11q57 0 100 -16t67 -45t24 -69
q0 -35 -19 -63t-54.5 -46.5t-83.5 -25.5l-2 13q66 -9 101 -39.5t35 -79.5q0 -47 -32.5 -84.5t-89.5 -59.5t-129 -22zM232 17l-26 -132h-67l26 132h67z" />
    <glyph glyph-name="uni049A" unicode="&#x49a;" horiz-adv-x="755" 
d="M66 0l140 700h73l-140 -700h-73zM181 322l12 64h219l-12 -64h-219zM550 0l-201 350l62 33l218 -383h-79zM411 343l-69 12l330 345h84zM587 -157l35 177l16 -20h-88l12 64h137l-43 -221h-69z" />
    <glyph glyph-name="uni049B" unicode="&#x49b;" horiz-adv-x="628" 
d="M434 0l-161 261l59 27l183 -288h-81zM48 0l106 525h71l-106 -525h-71zM145 234l11 61h169l-11 -61h-169zM334 255l-69 10l263 260h80zM477 -116l27 135l15 -19h-85l12 61h132l-36 -177h-65z" />
    <glyph glyph-name="uni049C" unicode="&#x49c;" horiz-adv-x="726" 
d="M567 0l-178 349l66 36l197 -385h-85zM66 0l140 700h72l-140 -700h-72zM179 321l13 65h253l-12 -65h-254zM258 171l73 367h57l-73 -367h-57zM455 342l-67 12l304 346h83z" />
    <glyph glyph-name="uni049D" unicode="&#x49d;" horiz-adv-x="586" 
d="M145 235l11 60h205l-12 -60h-204zM433 0l-125 261l59 27l148 -288h-82zM48 0l106 525h70l-105 -525h-71zM207 128l55 275h52l-55 -275h-52zM370 255l-69 10l228 260h80z" />
    <glyph glyph-name="uni049E" unicode="&#x49e;" horiz-adv-x="739" 
d="M77 552l11 54h358l-11 -54h-358zM103 0l140 700h73l-140 -700h-73zM218 322l12 64h219l-11 -64h-220zM587 0l-201 350l62 33l218 -383h-79zM448 343l-69 12l330 345h84z" />
    <glyph glyph-name="uni049F" unicode="&#x49f;" horiz-adv-x="580" 
d="M69 607l11 53l329 -1l-10 -52h-330zM434 0l-161 261l59 27l184 -288h-82zM48 0l148 742h71l-148 -742h-71zM145 235l11 60h170l-12 -60h-169zM334 255l-68 10l263 260h80z" />
    <glyph glyph-name="uni04A0" unicode="&#x4a0;" horiz-adv-x="832" 
d="M86 636l13 64h290l-13 -64h-290zM673 0l-178 349l65 36l198 -385h-85zM176 0l140 700h73l-140 -700h-73zM290 321l13 65h248l-12 -65h-249zM560 342l-66 12l305 346h82z" />
    <glyph glyph-name="uni04A1" unicode="&#x4a1;" horiz-adv-x="642" 
d="M42 464l12 61h234l-13 -61h-233zM497 0l-161 261l59 27l183 -288h-81zM111 0l106 525h71l-106 -525h-71zM208 234l11 61h169l-11 -61h-169zM397 255l-68 10l263 260h79z" />
    <glyph glyph-name="uni04A2" unicode="&#x4a2;" horiz-adv-x="842" 
d="M717 700h73l-140 -700h-73zM139 0h-73l140 700h73zM649 323h-452l12 65h453zM659 -157l35 177l17 -20h-134l14 64h181l-44 -221h-69z" />
    <glyph glyph-name="uni04A3" unicode="&#x4a3;" horiz-adv-x="693" 
d="M48 0l105 525h71l-46 -232h330l47 232h71l-105 -525h-71l46 232h-330l-47 -232h-71zM515 -115l27 134l14 -19h-106l13 62h155l-36 -177h-67z" />
    <glyph glyph-name="uni04A4" unicode="&#x4a4;" horiz-adv-x="1086" 
d="M717 700h73l-140 -700h-73zM139 0h-73l140 700h73zM649 323h-452l12 65h453zM577 0l140 700h445l-14 -64h-393l24 19l-130 -655h-72z" />
    <glyph glyph-name="uni04A5" unicode="&#x4a5;" horiz-adv-x="876" 
d="M48 0l105 525h71l-46 -232h330l47 232h71l-105 -525h-71l46 232h-330l-47 -232h-71zM450 0l105 525h373l-13 -62h-320l21 18l-95 -481h-71z" />
    <glyph glyph-name="uni04A6" unicode="&#x4a6;" horiz-adv-x="1216" 
d="M760 -133l17 60q61 -11 114.5 6.5t94 56.5t64 91t23.5 109q0 52 -22.5 85.5t-59.5 49t-85 14t-101 -19t-105 -49.5v61q63 35 126.5 52t120.5 14.5t101.5 -24.5t70 -66t25.5 -111q0 -76 -31.5 -142.5t-85.5 -113.5t-123 -67.5t-144 -5.5zM66 0l140 700h588l-140 -700h-72
l130 656l15 -20h-482l23 20l-130 -656h-72z" />
    <glyph glyph-name="uni04A7" unicode="&#x4a7;" horiz-adv-x="996" 
d="M565 -194l18 63q55 -10 104 1t87 40t60 72t22 96q0 56 -25 90.5t-69 46t-101 -0.5t-122 -50v58q79 43 149.5 54t124.5 -7t85 -64t31 -117t-29 -129t-80 -97t-116.5 -54.5t-138.5 -1.5zM48 0l105 525h472l-105 -525h-71l95 482l15 -19h-367l22 19l-95 -482h-71z" />
    <glyph glyph-name="uni04A8" unicode="&#x4a8;" horiz-adv-x="978" 
d="M417 -6q-102 0 -178.5 39.5t-119 111t-42.5 166.5q0 80 30.5 154t87.5 135.5t136 104.5l56 -36q-73 -38 -126 -94t-81.5 -122.5t-28.5 -138.5q0 -79 34.5 -138.5t96.5 -92.5t146 -33q83 0 158.5 31.5t134 87t91.5 128.5t33 155q0 58 -19 100t-55.5 65t-88.5 23
q-67 0 -120.5 -38t-84 -102.5t-30.5 -145.5q0 -85 32 -149t89.5 -103t134.5 -48.5t167 14.5l-1 -56q-103 -27 -192.5 -13.5t-158 61t-107.5 123t-39 171.5q0 74 23.5 137.5t66 112t99.5 75.5t123 27q73 0 126 -31.5t82.5 -88t29.5 -131.5q0 -74 -27 -142t-74.5 -126.5
t-110.5 -102t-138 -67t-155 -23.5z" />
    <glyph glyph-name="uni04A9" unicode="&#x4a9;" horiz-adv-x="814" 
d="M333 -6q-84 0 -146.5 33t-97.5 92t-35 136q0 92 52 165t141 111l53 -35q-82 -35 -129 -98.5t-47 -140.5q0 -62 28.5 -108t78.5 -72.5t117 -26.5q66 0 125 22.5t104.5 61.5t71.5 90t26 108q0 65 -38 104.5t-102 39.5q-51 0 -91 -25.5t-62 -70t-22 -102.5
q0 -86 48.5 -143.5t131.5 -77.5t188 3l-4 -54q-88 -20 -165.5 -8.5t-137 49t-92.5 96.5t-33 136q0 74 31 131t86 89.5t125 32.5q60 0 105.5 -24t71 -67.5t25.5 -101.5q0 -54 -21.5 -105t-60.5 -94.5t-90 -76.5t-111 -51t-124 -18z" />
    <glyph glyph-name="uni04AA" unicode="&#x4aa;" horiz-adv-x="734" 
d="M401 -6q-104 0 -177 36.5t-111.5 102t-38.5 152.5q0 86 29.5 162t85 134.5t134 91.5t177.5 33q84 0 149 -26t100 -76l-52 -46q-33 41 -83 61.5t-120 20.5q-79 0 -143.5 -27.5t-109.5 -76.5t-69.5 -112.5t-24.5 -135.5q0 -67 29.5 -118.5t87.5 -80.5t142 -29q69 0 125 21
t98 62l43 -49q-46 -49 -117 -74.5t-154 -25.5zM406 18l-35 -175h-69l35 175h69z" />
    <glyph glyph-name="uni04AB" unicode="&#x4ab;" horiz-adv-x="576" 
d="M293 -5q-75 0 -129.5 27.5t-84 77.5t-29.5 118q0 90 39 160.5t108.5 111t158.5 40.5q73 0 125.5 -26.5t81.5 -78.5l-60 -35q-22 40 -60.5 59t-92.5 19q-66 0 -118 -32t-81.5 -87.5t-29.5 -127.5q0 -77 45.5 -120t129.5 -43q51 0 94.5 19.5t71.5 56.5l51 -39
q-34 -47 -93 -73.5t-127 -26.5zM325 16l-26 -132h-67l26 132h67z" />
    <glyph glyph-name="uni04AC" unicode="&#x4ac;" horiz-adv-x="588" 
d="M205 0l130 656l15 -20h-264l13 64h565l-13 -64h-267l23 20l-130 -656h-72zM287 -157l35 177l17 -20h-134l14 64h181l-44 -221h-69z" />
    <glyph glyph-name="uni04AD" unicode="&#x4ad;" horiz-adv-x="473" 
d="M148 0l96 482l14 -19h-216l12 62h470l-13 -62h-218l22 19l-96 -482h-71zM214 -115l27 134l14 -19h-107l13 62h156l-36 -177h-67z" />
    <glyph glyph-name="Ustraitcy" unicode="&#x4ae;" horiz-adv-x="652" 
d="M236 0l53 262l8 -50l-200 488h73l175 -426l-40 -1l345 427h80l-394 -489l26 51l-53 -262h-73z" />
    <glyph glyph-name="ustraitcy" unicode="&#x4af;" horiz-adv-x="559" 
d="M270 32l-46 -226h-71l46 226h71zM199 -34l-137 559h71l118 -489h-35l313 489h73l-359 -559h-44z" />
    <glyph glyph-name="Ustraitstrokecy" unicode="&#x4b0;" horiz-adv-x="652" 
d="M103 212l11 52h422l-10 -52h-423zM236 0l53 262l8 -50l-200 488h73l175 -426l-40 -1l345 427h80l-394 -489l26 51l-53 -262h-73z" />
    <glyph glyph-name="ustraitstrokecy" unicode="&#x4b1;" horiz-adv-x="559" 
d="M16 -20l11 51h414l-11 -51h-414zM270 32l-46 -226h-71l46 226h71zM199 -34l-137 559h71l118 -489h-35l313 489h73l-359 -559h-44z" />
    <glyph glyph-name="uni04B2" unicode="&#x4b2;" horiz-adv-x="695" 
d="M129 700h83l142 -277l255 277h88l-306 -337l183 -363h-84l-156 301l-278 -301h-87l331 360zM527 -157l35 177l16 -20h-88l12 64h137l-43 -221h-69z" />
    <glyph glyph-name="uni04B3" unicode="&#x4b3;" horiz-adv-x="574" 
d="M-39 0l283 290l-8 -35l-156 270h75l130 -227l-32 1l218 226h82l-269 -277l6 40l167 -288h-76l-137 240h32l-231 -240h-84zM424 -116l27 135l15 -19h-85l12 61h132l-36 -177h-65z" />
    <glyph glyph-name="uni04B4" unicode="&#x4b4;" horiz-adv-x="967" 
d="M206 0l130 656l15 -20h-265l13 64h543l-13 -64h-244l24 20l-131 -656h-72zM206 0l140 700h72l-126 -636h423l127 636h73l-140 -700h-569zM784 -164l36 184l14 -20h-132l13 64h184l-46 -228h-69z" />
    <glyph glyph-name="uni04B5" unicode="&#x4b5;" horiz-adv-x="757" 
d="M149 0l105 525h71l-93 -463h296l93 463h71l-105 -525h-438zM574 -115l27 134l14 -19h-99l12 62h149l-36 -177h-67zM495 525l-13 -62h-440l13 62h440z" />
    <glyph glyph-name="uni04B6" unicode="&#x4b6;" horiz-adv-x="751" 
d="M562 295q-67 -27 -128.5 -40.5t-113.5 -13.5q-125 0 -183 61t-36 170l45 228h73l-45 -226q-17 -81 24.5 -124.5t131.5 -43.5q55 0 116.5 15t123.5 42zM487 0l140 700h72l-140 -700h-72zM569 -157l35 177l17 -20h-134l14 64h181l-44 -221h-69z" />
    <glyph glyph-name="uni04B7" unicode="&#x4b7;" horiz-adv-x="616" 
d="M426 221q-49 -21 -98 -31.5t-93 -10.5q-95 0 -141.5 44t-29.5 132l34 170h71l-34 -171q-12 -60 19.5 -88.5t95.5 -28.5q41 0 87.5 11.5t95.5 31.5zM374 0l105 525h71l-105 -525h-71zM439 -115l27 134l14 -19h-106l13 62h155l-36 -177h-67z" />
    <glyph glyph-name="uni04B8" unicode="&#x4b8;" horiz-adv-x="730" 
d="M266 92l73 366h56l-73 -366h-56zM562 295q-67 -27 -128.5 -40.5t-113.5 -13.5q-125 0 -183 61t-36 170l45 228h73l-45 -226q-17 -81 24.5 -124.5t131.5 -43.5q55 0 116.5 15t123.5 42zM487 0l140 700h72l-140 -700h-72z" />
    <glyph glyph-name="uni04B9" unicode="&#x4b9;" horiz-adv-x="598" 
d="M217 74l56 278h53l-56 -278h-53zM426 221q-49 -21 -98 -31.5t-93 -10.5q-95 0 -141.5 44t-29.5 132l34 170h71l-34 -171q-12 -60 19.5 -88.5t95.5 -28.5q41 0 87.5 11.5t95.5 31.5zM374 0l105 525h71l-105 -525h-71z" />
    <glyph glyph-name="uni04BA" unicode="&#x4ba;" horiz-adv-x="731" 
d="M546 0l45 226q16 82 -24.5 125t-130.5 43q-55 0 -116.5 -15t-124.5 -42l9 68q66 28 128 41t114 13q125 0 182.5 -61t36.5 -170l-46 -228h-73zM66 0l140 700h72l-140 -700h-72z" />
    <glyph glyph-name="uni04BB" unicode="&#x4bb;" horiz-adv-x="667" 
d="M410 530q71 0 116.5 -27.5t63 -79.5t2.5 -124l-60 -299h-71l60 300q16 78 -16.5 122t-114.5 44q-84 0 -139.5 -46t-74.5 -138l-56 -282h-71l148 742h71l-74 -368l-18 26q38 68 98.5 99t135.5 31z" />
    <glyph glyph-name="uni04BC" unicode="&#x4bc;" horiz-adv-x="977" 
d="M555 -6q-97 0 -168.5 38t-111 108t-39.5 162q0 83 33 156t90 129t133 87.5t161 31.5q83 0 146.5 -30t102 -84t49 -126.5t-11.5 -156.5l-729 3q-54 0 -87.5 22t-45.5 59.5t-0.5 83.5t48.5 95l67 -21q-38 -44 -46.5 -84.5t12.5 -66t67 -25.5h675l-23 -22q18 82 -7 147.5
t-83 103.5t-141 38q-69 0 -130 -26.5t-108 -73.5t-73 -107t-26 -128q0 -75 31 -130.5t87 -86.5t133 -31q61 0 121.5 22t114.5 63l38 -53q-64 -48 -134.5 -72.5t-144.5 -24.5z" />
    <glyph glyph-name="uni04BD" unicode="&#x4bd;" horiz-adv-x="755" 
d="M208 243h-53q-62 0 -90.5 26t-24.5 69t39 95l58 -15q-26 -31 -31.5 -59t11 -45.5t56.5 -17.5h45zM427 -5q-79 0 -135.5 27.5t-87.5 77.5t-31 119q0 90 39.5 160t107.5 110.5t155 40.5q72 0 125 -26.5t82 -76.5t29 -120q0 -16 -1.5 -32.5t-4.5 -31.5h-477l9 53h433
l-30 -20q10 63 -9 106t-60.5 65.5t-98.5 22.5q-67 0 -118 -31.5t-80 -87t-29 -129.5q0 -79 47 -121.5t141 -42.5q55 0 101.5 17.5t76.5 48.5l33 -51q-38 -37 -95 -57.5t-122 -20.5z" />
    <glyph glyph-name="uni04BE" unicode="&#x4be;" horiz-adv-x="977" 
d="M555 -6q-97 0 -168.5 38t-111 108t-39.5 162q0 83 33 156t90 129t133 87.5t161 31.5q83 0 146.5 -30t102 -84t49 -126.5t-11.5 -156.5l-729 3q-54 0 -87.5 22t-45.5 59.5t-0.5 83.5t48.5 95l67 -21q-38 -44 -46.5 -84.5t12.5 -66t67 -25.5h675l-23 -22q18 82 -7 147.5
t-83 103.5t-141 38q-69 0 -130 -26.5t-108 -73.5t-73 -107t-26 -128q0 -75 31 -130.5t87 -86.5t133 -31q61 0 121.5 22t114.5 63l38 -53q-64 -48 -134.5 -72.5t-144.5 -24.5zM574 18l-35 -175h-69l35 175h69z" />
    <glyph glyph-name="uni04BF" unicode="&#x4bf;" horiz-adv-x="755" 
d="M208 243h-53q-62 0 -90.5 26t-24.5 69t39 95l58 -15q-26 -31 -31.5 -59t11 -45.5t56.5 -17.5h45zM427 -5q-79 0 -135.5 27.5t-87.5 77.5t-31 119q0 90 39.5 160t107.5 110.5t155 40.5q72 0 125 -26.5t82 -76.5t29 -120q0 -16 -1.5 -32.5t-4.5 -31.5h-477l9 53h433
l-30 -20q10 63 -9 106t-60.5 65.5t-98.5 22.5q-67 0 -118 -31.5t-80 -87t-29 -129.5q0 -79 47 -121.5t141 -42.5q55 0 101.5 17.5t76.5 48.5l33 -51q-38 -37 -95 -57.5t-122 -20.5zM440 17l-26 -132h-67l26 132h67z" />
    <glyph glyph-name="uni04C0" unicode="&#x4c0;" horiz-adv-x="310" 
d="M66 0l140 700h73l-140 -700h-73z" />
    <glyph glyph-name="uni04C1" unicode="&#x4c1;" horiz-adv-x="1011" 
d="M850 0l-164 349l68 36l180 -385h-84zM531 321l13 65h200l-13 -65h-200zM751 342l-67 12l292 346h82zM59 0h-89l334 385l57 -36zM490 0h-72l140 700h72zM505 321h-201l13 65h200zM295 342l-164 358h77l154 -346zM606 751q-74 0 -112 35t-29 93h50q-5 -39 20 -62.5
t73 -23.5q46 0 80 23t43 63h51q-12 -61 -58.5 -94.5t-117.5 -33.5z" />
    <glyph glyph-name="uni04C2" unicode="&#x4c2;" horiz-adv-x="827" 
d="M673 0l-128 261l62 28l149 -289h-83zM422 236l11 58h167l-11 -58h-167zM611 256l-69 9l227 260h80zM53 0h-89l264 294l55 -33zM396 0h-71l105 525h72zM395 236h-166l12 58h165zM217 256l-131 269h75l123 -260zM487 602q-69 0 -104 34.5t-24 93.5h49q-7 -39 16 -63t67 -24
q43 0 74.5 23.5t40.5 63.5h50q-12 -61 -56.5 -94.5t-112.5 -33.5z" />
    <glyph glyph-name="uni04C3" unicode="&#x4c3;" horiz-adv-x="702" 
d="M429 -200q-55 0 -107 30l31 57q19 -11 37 -17t37 -6q48 0 77.5 34t29.5 90q0 48 -24 108t-66 122.5t-95 119.5l59 41q62 -69 108 -137t72 -131.5t26 -118.5q0 -56 -23.5 -99.5t-65 -68t-96.5 -24.5zM66 0l140 700h73l-140 -700h-73zM181 322l12 64h219l-12 -64h-219z
M411 343l-69 12l330 345h84z" />
    <glyph glyph-name="uni04C4" unicode="&#x4c4;" horiz-adv-x="578" 
d="M314 -199q-55 0 -107 28l30 54q20 -10 39.5 -15.5t38.5 -5.5q48 0 78.5 32t30.5 87q0 59 -41.5 132t-117.5 145l56 34q85 -80 129.5 -158.5t44.5 -148.5q0 -54 -23 -96t-63.5 -65t-94.5 -23zM49 0l104 525h71l-104 -525h-71zM145 237l11 56h169l-11 -56h-169zM333 255
l-69 10l263 260h81z" />
    <glyph glyph-name="uni04C6" unicode="&#x4c6;" horiz-adv-x="651" 
d="M-47 1l17 61q7 -1 13 -2.5t11 -1.5q36 0 63.5 32.5t50 95.5t45.5 154l46 185h385l-106 -525h-71l97 486l15 -23h-286l21 23l-38 -153q-22 -86 -43.5 -149.5t-46 -105.5t-54 -63t-67.5 -21q-13 0 -25 2t-27 5zM429 -115l64 134l39 -19h-124l13 62h156l-91 -177h-57z" />
    <glyph glyph-name="uni04C7" unicode="&#x4c7;" horiz-adv-x="816" 
d="M348 -163l31 50q23 -18 51.5 -23t56.5 3.5t49 31t27 56.5l73 364h-434l-64 -319h-72l140 700h72l-63 -316h434l63 316h73l-151 -755q-11 -56 -44 -89t-76.5 -46t-87.5 -6.5t-78 33.5z" />
    <glyph glyph-name="uni04C8" unicode="&#x4c8;" horiz-adv-x="682" 
d="M338 -199q-32 0 -60.5 8.5t-45.5 25.5l35 54q26 -27 73 -27q43 0 71.5 25t37.5 74l54 271h-337l-46 -232h-71l104 525h71l-46 -232h338l46 232h71l-114 -568q-13 -70 -61 -113t-120 -43z" />
    <glyph glyph-name="uni04C9" unicode="&#x4c9;" horiz-adv-x="839" 
d="M717 700h73l-140 -700h-73zM139 0h-73l140 700h73zM649 323h-452l12 65h453zM591 -157l82 177l27 -20h-123l15 64h170l-111 -221h-60z" />
    <glyph glyph-name="uni04CA" unicode="&#x4ca;" horiz-adv-x="693" 
d="M48 0l105 525h71l-46 -232h330l47 232h71l-105 -525h-71l46 232h-330l-47 -232h-71zM471 -115l64 134l39 -19h-124l13 62h156l-91 -177h-57z" />
    <glyph glyph-name="uni04CB" unicode="&#x4cb;" horiz-adv-x="727" 
d="M320 254q-125 0 -183 60t-37 166l44 220h73l-44 -218q-16 -78 25.5 -120.5t130.5 -42.5q56 0 117.5 15t124.5 42l-9 -68q-66 -27 -127.5 -40.5t-114.5 -13.5zM332 -157l45 221h192l-13 -64h-134l13 20l-34 -177h-69zM483 0l140 700h73l-140 -700h-73z" />
    <glyph glyph-name="uni04CC" unicode="&#x4cc;" horiz-adv-x="596" 
d="M231 190q-93 0 -138.5 43t-28.5 131l32 161h71l-31 -158q-12 -59 20.5 -88.5t98.5 -29.5q40 0 86 10t95 31l-11 -57q-50 -21 -99 -32t-95 -11zM258 -115l34 174h158l-12 -59h-108l22 19l-27 -134h-67zM372 0l105 525h71l-105 -525h-71z" />
    <glyph glyph-name="uni04CD" unicode="&#x4cd;" horiz-adv-x="981" 
d="M66 0l140 700h60l213 -547l-31 1l420 546h65l-140 -700h-71l118 591l19 -2l-388 -500h-35l-198 503l16 -3l-117 -589h-71zM735 -157l82 177l27 -20h-123l15 64h170l-111 -221h-60z" />
    <glyph glyph-name="uni04CE" unicode="&#x4ce;" horiz-adv-x="816" 
d="M48 0l105 525h71l157 -403h-30l323 403h67l-105 -525h-65l89 444l12 -6l-301 -374h-32l-151 378l14 3l-89 -445h-65zM593 -115l64 134l39 -19h-124l13 62h156l-91 -177h-57z" />
    <glyph glyph-name="uni04CF" unicode="&#x4cf;" horiz-adv-x="274" 
d="M48 0l148 742h71l-148 -742h-71z" />
    <glyph glyph-name="uni04D0" unicode="&#x4d0;" horiz-adv-x="744" 
d="M-37 0l460 700h73l180 -700h-74l-164 659h30l-425 -659h-80zM126 187l34 60h407l11 -60h-452zM471 751q-74 0 -112 35t-29 93h50q-5 -39 20 -62.5t73 -23.5q46 0 80 23t43 63h51q-12 -61 -58.5 -94.5t-117.5 -33.5z" />
    <glyph glyph-name="uni04D1" unicode="&#x4d1;" horiz-adv-x="689" 
d="M280 -5q-67 0 -119 27t-81 77t-29 119q0 67 22 124t62 99.5t94.5 65.5t118.5 23q69 0 117 -24.5t74 -71t26 -112.5q0 -95 -35 -169t-99 -116t-151 -42zM295 58q66 0 117.5 31.5t81 87.5t29.5 127q0 78 -45.5 121t-127.5 43q-65 0 -117 -32t-81.5 -87.5t-29.5 -127.5
q0 -77 45.5 -120t127.5 -43zM468 0l30 151l30 106l10 110l32 158h71l-105 -525h-68zM410 602q-69 0 -104 34.5t-24 93.5h49q-7 -39 16 -63t67 -24q43 0 74.5 23.5t40.5 63.5h50q-12 -61 -56.5 -94.5t-112.5 -33.5z" />
    <glyph glyph-name="uni04D2" unicode="&#x4d2;" horiz-adv-x="744" 
d="M-37 0l460 700h73l180 -700h-74l-164 659h30l-425 -659h-80zM126 187l34 60h407l11 -60h-452zM570 780q-17 0 -28.5 11t-11.5 27q0 21 13.5 34.5t31.5 13.5q17 0 29 -11t12 -29q0 -20 -13.5 -33t-32.5 -13zM392 780q-17 0 -29 11t-12 27q0 21 14 34.5t31 13.5
q18 0 29.5 -11t11.5 -29q0 -20 -13.5 -33t-31.5 -13z" />
    <glyph glyph-name="uni04D3" unicode="&#x4d3;" horiz-adv-x="689" 
d="M280 -5q-67 0 -119 27t-81 77t-29 119q0 67 22 124t62 99.5t94.5 65.5t118.5 23q69 0 117 -24.5t74 -71t26 -112.5q0 -95 -35 -169t-99 -116t-151 -42zM295 58q66 0 117.5 31.5t81 87.5t29.5 127q0 78 -45.5 121t-127.5 43q-65 0 -117 -32t-81.5 -87.5t-29.5 -127.5
q0 -77 45.5 -120t127.5 -43zM468 0l30 151l30 106l10 110l32 158h71l-105 -525h-68zM505 630q-17 0 -28.5 11t-11.5 27q0 21 13.5 34.5t31.5 13.5q17 0 29 -11t12 -29q0 -20 -13.5 -33t-32.5 -13zM327 630q-17 0 -29 11t-12 27q0 21 14 34.5t31 13.5q18 0 29.5 -11t11.5 -29
q0 -20 -13.5 -33t-31.5 -13z" />
    <glyph glyph-name="uni04D4" unicode="&#x4d4;" horiz-adv-x="1027" 
d="M-43 0l563 700h78l-11 -63h-66l52 29l-533 -666h-83zM163 187l20 60h325l-12 -60h-333zM434 0l140 700h480l-13 -64h-407l-114 -572h421l-13 -64h-494zM564 324l13 63h370l-13 -63h-370z" />
    <glyph glyph-name="uni04D5" unicode="&#x4d5;" horiz-adv-x="996" 
d="M218 -5q-59 0 -101 17t-64 48t-22 74q0 74 57 118.5t166 44.5h183l-8 -53h-180q-71 0 -109.5 -28t-38.5 -78q0 -42 30.5 -64.5t93.5 -22.5q44 0 82.5 16.5t65.5 50t37 83.5l25 123q15 70 -16.5 107t-108.5 37q-51 0 -99 -17t-82 -44l-24 56q29 22 64.5 37t74 22.5
t76.5 7.5q93 0 138.5 -40t44.5 -112l-35 6q26 47 64 79.5t85 49.5t97 17q70 0 121.5 -26.5t80.5 -76.5t29 -120q0 -16 -2 -32.5t-6 -30.5h-462l9 53h420l-31 -21q10 63 -8.5 106t-58.5 65.5t-95 22.5q-63 0 -113 -31.5t-78.5 -87t-28.5 -129.5q0 -82 46 -123t136 -41
q55 0 98 17.5t73 48.5l33 -51q-38 -37 -93.5 -57.5t-116.5 -20.5q-62 0 -112.5 20t-83 61.5t-41.5 103.5l38 -2q-18 -67 -57 -107t-89 -58t-104 -18z" />
    <glyph glyph-name="uni04D6" unicode="&#x4d6;" horiz-adv-x="659" 
d="M209 387h370l-12 -63h-370zM152 64h421l-13 -64h-494l140 700h480l-13 -64h-407zM458 751q-74 0 -112 35t-29 93h50q-5 -39 20 -62.5t73 -23.5q46 0 80 23t43 63h51q-12 -61 -58.5 -94.5t-117.5 -33.5z" />
    <glyph glyph-name="uni04D7" unicode="&#x4d7;" horiz-adv-x="623" 
d="M296 -5q-75 0 -130.5 27.5t-85 77.5t-29.5 119q0 90 38 160t104 110.5t149 40.5q70 0 121 -26.5t79.5 -76.5t28.5 -120q0 -16 -2 -32.5t-5 -31.5h-461l9 53h419l-29 -20q10 63 -9 106t-58.5 65.5t-94.5 22.5q-64 0 -114 -31.5t-78 -87t-28 -129.5q0 -79 45.5 -121.5
t136.5 -42.5q53 0 98 17.5t74 48.5l32 -51q-37 -37 -92.5 -57.5t-117.5 -20.5zM378 602q-69 0 -104 34.5t-24 93.5h49q-7 -39 16 -63t67 -24q43 0 74.5 23.5t40.5 63.5h50q-12 -61 -56.5 -94.5t-112.5 -33.5z" />
    <glyph glyph-name="uni04D8" unicode="&#x4d8;" horiz-adv-x="819" 
d="M368 -6q-98 0 -169 36.5t-109 101.5t-38 150q0 20 3 41.5t9 51.5h651l-12 -63h-601l28 33q-2 -17 -4 -29.5t-2 -29.5q0 -70 29.5 -121.5t86 -79t135.5 -27.5q75 0 136 28t104 77t66.5 113t23.5 136q0 68 -28 119t-84 80t-138 29q-69 0 -129 -21t-102 -59l-37 54
q48 43 119.5 67.5t154.5 24.5q102 0 172.5 -36.5t108 -102t37.5 -152.5q0 -86 -29 -162t-83 -134.5t-129.5 -91.5t-169.5 -33z" />
    <glyph glyph-name="uni04D9" unicode="&#x4d9;" horiz-adv-x="623" 
d="M325 530q76 0 131 -27t84.5 -77t29.5 -120q0 -89 -38 -159t-103.5 -111t-150.5 -41q-69 0 -120 27t-79.5 77t-28.5 119q0 18 1.5 34t5.5 30h460l-9 -53h-418l29 20q-9 -62 9 -105t58.5 -65.5t94.5 -22.5q65 0 114.5 31.5t77 87.5t27.5 128q0 79 -45 122t-136 43
q-53 0 -97.5 -18t-75.5 -49l-31 51q37 38 92.5 58t117.5 20z" />
    <glyph glyph-name="uni04DA" unicode="&#x4da;" horiz-adv-x="819" 
d="M368 -6q-98 0 -169 36.5t-109 101.5t-38 150q0 20 3 41.5t9 51.5h651l-12 -63h-601l28 33q-2 -17 -4 -29.5t-2 -29.5q0 -70 29.5 -121.5t86 -79t135.5 -27.5q75 0 136 28t104 77t66.5 113t23.5 136q0 68 -28 119t-84 80t-138 29q-69 0 -129 -21t-102 -59l-37 54
q48 43 119.5 67.5t154.5 24.5q102 0 172.5 -36.5t108 -102t37.5 -152.5q0 -86 -29 -162t-83 -134.5t-129.5 -91.5t-169.5 -33zM608 780q-17 0 -28.5 11t-11.5 27q0 21 13.5 34.5t31.5 13.5q17 0 29 -11t12 -29q0 -20 -13.5 -33t-32.5 -13zM430 780q-17 0 -29 11t-12 27
q0 21 14 34.5t31 13.5q18 0 29.5 -11t11.5 -29q0 -20 -13.5 -33t-31.5 -13z" />
    <glyph glyph-name="uni04DB" unicode="&#x4db;" horiz-adv-x="623" 
d="M325 530q76 0 131 -27t84.5 -77t29.5 -120q0 -89 -38 -159t-103.5 -111t-150.5 -41q-69 0 -120 27t-79.5 77t-28.5 119q0 18 1.5 34t5.5 30h460l-9 -53h-418l29 20q-9 -62 9 -105t58.5 -65.5t94.5 -22.5q65 0 114.5 31.5t77 87.5t27.5 128q0 79 -45 122t-136 43
q-53 0 -97.5 -18t-75.5 -49l-31 51q37 38 92.5 58t117.5 20zM480 630q-17 0 -28.5 11t-11.5 27q0 21 13.5 34.5t31.5 13.5q17 0 29 -11t12 -29q0 -20 -13.5 -33t-32.5 -13zM302 630q-17 0 -29 11t-12 27q0 21 14 34.5t31 13.5q18 0 29.5 -11t11.5 -29q0 -20 -13.5 -33
t-31.5 -13z" />
    </font>
</defs>
</svg>
