<?xml version="1.0" standalone="no"?>
<!DOCTYPE svg PUBLIC "-//W3C//DTD SVG 1.1//EN" "http://www.w3.org/Graphics/SVG/1.1/DTD/svg11.dtd" >
<svg xmlns="http://www.w3.org/2000/svg" xmlns:xlink="http://www.w3.org/1999/xlink" version="1.1">
<metadata>
Created by FontForge 20170731 at Tue Mar  7 13:19:51 2023
 By Aleksey,,,
Copyright (c) 2022 by Tom Baber. All rights reserved.
</metadata>
<defs>
<font id="FoldGrotesquePro-Regular" horiz-adv-x="600" >
  <font-face 
    font-family="Fold Grotesque Pro"
    font-weight="400"
    font-stretch="normal"
    units-per-em="1000"
    panose-1="2 11 5 3 3 2 1 4 1 3"
    ascent="800"
    descent="-200"
    x-height="470"
    cap-height="700"
    bbox="-327 -294 1332 968"
    underline-thickness="50"
    underline-position="-150"
    unicode-range="U+000D-FB02"
  />
<missing-glyph horiz-adv-x="671" 
d="M582 0h-493v700h493v-700zM159 634v-568h353v568h-353zM336 306l-98 -99l-45 46l98 97l-98 98l45 45l98 -98l98 98l44 -45l-98 -98l97 -97l-44 -45z" />
    <glyph glyph-name="f_i" unicode="fi" horiz-adv-x="565" 
d="M256 627q-66 0 -66 -66v-91h119v-71h-119v-399h-86v399h-73v71h73v102q0 128 130 128h75v-73h-53zM489 0h-87v470h87v-470zM494 556h-96v112h96v-112z" />
    <glyph glyph-name="f_l" unicode="fl" horiz-adv-x="565" 
d="M256 627q-66 0 -66 -66v-91h119v-71h-119v-399h-86v399h-73v71h73v102q0 128 130 128h75v-73h-53zM489 0h-87v700h87v-700z" />
    <glyph glyph-name=".notdef" horiz-adv-x="671" 
d="M582 0h-493v700h493v-700zM159 634v-568h353v568h-353zM336 306l-98 -99l-45 46l98 97l-98 98l45 45l98 -98l98 98l44 -45l-98 -98l97 -97l-44 -45z" />
    <glyph glyph-name=".null" horiz-adv-x="0" 
 />
    <glyph glyph-name="nonmarkingreturn" unicode="&#xd;" horiz-adv-x="231" 
 />
    <glyph glyph-name="space" unicode=" " horiz-adv-x="231" 
 />
    <glyph glyph-name="exclam" unicode="!" horiz-adv-x="251" 
d="M156 199h-61l-16 501h93zM177 0h-103v119h103v-119z" />
    <glyph glyph-name="quotedbl" unicode="&#x22;" horiz-adv-x="366" 
d="M136 427h-65l-10 241h86zM292 427h-65l-10 241h86z" />
    <glyph glyph-name="numbersign" unicode="#" horiz-adv-x="649" 
d="M615 478l-11 -64h-114l-29 -160h113l-11 -65h-114l-35 -189h-75l35 189h-154l-35 -189h-76l35 189h-112l12 65h112l29 160h-110l12 64h110l35 190h76l-35 -190h154l35 190h75l-35 -190h113zM232 254h154l29 160h-154z" />
    <glyph glyph-name="dollar" unicode="$" horiz-adv-x="565" 
d="M463.5 64q-54.5 -51 -143.5 -60v-98h-72v99q-93 10 -148 64.5t-60 138.5h91q5 -51 36 -84t81 -42v229l-22 5q-172 34 -172 172q0 48 26 86t70 61.5t98 28.5v97h72v-99q85 -11 137 -61.5t56 -129.5h-90q-4 44 -31.5 73.5t-71.5 39.5v-205l17 -3q86 -16 133.5 -63
t47.5 -120q0 -78 -54.5 -129zM248 393v194q-46 -7 -75.5 -33t-29.5 -65q0 -75 101 -95zM320 80q50 8 80 38t30 73q0 40 -28 67t-82 38v-216z" />
    <glyph glyph-name="percent" unicode="%" horiz-adv-x="859" 
d="M113 346q-39 23 -61.5 64t-22.5 92q0 50 22.5 90.5t61.5 63.5t88 23q50 0 90 -23t62.5 -63.5t22.5 -90.5q0 -51 -22.5 -92t-62.5 -64t-90 -23q-49 0 -88 23zM712 636l-512 -647l-54 43l512 647zM274 421q28 31 28 81q0 49 -28 80t-72 31t-72 -31t-28 -80
q0 -51 27.5 -81.5t72.5 -30.5q44 0 72 31zM568 12q-39 23 -61.5 63.5t-22.5 91.5q0 50 22.5 90.5t61.5 63.5t88 23q50 0 89.5 -23t62 -63.5t22.5 -90.5q0 -51 -22.5 -91.5t-62 -63.5t-89.5 -23q-49 0 -88 23zM729 86q28 31 28 81t-28 80.5t-72 30.5t-72 -31t-28 -80
q0 -50 27.5 -81t72.5 -31q44 0 72 31z" />
    <glyph glyph-name="ampersand" unicode="&#x26;" horiz-adv-x="635" 
d="M631 0h-105l-56 66q-37 -38 -87 -58t-107 -20q-68 0 -120.5 25t-81.5 70t-29 103q0 63 36 112t113 92l-14 17q-34 40 -50 74.5t-16 73.5q0 71 48 114t125 43q78 0 126 -43t48 -114q0 -53 -33.5 -96t-104.5 -83l-8 -5l155 -182q20 41 31 108h79q-9 -98 -58 -169z
M225.5 615.5q-23.5 -23.5 -23.5 -61.5q0 -28 11.5 -52.5t38.5 -56.5l14 -16l21 11q46 26 67 52t21 61q0 38 -24.5 62t-62.5 24q-39 0 -62.5 -23.5zM357 81q36 15 64 42l-177 209l-8 -4q-50 -27 -74.5 -61.5t-24.5 -78.5q0 -54 40 -88t103 -34q41 0 77 15z" />
    <glyph glyph-name="quotesingle" unicode="'" horiz-adv-x="210" 
d="M137 427h-65l-10 241h86z" />
    <glyph glyph-name="parenleft" unicode="(" horiz-adv-x="332" 
d="M305 -105q-75 16 -133.5 73.5t-91.5 148.5t-33 203t33 203t91.5 148.5t133.5 73.5v-77q-79 -29 -127 -122t-48 -226t48 -226t127 -122v-77z" />
    <glyph glyph-name="parenright" unicode=")" horiz-adv-x="332" 
d="M27 -28q80 29 127.5 122t47.5 226t-47.5 226t-127.5 122v77q75 -16 133.5 -73.5t91.5 -148.5t33 -203t-33 -203t-91.5 -148.5t-133.5 -73.5v77z" />
    <glyph glyph-name="asterisk" unicode="*" horiz-adv-x="457" 
d="M228 466l-79 -123l-59 42l93 114l-142 38l22 68l137 -52l-8 147h73l-8 -147l137 53l22 -69l-142 -38l93 -114l-59 -43z" />
    <glyph glyph-name="plus" unicode="+" horiz-adv-x="580" 
d="M330 337h209v-76h-209v-210h-78v210h-211v76h211v210h78v-210z" />
    <glyph glyph-name="comma" unicode="," horiz-adv-x="237" 
d="M67 122h103v-140q0 -54 -28 -87.5t-79 -37.5v47q54 10 54 78v18h-50v122z" />
    <glyph glyph-name="hyphen" unicode="-" horiz-adv-x="362" 
d="M308 234h-254v80h254v-80z" />
    <glyph glyph-name="period" unicode="." horiz-adv-x="233" 
d="M168 0h-103v122h103v-122z" />
    <glyph glyph-name="slash" unicode="/" horiz-adv-x="519" 
d="M506 708l-420 -813l-73 36l420 814z" />
    <glyph glyph-name="zero" unicode="0" horiz-adv-x="608" 
d="M120.5 78.5q-65.5 90.5 -65.5 254.5q0 165 65.5 256t183.5 91t183.5 -91t65.5 -256q0 -164 -65.5 -254.5t-183.5 -90.5t-183.5 90.5zM421 134q41 70 41 199q0 130 -41 200.5t-117 70.5t-117 -70.5t-41 -200.5q0 -129 41 -199t117 -70t117 70z" />
    <glyph glyph-name="one" unicode="1" horiz-adv-x="329" 
d="M12 503l136 165h88v-668h-88v561l-82 -102z" />
    <glyph glyph-name="two" unicode="2" horiz-adv-x="553" 
d="M502 76v-76h-458q4 71 44 130.5t123 121.5l75 56q61 45 90 87.5t29 86.5q0 54 -35 88t-92 34q-61 0 -99 -37t-41 -98h-90q2 63 31 111t80 74t117 26q65 0 115 -25t77.5 -70.5t27.5 -104.5q0 -61 -38.5 -116.5t-121.5 -118.5l-78 -58q-80 -59 -104 -111h348z" />
    <glyph glyph-name="three" unicode="3" horiz-adv-x="581" 
d="M493 291.5q34 -43.5 34 -104.5q0 -57 -30.5 -102.5t-84 -71t-121.5 -25.5q-110 0 -175 55t-70 152h91q6 -61 47 -96t107 -35q64 0 104.5 35t40.5 92q0 55 -39 87t-107 32h-57v76h56q60 0 95 30t35 79q0 48 -36 78.5t-93 30.5q-59 0 -98 -32.5t-46 -87.5h-90
q8 89 72 142.5t162 53.5q63 0 113.5 -23t78.5 -64t28 -94q0 -51 -30 -90.5t-82 -56.5q61 -17 95 -60.5z" />
    <glyph glyph-name="four" unicode="4" horiz-adv-x="604" 
d="M463 268h100v-75h-100v-193h-87v193h-336v80l315 395h108v-400zM376 268v315q-30 -42 -46 -62l-156 -197l-47 -56h249z" />
    <glyph glyph-name="five" unicode="5" horiz-adv-x="573" 
d="M422.5 415.5q48.5 -28.5 76 -80t27.5 -117.5q0 -67 -30 -119.5t-84.5 -81.5t-123.5 -29q-104 0 -165.5 51t-68.5 145h90q7 -57 45 -88.5t99 -31.5q66 0 106.5 42t40.5 112t-39 112t-104 42q-44 0 -79.5 -20t-52.5 -57h-86l4 373h410v-76h-330l-2 -215q26 33 66 50t90 17
q62 0 110.5 -28.5z" />
    <glyph glyph-name="six" unicode="6" horiz-adv-x="601" 
d="M441 405.5q50 -28.5 78.5 -79t28.5 -113.5q0 -64 -30.5 -115.5t-84 -80.5t-121.5 -29q-124 0 -190.5 90t-66.5 255q0 107 32 185.5t91 120t140 41.5q90 0 149 -48t69 -132h-90q-9 51 -42.5 77.5t-85.5 26.5q-83 0 -128 -70t-45 -200v-10q24 52 72 81t113 29
q61 0 111 -28.5zM415.5 105.5q41.5 41.5 41.5 106.5t-41.5 106.5t-106.5 41.5q-64 0 -106 -41.5t-42 -106.5q0 -64 42 -106t106 -42q65 0 106.5 41.5z" />
    <glyph glyph-name="seven" unicode="7" horiz-adv-x="498" 
d="M20 668h452v-78q-217 -216 -250 -590h-99q21 188 88.5 337.5t172.5 252.5h-364v78z" />
    <glyph glyph-name="eight" unicode="8" horiz-adv-x="595" 
d="M505 286.5q38 -43.5 38 -104.5q0 -56 -31.5 -100t-87.5 -69t-126 -25q-71 0 -126.5 25t-87 69t-31.5 100q0 61 37.5 104.5t105.5 60.5q-57 17 -90.5 58.5t-33.5 94.5q0 52 29 93t80.5 64t116.5 23t116.5 -23t80.5 -64t29 -93q0 -53 -33.5 -94.5t-91.5 -58.5
q68 -17 106 -60.5zM198.5 413.5q37.5 -30.5 99.5 -30.5t99.5 30.5t37.5 80.5t-38 80.5t-99 30.5q-62 0 -99.5 -30.5t-37.5 -80.5t37.5 -80.5zM410 97q42 34 42 90t-42 90t-112 34t-112 -34t-42 -90t42 -90t112 -34t112 34z" />
    <glyph glyph-name="nine" unicode="9" 
d="M478.5 590q66.5 -90 66.5 -255q0 -108 -32 -186t-91.5 -119.5t-140.5 -41.5q-90 0 -148.5 48t-68.5 132h90q9 -51 42.5 -77.5t85.5 -26.5q83 0 128 70t45 200v10q-24 -52 -72.5 -81t-113.5 -29q-61 0 -110.5 28.5t-78 79t-28.5 113.5q0 64 30.5 115.5t84 80.5t121.5 29
q124 0 190.5 -90zM397.5 350q41.5 42 41.5 106q0 65 -41.5 106.5t-106.5 41.5t-106.5 -41.5t-41.5 -106.5t41.5 -106.5t106.5 -41.5t106.5 42z" />
    <glyph glyph-name="colon" unicode=":" horiz-adv-x="233" 
d="M168 330h-103v121h103v-121zM168 0h-103v122h103v-122z" />
    <glyph glyph-name="semicolon" unicode=";" horiz-adv-x="240" 
d="M70 330v121h103v-121h-103zM70 0v122h103v-140q0 -54 -28 -87.5t-79 -37.5v47q54 10 54 78v18h-50z" />
    <glyph glyph-name="less" unicode="&#x3c;" horiz-adv-x="592" 
d="M515 64l-454 192v90l454 191v-84l-285 -118q-44 -18 -90 -34q52 -19 90 -35l285 -117v-85z" />
    <glyph glyph-name="equal" unicode="=" horiz-adv-x="592" 
d="M532 375h-472v76h472v-76zM532 148h-472v76h472v-76z" />
    <glyph glyph-name="greater" unicode="&#x3e;" horiz-adv-x="590" 
d="M76 63v84l285 118q44 18 90 34q-52 19 -90 35l-285 117v85l454 -192v-90z" />
    <glyph glyph-name="question" unicode="?" horiz-adv-x="486" 
d="M181 205q0 58 17 95.5t59 72.5l39 33q32 27 47 56.5t15 64.5q0 50 -31.5 79.5t-83.5 29.5q-60 0 -95 -34t-38 -94h-88q3 94 62.5 149t158.5 55q93 0 149 -50t56 -134q0 -50 -22.5 -92.5t-72.5 -82.5l-33 -27q-31 -25 -43.5 -51t-14.5 -70h-81zM276 0h-103v119h103v-119z
" />
    <glyph glyph-name="at" unicode="@" horiz-adv-x="880" 
d="M642 582q88 -48 139 -131t51 -184q0 -68 -22 -120t-62 -81t-91 -29q-44 0 -76 22t-45 62q-22 -41 -58.5 -62.5t-80.5 -21.5q-74 0 -119 53t-45 139q0 63 23.5 112t65 76.5t94.5 27.5q43 0 76 -20.5t50 -60.5l8 72h74l-25 -222q-1 -9 -1 -26q0 -41 17 -62.5t47 -21.5
q42 0 68 44.5t26 117.5q0 81 -41 148t-111.5 106t-156.5 39q-91 0 -166 -42t-118.5 -115t-43.5 -162t41 -161.5t113.5 -113.5t161.5 -41q96 0 187 50l29 -63q-49 -28 -104.5 -43t-111.5 -15q-111 0 -200 50.5t-140 138.5t-51 198q0 109 52.5 198t145 140.5t206.5 51.5
q106 0 194 -48zM496.5 143.5q31.5 41.5 31.5 108.5q0 58 -26.5 93t-73.5 35q-52 0 -84 -41.5t-32 -108.5q0 -58 27.5 -93t73.5 -35q52 0 83.5 41.5z" />
    <glyph glyph-name="A" unicode="A" horiz-adv-x="684" 
d="M668 0h-98l-69 180h-322l-67 -180h-96l273 700h106zM209 260h262l-102 268q-15 41 -30 90q-15 -49 -30 -90z" />
    <glyph glyph-name="B" unicode="B" horiz-adv-x="653" 
d="M562 310.5q39 -44.5 39 -112.5q0 -93 -63.5 -145.5t-176.5 -52.5h-268v700h269q101 0 159.5 -48.5t58.5 -133.5q0 -56 -36 -98t-94 -52q73 -13 112 -57.5zM449.5 591q-35.5 29 -97.5 29h-168v-216h168q61 0 97 29.5t36 79.5q0 49 -35.5 78zM354 80q73 0 112 32t39 90
t-39 90.5t-112 32.5h-170v-245h170z" />
    <glyph glyph-name="C" unicode="C" horiz-adv-x="734" 
d="M214 33.5q-77 45.5 -120.5 128t-43.5 188.5t44.5 188.5t122.5 128t174 45.5q123 0 203.5 -62t97.5 -167h-94q-17 67 -72.5 107.5t-134.5 40.5q-71 0 -127 -35.5t-87 -99.5t-31 -146t31 -146t86 -99.5t126 -35.5q75 0 129.5 39.5t78.5 108.5h95q-14 -67 -57.5 -119
t-107.5 -81t-139 -29q-97 0 -174 45.5z" />
    <glyph glyph-name="D" unicode="D" horiz-adv-x="749" 
d="M528 657.5q82 -42.5 126.5 -121.5t44.5 -186t-44.5 -186t-126.5 -121.5t-192 -42.5h-243v700h243q110 0 192 -42.5zM331 81q129 0 200.5 70.5t71.5 198.5t-71.5 198.5t-200.5 70.5h-147v-538h147z" />
    <glyph glyph-name="E" unicode="E" horiz-adv-x="595" 
d="M184 325v-244h360v-81h-451v700h447v-81h-356v-212h312v-82h-312z" />
    <glyph glyph-name="F" unicode="F" horiz-adv-x="571" 
d="M540 700v-81h-356v-219h313v-81h-313v-319h-91v700h447z" />
    <glyph glyph-name="G" unicode="G" horiz-adv-x="758" 
d="M465 323h228v-323h-79v125q-32 -67 -94 -102t-144 -35q-92 0 -166.5 46.5t-117 129.5t-42.5 186q0 104 45 186.5t123.5 129t176.5 46.5q78 0 140.5 -28t102.5 -79t51 -117h-95q-16 63 -69.5 103t-130.5 40q-72 0 -128.5 -36t-88 -100t-31.5 -145q0 -80 31.5 -144.5
t87.5 -100.5t126 -36q85 0 143.5 46.5t74.5 126.5h-144v81z" />
    <glyph glyph-name="H" unicode="H" horiz-adv-x="728" 
d="M544 407v293h91v-700h-91v325h-360v-325h-91v700h91v-293h360z" />
    <glyph glyph-name="I" unicode="I" horiz-adv-x="276" 
d="M184 0h-91v700h91v-700z" />
    <glyph glyph-name="J" unicode="J" horiz-adv-x="528" 
d="M82 46.5q-54 58.5 -54 162.5h90q2 -67 31.5 -104.5t85.5 -37.5t85.5 38t29.5 109v486h91v-486q0 -108 -55 -167t-151 -59q-99 0 -153 58.5z" />
    <glyph glyph-name="K" unicode="K" horiz-adv-x="653" 
d="M656 0h-117l-282 353l-73 -71v-282h-91v700h91v-316l329 316h120l-306 -291z" />
    <glyph glyph-name="L" unicode="L" horiz-adv-x="546" 
d="M184 700v-618l331 -1v-82l-422 1v700h91z" />
    <glyph glyph-name="M" unicode="M" horiz-adv-x="905" 
d="M93 0v700h139l188 -492q12 -29 33 -97q21 68 33 97l188 492h138v-700h-88v523q0 48 3 97l-235 -620h-83l-235 620q3 -49 3 -97v-523h-84z" />
    <glyph glyph-name="N" unicode="N" horiz-adv-x="747" 
d="M93 0v700h126l351 -586q-2 80 -2 116v470h86v-700h-114l-364 607q3 -67 3 -130v-477h-86z" />
    <glyph glyph-name="O" unicode="O" horiz-adv-x="791" 
d="M216.5 33.5q-78.5 45.5 -122.5 128t-44 188.5t45 188.5t123.5 128t176.5 45.5q100 0 178.5 -45.5t122.5 -128t44 -188.5t-44 -188.5t-122.5 -128t-178.5 -45.5t-178.5 45.5zM525 105q57 36 88.5 100t31.5 145t-31.5 145t-88.5 100t-130 36q-72 0 -128.5 -36t-88.5 -99.5
t-32 -145.5t32 -145.5t88.5 -99.5t128.5 -36q73 0 130 36z" />
    <glyph glyph-name="P" unicode="P" horiz-adv-x="619" 
d="M522 646q64 -54 64 -151q0 -98 -64 -152t-178 -54h-160v-289h-91v700h251q114 0 178 -54zM339 370q73 0 112.5 32t39.5 93q0 60 -39.5 92t-112.5 32h-155v-249h155z" />
    <glyph glyph-name="Q" unicode="Q" horiz-adv-x="791" 
d="M702 171.5q-38 -78.5 -107 -125.5t-160 -56v-44q0 -25 13 -36.5t41 -11.5h46v-79h-67q-60 0 -87.5 25.5t-27.5 81.5v64q-89 9 -158 56.5t-107 126t-38 177.5q0 106 45 188.5t123.5 128t176.5 45.5q100 0 178.5 -45.5t122.5 -128t44 -188.5q0 -100 -38 -178.5zM177.5 204
q31.5 -64 88.5 -99.5t129 -35.5q74 0 130.5 35.5t88 99.5t31.5 146t-31.5 146t-88 99.5t-130.5 35.5q-72 0 -129 -35.5t-88.5 -99.5t-31.5 -146t31.5 -146z" />
    <glyph glyph-name="R" unicode="R" horiz-adv-x="654" 
d="M567 119q0 -37 3.5 -64.5t12.5 -54.5h-93q-8 22 -10 47t-2 74v77q0 61 -24.5 86t-91.5 25h-178v-309h-91v700h270q105 0 165 -51.5t60 -138.5q0 -61 -34 -102.5t-98 -55.5q57 -8 84 -43t27 -102v-88zM349 389q67 0 105.5 31t38.5 84q0 54 -38.5 85t-105.5 31h-165v-231
h165z" />
    <glyph glyph-name="S" unicode="S" horiz-adv-x="628" 
d="M122 46q-72 58 -80 166h95q9 -69 56.5 -106.5t126.5 -37.5q72 0 117.5 34.5t45.5 90.5q0 45 -31 72t-95 41l-105 23q-94 20 -142 67.5t-48 120.5q0 56 32.5 100.5t88.5 69.5t124 25q113 0 184 -54.5t80 -149.5h-94q-8 59 -53.5 92.5t-115.5 33.5q-65 0 -108 -32.5
t-43 -81.5q0 -43 29 -68.5t90 -38.5l108 -23q194 -42 194 -194q0 -61 -33 -108.5t-92 -73.5t-134 -26q-125 0 -197 58z" />
    <glyph glyph-name="T" unicode="T" horiz-adv-x="585" 
d="M27 700h531v-82h-220v-618h-91v618h-220v82z" />
    <glyph glyph-name="U" unicode="U" horiz-adv-x="728" 
d="M160.5 62q-74.5 74 -74.5 206v432h91v-430q0 -95 50 -148t137 -53q86 0 136.5 53t50.5 148v430h92v-430q0 -88 -34.5 -151.5t-97.5 -97t-147 -33.5q-129 0 -203.5 74z" />
    <glyph glyph-name="V" unicode="V" horiz-adv-x="676" 
d="M286 0l-269 700h98l186 -490q21 -59 40 -118q19 59 40 118l183 490h95l-270 -700h-103z" />
    <glyph glyph-name="W" unicode="W" horiz-adv-x="963" 
d="M212 0l-184 700h94l120 -482q13 -46 28 -122q16 71 30 121l132 483h104l132 -483q14 -50 30 -121l28 122l121 482h88l-184 -700h-110l-136 498q-3 14 -11 42l-13 55q-11 -49 -24 -97l-136 -498h-109z" />
    <glyph glyph-name="X" unicode="X" horiz-adv-x="651" 
d="M11 0l258 359l-246 341h111l153 -220l40 -59l39 59l153 220h107l-244 -338l260 -362h-114l-159 229q-26 36 -44 66q-33 -51 -44 -66l-159 -229h-111z" />
    <glyph glyph-name="Y" unicode="Y" horiz-adv-x="660" 
d="M642 700l-266 -416v-284h-91v283l-267 417h106l163 -261q28 -45 46 -76q30 52 45 76l163 261h101z" />
    <glyph glyph-name="Z" unicode="Z" horiz-adv-x="620" 
d="M571 621l-422 -540h433v-81h-542v78l423 541h-415v81h523v-79z" />
    <glyph glyph-name="bracketleft" unicode="[" horiz-adv-x="344" 
d="M315 -93h-229v826h229v-74h-148v-678h148v-74z" />
    <glyph glyph-name="backslash" unicode="\" horiz-adv-x="519" 
d="M506 -69l-73 -37l-420 815l73 36z" />
    <glyph glyph-name="bracketright" unicode="]" horiz-adv-x="344" 
d="M258 -93h-230v74h149v678h-149v74h230v-826z" />
    <glyph glyph-name="asciicircum" unicode="^" horiz-adv-x="544" 
d="M38 373l189 327h90l189 -327h-90l-102 181q-32 60 -42 79q-17 -36 -40 -79l-103 -181h-91z" />
    <glyph glyph-name="underscore" unicode="_" horiz-adv-x="561" 
d="M511 -149h-461v76h461v-76z" />
    <glyph glyph-name="grave" unicode="`" horiz-adv-x="291" 
d="M226 549h-72l-90 126h98z" />
    <glyph glyph-name="a" unicode="a" horiz-adv-x="512" 
d="M441 78q0 -39 3 -78h-83q-1 18 -1 53v18q-48 -83 -155 -83q-72 0 -116.5 38.5t-44.5 98.5t43 97t123 49l81 12q31 4 48 15.5t17 37.5q0 35 -27 57t-68 22q-46 0 -75 -22t-35 -61h-88q7 67 62 108.5t135 41.5q82 0 131.5 -45t49.5 -126v-233zM355 248q-13 -18 -62 -26
l-66 -12q-92 -17 -92 -80q0 -34 25 -54.5t67 -20.5q56 0 92 35.5t36 92.5v65z" />
    <glyph glyph-name="b" unicode="b" horiz-adv-x="582" 
d="M432 450.5q49 -31.5 77 -88t28 -127.5q0 -72 -28 -128t-77.5 -87.5t-111.5 -31.5q-55 0 -96 25t-64 70v-83h-84v700h87v-310q23 44 64 68t95 24q61 0 110 -31.5zM407.5 108.5q39.5 47.5 39.5 126.5q0 78 -39.5 125.5t-105.5 47.5q-65 0 -103.5 -47.5t-38.5 -125.5
q0 -79 38.5 -126.5t103.5 -47.5q66 0 105.5 47.5z" />
    <glyph glyph-name="c" unicode="c" horiz-adv-x="532" 
d="M156.5 19.5q-53.5 31.5 -83 88t-29.5 127.5t30 127.5t83.5 88t122.5 31.5q87 0 144.5 -45t66.5 -119h-87q-9 42 -41.5 66t-81.5 24q-66 0 -106 -47.5t-40 -125.5t40 -126t105 -48q47 0 80 24.5t45 67.5h88q-14 -75 -72 -120t-142 -45q-69 0 -122.5 31.5z" />
    <glyph glyph-name="d" unicode="d" horiz-adv-x="582" 
d="M419 700h86v-700h-84v81q-23 -45 -64 -69t-96 -24q-62 0 -111.5 31.5t-77 87.5t-27.5 128q0 71 28 127.5t77 88t110 31.5q54 0 95 -24t64 -68v310zM383 108.5q39 47.5 39 126.5q0 78 -39 125.5t-104 47.5t-104.5 -47.5t-39.5 -125.5q0 -79 39.5 -126.5t104.5 -47.5
t104 47.5z" />
    <glyph glyph-name="e" unicode="e" horiz-adv-x="537" 
d="M492 214h-358q5 -72 41.5 -112.5t99.5 -40.5q45 0 77.5 21.5t46.5 58.5h87q-14 -68 -73.5 -110.5t-137.5 -42.5q-68 0 -120.5 31t-81 87t-28.5 129t30 129t82 87t118 31q100 0 158.5 -64t58.5 -174v-30zM182.5 378.5q-40.5 -33.5 -46.5 -97.5h270q-1 61 -38.5 96
t-91.5 35q-53 0 -93.5 -33.5z" />
    <glyph glyph-name="f" unicode="f" horiz-adv-x="326" 
d="M256 627q-66 0 -66 -66v-91h119v-71h-119v-399h-86v399h-73v71h73v102q0 128 130 128h75v-73h-53z" />
    <glyph glyph-name="g" unicode="g" horiz-adv-x="575" 
d="M415 470h84v-483q0 -93 -60.5 -146t-161.5 -53q-93 0 -149.5 43t-63.5 116h89q9 -41 41 -64t85 -23q61 0 97.5 34t36.5 92v103q-22 -45 -62 -68.5t-93 -23.5q-61 0 -109.5 31t-76 86t-27.5 125t28 125.5t77 86.5t110 31q53 0 93 -23.5t62 -70.5v82zM377.5 116
q38.5 47 38.5 123t-38.5 122.5t-101.5 46.5q-64 0 -102.5 -46.5t-38.5 -122.5q0 -77 38.5 -123.5t102.5 -46.5q63 0 101.5 47z" />
    <glyph glyph-name="h" unicode="h" horiz-adv-x="548" 
d="M431 430q47 -52 47 -138v-292h-87v278q0 61 -29 95.5t-79 34.5q-54 0 -87 -41t-33 -108v-259h-87v700h87v-303q22 42 58.5 63.5t86.5 21.5q76 0 123 -52z" />
    <glyph glyph-name="i" unicode="i" horiz-adv-x="239" 
d="M163 0h-87v470h87v-470zM168 556h-96v112h96v-112z" />
    <glyph glyph-name="j" unicode="j" horiz-adv-x="239" 
d="M-8 -200v74h31q26 0 39.5 12.5t13.5 42.5v541h87v-554q0 -57 -28.5 -86.5t-88.5 -29.5h-54zM168 556h-96v112h96v-112z" />
    <glyph glyph-name="k" unicode="k" horiz-adv-x="497" 
d="M491 0h-107l-174 221l-47 -45v-176h-87v700h87v-432l205 202h112l-205 -194z" />
    <glyph glyph-name="l" unicode="l" horiz-adv-x="239" 
d="M163 0h-87v700h87v-700z" />
    <glyph glyph-name="m" unicode="m" horiz-adv-x="814" 
d="M699.5 431q43.5 -51 43.5 -141v-290h-86v283q0 59 -25.5 92t-70.5 33q-50 0 -79 -36t-29 -100v-272h-87v284q0 58 -25.5 91t-70.5 33q-50 0 -78.5 -36t-28.5 -100v-272h-87v470h84v-78q20 44 54.5 67t81.5 23q50 0 86.5 -26t54.5 -74q22 49 60 74.5t86 25.5
q73 0 116.5 -51z" />
    <glyph glyph-name="n" unicode="n" horiz-adv-x="548" 
d="M431 430q47 -52 47 -139v-291h-87v277q0 61 -29 96t-80 35q-54 0 -86.5 -40t-32.5 -106v-262h-87v470h84v-81q21 46 58.5 69.5t89.5 23.5q76 0 123 -52z" />
    <glyph glyph-name="o" unicode="o" horiz-adv-x="560" 
d="M157 19.5q-54 31.5 -83.5 88t-29.5 127.5q0 72 30 128t83.5 87.5t122.5 31.5q70 0 123.5 -31.5t83 -87.5t29.5 -128t-29.5 -128t-83 -87.5t-123.5 -31.5q-69 0 -123 31.5zM385 108.5q40 47.5 40 126.5q0 78 -40 125.5t-105 47.5t-105 -47.5t-40 -125.5t40 -126t105 -48
t105 47.5z" />
    <glyph glyph-name="p" unicode="p" horiz-adv-x="582" 
d="M431.5 450.5q49.5 -31.5 77.5 -87.5t28 -128q0 -71 -28 -127.5t-77 -88t-110 -31.5q-54 0 -95 24t-64 68v-280h-87v670h84v-83q23 45 64 70t96 25q62 0 111.5 -31.5zM407.5 108.5q39.5 47.5 39.5 126.5q0 78 -39.5 125.5t-105.5 47.5q-65 0 -103.5 -47.5t-38.5 -125.5
q0 -79 38.5 -126.5t103.5 -47.5q66 0 105.5 47.5z" />
    <glyph glyph-name="q" unicode="q" horiz-adv-x="581" 
d="M421 470h84v-670h-86v280q-23 -44 -64 -68t-95 -24q-61 0 -110 31.5t-77 88t-28 127.5q0 72 27.5 128t77 87.5t111.5 31.5q55 0 96 -24t64 -69v81zM383 108.5q39 47.5 39 126.5q0 78 -39 125.5t-104 47.5t-104.5 -47.5t-39.5 -125.5q0 -79 39.5 -126.5t104.5 -47.5
t104 47.5z" />
    <glyph glyph-name="r" unicode="r" horiz-adv-x="349" 
d="M158 378q17 53 55 78t89 25q16 0 24 -1v-83l-20 1q-75 0 -109 -39t-34 -122v-237h-87v470h82v-92z" />
    <glyph glyph-name="s" unicode="s" horiz-adv-x="473" 
d="M98 31q-54 43 -59 114h87q5 -41 36.5 -64.5t80.5 -23.5q44 0 71 21t27 54q0 28 -19.5 44t-60.5 24l-72 13q-136 25 -136 133q0 39 23 70t64 48.5t93 17.5q81 0 131.5 -37.5t57.5 -102.5h-85q-7 34 -35 53t-69 19t-67 -18.5t-26 -47.5q0 -49 67 -61l80 -15
q70 -13 107 -47.5t37 -88.5q0 -43 -23.5 -76.5t-66.5 -52.5t-98 -19q-91 0 -145 43z" />
    <glyph glyph-name="t" unicode="t" horiz-adv-x="343" 
d="M305 399h-119v-266q0 -29 14.5 -44t49.5 -15h55v-74h-76q-64 0 -97 29t-33 93v277h-71v71h71v167h87v-167h119v-71z" />
    <glyph glyph-name="u" unicode="u" horiz-adv-x="548" 
d="M385 470h87v-470h-84v81q-21 -46 -58.5 -69.5t-89.5 -23.5q-76 0 -122.5 51.5t-46.5 138.5v292h86v-277q0 -62 29 -97t80 -35q54 0 86.5 40t32.5 106v263z" />
    <glyph glyph-name="v" unicode="v" horiz-adv-x="492" 
d="M198 0l-177 470h93l105 -297q10 -25 29 -87q13 48 27 87l107 297h89l-177 -470h-96z" />
    <glyph glyph-name="w" unicode="w" horiz-adv-x="722" 
d="M161 0l-133 470h89l76 -295q16 -70 19 -89l16 63q2 6 7 26l82 295h94l83 -295l22 -89q4 19 19 89l76 295h83l-133 -470h-95l-86 304q-11 43 -19 78q-8 -35 -19 -78l-86 -304h-95z" />
    <glyph glyph-name="x" unicode="x" horiz-adv-x="489" 
d="M17 0l174 239l-168 231h103l85 -124q11 -15 20 -29l15 -22q27 41 34 51l85 124h98l-166 -228l177 -242h-107l-91 133l-33 49l-32 -49l-92 -133h-102z" />
    <glyph glyph-name="y" unicode="y" horiz-adv-x="491" 
d="M59 -200v74h30q35 0 57 15t34 48l26 67l-191 466h96l103 -272q26 -67 36 -100q9 30 34 100l96 272h89l-212 -562q-22 -56 -59 -82t-96 -26h-43z" />
    <glyph glyph-name="z" unicode="z" horiz-adv-x="464" 
d="M414 400l-269 -329h278v-71h-380v68l271 330h-268v72h368v-70z" />
    <glyph glyph-name="braceleft" unicode="{" horiz-adv-x="366" 
d="M189 422q0 -44 -15.5 -68.5t-48.5 -33.5q33 -9 48.5 -33.5t15.5 -68.5v-162q0 -75 80 -75h69v-74h-89q-72 0 -107 33.5t-35 101.5v179q0 34 -12.5 48.5t-43.5 14.5h-16v72h16q31 0 43.5 14.5t12.5 48.5v179q0 68 35 101.5t107 33.5h89v-74h-69q-80 0 -80 -75v-162z" />
    <glyph glyph-name="bar" unicode="|" horiz-adv-x="268" 
d="M174 -124h-80v906h80v-906z" />
    <glyph glyph-name="braceright" unicode="}" horiz-adv-x="367" 
d="M331 355v-71h-15q-31 0 -43.5 -14.5t-12.5 -48.5v-179q0 -69 -35 -102t-107 -33h-90v73h70q40 0 59.5 19t19.5 57v162q0 44 15.5 68.5t48.5 33.5q-33 9 -48.5 33.5t-15.5 67.5v162q0 38 -19.5 57t-59.5 19h-70v74h90q142 0 142 -135v-179q0 -34 13 -49t43 -15h15z" />
    <glyph glyph-name="asciitilde" unicode="~" horiz-adv-x="625" 
d="M367 233q-28 11 -69 34q-31 18 -50.5 26.5t-40.5 8.5q-29 0 -45 -18.5t-17 -53.5h-82q1 71 36 109t100 38q35 0 63 -11t69 -34q31 -18 50.5 -26.5t40.5 -8.5q29 0 45 18.5t18 53.5h81q-1 -72 -36 -109.5t-100 -37.5q-35 0 -63 11z" />
    <glyph glyph-name="uni00A0" unicode="&#xa0;" horiz-adv-x="231" 
 />
    <glyph glyph-name="exclamdown" unicode="&#xa1;" horiz-adv-x="248" 
d="M175 451h-102v119h102v-119zM171 -130h-94l16 501h61z" />
    <glyph glyph-name="cent" unicode="&#xa2;" horiz-adv-x="553" 
d="M507 153q-13 -67 -60.5 -110.5t-118.5 -52.5v-82h-73v83q-89 13 -143 79.5t-54 164.5t54 164.5t143 79.5v82h73v-81q73 -8 121 -51.5t57 -110.5h-88q-7 34 -31 56.5t-59 30.5v-340q34 7 57.5 30.5t33.5 57.5h88zM177.5 124.5q28.5 -44.5 77.5 -58.5v337
q-49 -14 -77.5 -58.5t-28.5 -109.5q0 -66 28.5 -110.5z" />
    <glyph glyph-name="sterling" unicode="&#xa3;" horiz-adv-x="572" 
d="M226 138.5q-22 -37.5 -59 -60.5h351v-78h-458v81q101 49 101 142q0 28 -6 52h-106v72h86q-12 35 -18.5 66t-6.5 68q0 60 27.5 105t75.5 69.5t107 24.5q90 0 145.5 -48.5t60.5 -132.5h-89q-6 48 -37.5 76.5t-79.5 28.5q-54 0 -86.5 -33.5t-32.5 -89.5q0 -36 6.5 -64
t19.5 -70h194v-72h-177q4 -20 4 -50q0 -49 -22 -86.5z" />
    <glyph glyph-name="currency" unicode="&#xa4;" horiz-adv-x="639" 
d="M511 172l70 -69l-57 -57l-66 64q-57 -45 -139 -45t-139 45l-65 -64l-57 57l70 69q-32 55 -32 127t32 127l-70 69l57 57l65 -64q57 45 139 45t139 -45l66 64l57 -57l-70 -69q32 -55 32 -127t-32 -127zM218 183q39 -45 101 -45t101.5 45t39.5 116t-39.5 116t-101.5 45
t-101 -45t-39 -116t39 -116z" />
    <glyph glyph-name="yen" unicode="&#xa5;" horiz-adv-x="604" 
d="M577 668l-204 -349h154v-66h-180v-68h180v-66h-180v-119h-88v119h-180v66h180v68h-180v66h152l-203 349h100l134 -237l43 -82q5 14 42 82l133 237h97z" />
    <glyph glyph-name="brokenbar" unicode="&#xa6;" horiz-adv-x="268" 
d="M174 388h-80v394h80v-394zM174 -124h-80v394h80v-394z" />
    <glyph glyph-name="section" unicode="&#xa7;" horiz-adv-x="524" 
d="M433 135.5q18 -29.5 18 -69.5q0 -44 -24.5 -79t-67.5 -54.5t-97 -19.5q-91 0 -145 43.5t-57 120.5h90q4 -43 33.5 -68t78.5 -25q44 0 72 22.5t28 57.5q0 27 -17 45.5t-56 31.5l-105 37q-69 25 -99 59t-30 87q0 38 25 69.5t68 53.5q-75 41 -75 118q0 43 24 76.5t66 52
t95 18.5q85 0 138 -42.5t58 -113.5h-89q-5 40 -34.5 63t-73.5 23q-42 0 -69 -21t-27 -53q0 -49 62 -69l127 -43q63 -22 93.5 -56.5t30.5 -85.5q0 -39 -26.5 -73t-70.5 -54q38 -22 56 -51.5zM157.5 285q16.5 -20 55.5 -34l99 -36q76 32 76 88q0 57 -75 82l-105 37
q-33 -16 -50 -38.5t-17 -48.5q0 -30 16.5 -50z" />
    <glyph glyph-name="dieresis" unicode="&#xa8;" horiz-adv-x="407" 
d="M153 560h-88v103h88v-103zM342 560h-87v103h87v-103z" />
    <glyph glyph-name="copyright" unicode="&#xa9;" horiz-adv-x="861" 
d="M242 24q-85 50 -134.5 136t-49.5 190q0 103 49.5 189t134.5 136t188 50t188.5 -50t135 -136t49.5 -189q0 -104 -49.5 -190t-135 -136t-188.5 -50t-188 50zM583.5 81q69.5 41 110 112t40.5 157t-40.5 156.5t-110 111.5t-153.5 41t-153.5 -41t-109.5 -111.5t-40 -156.5
t40 -157t109.5 -112t153.5 -41t153.5 41zM329.5 169.5q-44.5 26.5 -70 74t-25.5 106.5t26 106.5t71.5 74t101.5 26.5q71 0 119.5 -39t57.5 -103h-69q-8 36 -37 57.5t-71 21.5q-55 0 -91 -40.5t-36 -103.5t35 -103.5t88 -40.5q41 0 69.5 20.5t42.5 58.5h69q-11 -62 -62 -102
t-119 -40q-55 0 -99.5 26.5z" />
    <glyph glyph-name="ordfeminine" unicode="&#xaa;" horiz-adv-x="440" 
d="M301 292v42v13q-39 -65 -124 -65q-58 0 -94 31t-36 80q0 48 35 77.5t101 39.5l64 10q24 3 36.5 12t12.5 28q0 27 -20 43t-51 16q-35 0 -57 -16.5t-27 -45.5h-78q6 54 50.5 87.5t110.5 33.5q67 0 107.5 -36.5t40.5 -102.5v-183q0 -32 3 -64h-74zM295 486q-11 -13 -47 -20
l-50 -9q-69 -12 -69 -60q0 -26 19 -41.5t51 -15.5q42 0 69 27.5t27 70.5v48z" />
    <glyph glyph-name="guillemotleft" unicode="&#xab;" horiz-adv-x="494" 
d="M461 50h-85l-106 194l106 194h85l-105 -194zM253 50h-85l-106 194l106 194h85l-105 -194z" />
    <glyph glyph-name="logicalnot" unicode="&#xac;" horiz-adv-x="553" 
d="M480 151h-79v210h-358v76h437v-286z" />
    <glyph glyph-name="uni00AD" unicode="&#xad;" horiz-adv-x="362" 
d="M308 234h-254v80h254v-80z" />
    <glyph glyph-name="registered" unicode="&#xae;" horiz-adv-x="651" 
d="M461.5 681.5q61.5 -35.5 97 -97t35.5 -135.5t-35.5 -135t-97 -96.5t-135.5 -35.5t-135.5 35.5t-97 96.5t-35.5 135t35.5 135.5t97 97t135.5 35.5t135.5 -35.5zM432 265q48 28 76 76.5t28 107.5t-28 107.5t-76 77t-106 28.5t-106.5 -28.5t-76.5 -77t-28 -107.5t28 -107.5
t76.5 -76.5t106.5 -28t106 28zM420.5 474q-13.5 -17 -37.5 -24q43 -7 43 -54v-37q0 -31 5 -49h-53q-3 10 -3.5 22.5t-0.5 29.5v29q0 19 -9 28t-28 9h-57v-118h-52v280h111q44 0 69.5 -20.5t25.5 -56.5q0 -22 -13.5 -39zM337 472q21 0 33.5 10t12.5 27t-12.5 27t-33.5 10h-57
v-74h57z" />
    <glyph glyph-name="macron" unicode="&#xaf;" horiz-adv-x="406" 
d="M341 579h-277v65h277v-65z" />
    <glyph glyph-name="degree" unicode="&#xb0;" horiz-adv-x="443" 
d="M137 376q-38 21 -59.5 58t-21.5 83t22 83t59.5 58.5t83.5 21.5t84 -21.5t60 -58.5t22 -83t-21.5 -83t-59.5 -58t-85 -21q-46 0 -84 21zM289 447q27 28 27 70q0 43 -27 71t-68 28t-67.5 -28t-26.5 -71q0 -42 27 -70t67 -28q41 0 68 28z" />
    <glyph glyph-name="plusminus" unicode="&#xb1;" horiz-adv-x="580" 
d="M329 591v-172h205v-76h-205v-173h-78v173h-205v76h205v172h78zM534 17h-487v76h487v-76z" />
    <glyph glyph-name="uni00B2" unicode="&#xb2;" horiz-adv-x="431" 
d="M386 356v-66h-349q3 56 33 102t93 91l56 41q83 61 83 121q0 36 -24 59t-62 23q-42 0 -68 -25t-27 -67h-80q2 72 49 115t124 43q76 0 122 -41t46 -108q0 -46 -28.5 -88t-90.5 -87l-58 -42q-51 -39 -68 -71h249z" />
    <glyph glyph-name="uni00B3" unicode="&#xb3;" horiz-adv-x="448" 
d="M379.5 505.5q24.5 -31.5 24.5 -75.5q0 -43 -23 -77t-63.5 -53t-91.5 -19q-84 0 -133.5 41t-53.5 115h81q5 -43 32 -66.5t73 -23.5q43 0 71 23.5t28 62.5q0 38 -27 59.5t-73 21.5h-43v66h42q41 0 65 20t24 54q0 32 -25 52.5t-63 20.5q-41 0 -67.5 -22.5t-30.5 -59.5h-80
q6 68 54.5 108t123.5 40q74 0 121 -38t47 -98q0 -37 -22 -65.5t-59 -41.5q44 -13 68.5 -44.5z" />
    <glyph glyph-name="acute" unicode="&#xb4;" horiz-adv-x="291" 
d="M136 549h-72l63 126h99z" />
    <glyph glyph-name="uni00B5" unicode="&#xb5;" horiz-adv-x="571" 
d="M400 470h86v-470h-84v80q-21 -46 -58.5 -69t-89.5 -23q-44 0 -82 23v-211h-87v670h87v-277q0 -62 28.5 -97t79.5 -35q55 0 87.5 40t32.5 106v263z" />
    <glyph glyph-name="paragraph" unicode="&#xb6;" horiz-adv-x="553" 
d="M50 612.5q26 41.5 74 64.5t110 23h72v-700h-72v336q-62 0 -110 23t-74 64.5t-26 94.5t26 94.5zM387 0v700h71v-700h-71z" />
    <glyph glyph-name="periodcentered" unicode="&#xb7;" horiz-adv-x="234" 
d="M169 289h-103v122h103v-122z" />
    <glyph glyph-name="cedilla" unicode="&#xb8;" horiz-adv-x="350" 
d="M181 -44q43 4 73.5 -17t30.5 -62q0 -40 -30.5 -64.5t-78.5 -24.5q-67 0 -112 38l32 45q39 -29 79 -29q23 0 35.5 10t12.5 28q0 16 -13 24.5t-33 8.5q-21 0 -40 -9l-31 28l69 77h47v-9z" />
    <glyph glyph-name="uni00B9" unicode="&#xb9;" horiz-adv-x="277" 
d="M14 659l103 125h78v-494h-79v402l-57 -71z" />
    <glyph glyph-name="ordmasculine" unicode="&#xba;" horiz-adv-x="471" 
d="M135.5 307q-43.5 25 -67.5 70.5t-24 102.5q0 58 24 103t67.5 70t99.5 25q57 0 100.5 -25t67.5 -70t24 -103t-24 -103t-67.5 -70t-100.5 -25q-56 0 -99.5 25zM315.5 383q30.5 37 30.5 97t-30.5 96.5t-80.5 36.5q-49 0 -79.5 -36.5t-30.5 -96.5t30.5 -97t79.5 -37
q50 0 80.5 37z" />
    <glyph glyph-name="guillemotright" unicode="&#xbb;" horiz-adv-x="494" 
d="M117 50h-84l105 194l-105 194h84l106 -194zM325 50h-84l105 194l-105 194h84l106 -194z" />
    <glyph glyph-name="onequarter" unicode="&#xbc;" horiz-adv-x="791" 
d="M27 564l85 104h69v-401h-71v320l-44 -55zM617 640l-481 -652l-54 40l481 652zM707 166h57v-56h-57v-110h-68v110h-199v60l178 231h89v-235zM639 166v173q-17 -24 -23 -32l-86 -112l-24 -29h133z" />
    <glyph glyph-name="onehalf" unicode="&#xbd;" horiz-adv-x="811" 
d="M29 564l85 104h69v-401h-71v320l-44 -55zM619 640l-481 -652l-54 40l481 652zM766 57v-57h-288q3 48 27.5 85.5t74.5 73.5l46 34q65 47 65 93q0 29 -18.5 47t-47.5 18q-32 0 -51.5 -20t-21.5 -52h-71q2 59 40.5 94t102.5 35q62 0 100.5 -33.5t38.5 -88.5q0 -38 -24 -71.5
t-74 -70.5l-47 -34q-38 -28 -52 -53h200z" />
    <glyph glyph-name="threequarters" unicode="&#xbe;" horiz-adv-x="915" 
d="M320 442q20 -26 20 -61q0 -53 -41 -87t-106 -34q-69 0 -110 33t-43 94h71q4 -33 25.5 -51t56.5 -18q33 0 54 18t21 48q0 29 -20.5 45.5t-56.5 16.5h-34v58h33q31 0 50 15t19 41t-19 42t-49 16q-31 0 -51.5 -17.5t-23.5 -46.5h-71q4 55 44 88t102 33q61 0 99.5 -31
t38.5 -80q0 -30 -17 -52.5t-46 -33.5q34 -10 54 -36zM742 640l-481 -652l-54 40l481 652zM832 166h57v-56h-57v-110h-68v110h-199v60l178 231h89v-235zM764 166v173q-17 -24 -23 -32l-86 -112l-24 -29h133z" />
    <glyph glyph-name="questiondown" unicode="&#xbf;" horiz-adv-x="486" 
d="M313 451h-103v119h103v-119zM93.5 -92q-56.5 50 -56.5 134q0 50 23 92.5t73 82.5l33 27q31 25 43.5 51t14.5 70h81q0 -58 -17 -95.5t-59 -72.5l-39 -33q-33 -27 -47.5 -56t-14.5 -65q0 -50 31.5 -79.5t83.5 -29.5q60 0 95 34t38 94h88q-3 -94 -62.5 -149t-158.5 -55
q-93 0 -149.5 50z" />
    <glyph glyph-name="Agrave" unicode="&#xc0;" horiz-adv-x="684" 
d="M668 0h-98l-69 180h-322l-67 -180h-96l273 700h106zM209 260h262l-102 268q-15 41 -30 90q-15 -49 -30 -90zM379 779h-72l-90 126h98z" />
    <glyph glyph-name="Aacute" unicode="&#xc1;" horiz-adv-x="684" 
d="M668 0h-98l-69 180h-322l-67 -180h-96l273 700h106zM209 260h262l-102 268q-15 41 -30 90q-15 -49 -30 -90zM376 779h-72l63 126h99z" />
    <glyph glyph-name="Acircumflex" unicode="&#xc2;" horiz-adv-x="684" 
d="M668 0h-98l-69 180h-322l-67 -180h-96l273 700h106zM209 260h262l-102 268q-15 41 -30 90q-15 -49 -30 -90zM184 780l107 123h101l107 -123h-86l-26 28q-24 26 -45 54q-21 -26 -45 -54l-27 -28h-86z" />
    <glyph glyph-name="Atilde" unicode="&#xc3;" horiz-adv-x="684" 
d="M668 0h-98l-69 180h-322l-67 -180h-96l273 700h106zM209 260h262l-102 268q-15 41 -30 90q-15 -49 -30 -90zM375.5 794.5q-18.5 6.5 -41.5 18.5q-21 10 -32 14t-23 4q-16 0 -24.5 -10.5t-8.5 -28.5h-68q0 50 23.5 76.5t66.5 26.5q20 0 36.5 -6t42.5 -18q20 -10 32 -14.5
t25 -4.5q16 0 24.5 10.5t8.5 28.5h68q0 -50 -23 -76.5t-66 -26.5q-22 0 -40.5 6.5z" />
    <glyph glyph-name="Adieresis" unicode="&#xc4;" horiz-adv-x="684" 
d="M668 0h-98l-69 180h-322l-67 -180h-96l273 700h106zM209 260h262l-102 268q-15 41 -30 90q-15 -49 -30 -90zM291 790h-88v103h88v-103zM480 790h-87v103h87v-103z" />
    <glyph glyph-name="Aring" unicode="&#xc5;" horiz-adv-x="684" 
d="M668 0h-98l-69 180h-322l-67 -180h-96l273 700h106zM209 260h262l-102 268q-15 41 -30 90q-15 -49 -30 -90zM260 790.5q-32 28.5 -32 74.5t32 74.5t82 28.5q49 0 81 -29t32 -74t-32 -74t-81 -29q-50 0 -82 28.5zM377.5 829q14.5 14 14.5 36t-14.5 36t-35.5 14
q-22 0 -36.5 -14t-14.5 -36t14.5 -36t36.5 -14q21 0 35.5 14z" />
    <glyph glyph-name="AE" unicode="&#xc6;" horiz-adv-x="914" 
d="M502 325v-244h360v-81h-451v177h-232l-94 -177h-98l379 700h492v-81h-356v-212h312v-82h-312zM221 257h190v367q-21 -49 -45 -94z" />
    <glyph glyph-name="Ccedilla" unicode="&#xc7;" horiz-adv-x="734" 
d="M518.5 108.5q54.5 39.5 78.5 108.5h95q-13 -63 -52.5 -113.5t-98.5 -80.5t-128 -34l-40 -42q5 1 15 1q39 0 64.5 -21t25.5 -59q0 -40 -30.5 -64.5t-78.5 -24.5q-65 0 -112 38l32 46q39 -29 79 -29q23 0 35.5 10t12.5 27q0 16 -13.5 25t-33.5 9q-21 0 -39 -9l-30 27l59 66
q-90 7 -160 54t-109.5 126.5t-39.5 180.5q0 106 44.5 188.5t122.5 128t174 45.5q123 0 203.5 -62t97.5 -167h-94q-17 67 -72.5 107.5t-134.5 40.5q-71 0 -127 -35.5t-87 -99.5t-31 -146t31 -146t86 -99.5t126 -35.5q75 0 129.5 39.5z" />
    <glyph glyph-name="Egrave" unicode="&#xc8;" horiz-adv-x="595" 
d="M184 325v-244h360v-81h-451v700h447v-81h-356v-212h312v-82h-312zM361 779h-72l-90 126h98z" />
    <glyph glyph-name="Eacute" unicode="&#xc9;" horiz-adv-x="595" 
d="M184 325v-244h360v-81h-451v700h447v-81h-356v-212h312v-82h-312zM358 779h-72l63 126h99z" />
    <glyph glyph-name="Ecircumflex" unicode="&#xca;" horiz-adv-x="595" 
d="M184 325v-244h360v-81h-451v700h447v-81h-356v-212h312v-82h-312zM166 780l107 123h101l107 -123h-86l-26 28q-24 26 -45 54q-21 -26 -45 -54l-27 -28h-86z" />
    <glyph glyph-name="Edieresis" unicode="&#xcb;" horiz-adv-x="595" 
d="M184 325v-244h360v-81h-451v700h447v-81h-356v-212h312v-82h-312zM273 790h-88v103h88v-103zM462 790h-87v103h87v-103z" />
    <glyph glyph-name="Igrave" unicode="&#xcc;" horiz-adv-x="276" 
d="M184 0h-91v700h91v-700zM176 779h-72l-90 126h98z" />
    <glyph glyph-name="Iacute" unicode="&#xcd;" horiz-adv-x="276" 
d="M184 0h-91v700h91v-700zM173 779h-72l63 126h99z" />
    <glyph glyph-name="Icircumflex" unicode="&#xce;" horiz-adv-x="276" 
d="M184 0h-91v700h91v-700zM-19 780l107 123h101l107 -123h-86l-26 28q-24 26 -45 54q-21 -26 -45 -54l-27 -28h-86z" />
    <glyph glyph-name="Idieresis" unicode="&#xcf;" horiz-adv-x="276" 
d="M184 0h-91v700h91v-700zM88 790h-88v103h88v-103zM277 790h-87v103h87v-103z" />
    <glyph glyph-name="Eth" unicode="&#xd0;" horiz-adv-x="766" 
d="M545 657.5q82 -42.5 126.5 -121.5t44.5 -186t-44.5 -186t-126.5 -121.5t-192 -42.5h-243v326h-90v70h90v304h243q110 0 192 -42.5zM348 81q129 0 200.5 70.5t71.5 198.5t-71.5 198.5t-200.5 70.5h-147v-223h187v-70h-187v-245h147z" />
    <glyph glyph-name="Ntilde" unicode="&#xd1;" horiz-adv-x="747" 
d="M93 0v700h126l351 -586q-2 80 -2 116v470h86v-700h-114l-364 607q3 -67 3 -130v-477h-86zM407.5 794.5q-18.5 6.5 -41.5 18.5q-21 10 -32 14t-23 4q-16 0 -24.5 -10.5t-8.5 -28.5h-68q0 50 23.5 76.5t66.5 26.5q20 0 36.5 -6t42.5 -18q20 -10 32 -14.5t25 -4.5
q16 0 24.5 10.5t8.5 28.5h68q0 -50 -23 -76.5t-66 -26.5q-22 0 -40.5 6.5z" />
    <glyph glyph-name="Ograve" unicode="&#xd2;" horiz-adv-x="791" 
d="M216.5 33.5q-78.5 45.5 -122.5 128t-44 188.5t45 188.5t123.5 128t176.5 45.5q100 0 178.5 -45.5t122.5 -128t44 -188.5t-44 -188.5t-122.5 -128t-178.5 -45.5t-178.5 45.5zM525 105q57 36 88.5 100t31.5 145t-31.5 145t-88.5 100t-130 36q-72 0 -128.5 -36t-88.5 -99.5
t-32 -145.5t32 -145.5t88.5 -99.5t128.5 -36q73 0 130 36zM433 779h-72l-90 126h98z" />
    <glyph glyph-name="Oacute" unicode="&#xd3;" horiz-adv-x="791" 
d="M216.5 33.5q-78.5 45.5 -122.5 128t-44 188.5t45 188.5t123.5 128t176.5 45.5q100 0 178.5 -45.5t122.5 -128t44 -188.5t-44 -188.5t-122.5 -128t-178.5 -45.5t-178.5 45.5zM525 105q57 36 88.5 100t31.5 145t-31.5 145t-88.5 100t-130 36q-72 0 -128.5 -36t-88.5 -99.5
t-32 -145.5t32 -145.5t88.5 -99.5t128.5 -36q73 0 130 36zM430 779h-72l63 126h99z" />
    <glyph glyph-name="Ocircumflex" unicode="&#xd4;" horiz-adv-x="791" 
d="M216.5 33.5q-78.5 45.5 -122.5 128t-44 188.5t45 188.5t123.5 128t176.5 45.5q100 0 178.5 -45.5t122.5 -128t44 -188.5t-44 -188.5t-122.5 -128t-178.5 -45.5t-178.5 45.5zM525 105q57 36 88.5 100t31.5 145t-31.5 145t-88.5 100t-130 36q-72 0 -128.5 -36t-88.5 -99.5
t-32 -145.5t32 -145.5t88.5 -99.5t128.5 -36q73 0 130 36zM238 780l107 123h101l107 -123h-86l-26 28q-24 26 -45 54q-21 -26 -45 -54l-27 -28h-86z" />
    <glyph glyph-name="Otilde" unicode="&#xd5;" horiz-adv-x="791" 
d="M216.5 33.5q-78.5 45.5 -122.5 128t-44 188.5t45 188.5t123.5 128t176.5 45.5q100 0 178.5 -45.5t122.5 -128t44 -188.5t-44 -188.5t-122.5 -128t-178.5 -45.5t-178.5 45.5zM525 105q57 36 88.5 100t31.5 145t-31.5 145t-88.5 100t-130 36q-72 0 -128.5 -36t-88.5 -99.5
t-32 -145.5t32 -145.5t88.5 -99.5t128.5 -36q73 0 130 36zM429.5 794.5q-18.5 6.5 -41.5 18.5q-21 10 -32 14t-23 4q-16 0 -24.5 -10.5t-8.5 -28.5h-68q0 50 23.5 76.5t66.5 26.5q20 0 36.5 -6t42.5 -18q20 -10 32 -14.5t25 -4.5q16 0 24.5 10.5t8.5 28.5h68
q0 -50 -23 -76.5t-66 -26.5q-22 0 -40.5 6.5z" />
    <glyph glyph-name="Odieresis" unicode="&#xd6;" horiz-adv-x="791" 
d="M216.5 33.5q-78.5 45.5 -122.5 128t-44 188.5t45 188.5t123.5 128t176.5 45.5q100 0 178.5 -45.5t122.5 -128t44 -188.5t-44 -188.5t-122.5 -128t-178.5 -45.5t-178.5 45.5zM525 105q57 36 88.5 100t31.5 145t-31.5 145t-88.5 100t-130 36q-72 0 -128.5 -36t-88.5 -99.5
t-32 -145.5t32 -145.5t88.5 -99.5t128.5 -36q73 0 130 36zM345 790h-88v103h88v-103zM534 790h-87v103h87v-103z" />
    <glyph glyph-name="multiply" unicode="&#xd7;" horiz-adv-x="530" 
d="M266 247l-163 -163l-53 53l163 163l-164 163l53 52l163 -163l161 162l54 -53l-162 -162l161 -162l-52 -52z" />
    <glyph glyph-name="Oslash" unicode="&#xd8;" horiz-adv-x="791" 
d="M647 608q45 -49 69 -114.5t24 -143.5q0 -106 -44 -188.5t-122.5 -128t-178.5 -45.5q-109 0 -194 55l-62 -79l-59 46l64 81q-45 49 -69.5 115t-24.5 144q0 106 45 188.5t123.5 128t176.5 45.5q111 0 195 -56l62 79l59 -47zM202 165l334 423q-60 43 -141 43
q-72 0 -128.5 -36t-88.5 -99.5t-32 -145.5q0 -110 56 -185zM525 105q57 36 88.5 100t31.5 145q0 108 -55 185l-334 -423q60 -43 139 -43q73 0 130 36z" />
    <glyph glyph-name="Ugrave" unicode="&#xd9;" horiz-adv-x="728" 
d="M160.5 62q-74.5 74 -74.5 206v432h91v-430q0 -95 50 -148t137 -53q86 0 136.5 53t50.5 148v430h92v-430q0 -88 -34.5 -151.5t-97.5 -97t-147 -33.5q-129 0 -203.5 74zM402 779h-72l-90 126h98z" />
    <glyph glyph-name="Uacute" unicode="&#xda;" horiz-adv-x="728" 
d="M160.5 62q-74.5 74 -74.5 206v432h91v-430q0 -95 50 -148t137 -53q86 0 136.5 53t50.5 148v430h92v-430q0 -88 -34.5 -151.5t-97.5 -97t-147 -33.5q-129 0 -203.5 74zM399 779h-72l63 126h99z" />
    <glyph glyph-name="Ucircumflex" unicode="&#xdb;" horiz-adv-x="728" 
d="M160.5 62q-74.5 74 -74.5 206v432h91v-430q0 -95 50 -148t137 -53q86 0 136.5 53t50.5 148v430h92v-430q0 -88 -34.5 -151.5t-97.5 -97t-147 -33.5q-129 0 -203.5 74zM207 780l107 123h101l107 -123h-86l-26 28q-24 26 -45 54q-21 -26 -45 -54l-27 -28h-86z" />
    <glyph glyph-name="Udieresis" unicode="&#xdc;" horiz-adv-x="728" 
d="M160.5 62q-74.5 74 -74.5 206v432h91v-430q0 -95 50 -148t137 -53q86 0 136.5 53t50.5 148v430h92v-430q0 -88 -34.5 -151.5t-97.5 -97t-147 -33.5q-129 0 -203.5 74zM314 790h-88v103h88v-103zM503 790h-87v103h87v-103z" />
    <glyph glyph-name="Yacute" unicode="&#xdd;" horiz-adv-x="660" 
d="M642 700l-266 -416v-284h-91v283l-267 417h106l163 -261q28 -45 46 -76q30 52 45 76l163 261h101zM365 779h-72l63 126h99z" />
    <glyph glyph-name="Thorn" unicode="&#xde;" horiz-adv-x="630" 
d="M344 569q117 0 179.5 -54.5t62.5 -151.5q0 -96 -63 -150.5t-179 -54.5h-160v-158h-91v700h91v-131h160zM339 238q74 0 113 33t39 92t-39 92.5t-113 33.5h-155v-251h155z" />
    <glyph glyph-name="germandbls" unicode="&#xdf;" horiz-adv-x="554" 
d="M474 317q36 -49 36 -113q0 -93 -61 -148.5t-162 -55.5h-57v74h49q65 0 103.5 36t38.5 98q0 61 -38.5 97t-103.5 36h-49v74h49q50 0 83 31t33 81t-31.5 81t-79.5 31q-56 0 -88.5 -33.5t-32.5 -90.5v-515h-87v513q0 91 56 145t151 54q58 0 103.5 -23t71.5 -64.5t26 -94.5
q0 -50 -30 -91.5t-82 -57.5q66 -15 102 -64z" />
    <glyph glyph-name="agrave" unicode="&#xe0;" horiz-adv-x="512" 
d="M441 78q0 -39 3 -78h-83q-1 18 -1 53v18q-48 -83 -155 -83q-72 0 -116.5 38.5t-44.5 98.5t43 97t123 49l81 12q31 4 48 15.5t17 37.5q0 35 -27 57t-68 22q-46 0 -75 -22t-35 -61h-88q7 67 62 108.5t135 41.5q82 0 131.5 -45t49.5 -126v-233zM355 248q-13 -18 -62 -26
l-66 -12q-92 -17 -92 -80q0 -34 25 -54.5t67 -20.5q56 0 92 35.5t36 92.5v65zM298 549h-72l-90 126h98z" />
    <glyph glyph-name="aacute" unicode="&#xe1;" horiz-adv-x="512" 
d="M441 78q0 -39 3 -78h-83q-1 18 -1 53v18q-48 -83 -155 -83q-72 0 -116.5 38.5t-44.5 98.5t43 97t123 49l81 12q31 4 48 15.5t17 37.5q0 35 -27 57t-68 22q-46 0 -75 -22t-35 -61h-88q7 67 62 108.5t135 41.5q82 0 131.5 -45t49.5 -126v-233zM355 248q-13 -18 -62 -26
l-66 -12q-92 -17 -92 -80q0 -34 25 -54.5t67 -20.5q56 0 92 35.5t36 92.5v65zM295 549h-72l63 126h99z" />
    <glyph glyph-name="acircumflex" unicode="&#xe2;" horiz-adv-x="512" 
d="M441 78q0 -39 3 -78h-83q-1 18 -1 53v18q-48 -83 -155 -83q-72 0 -116.5 38.5t-44.5 98.5t43 97t123 49l81 12q31 4 48 15.5t17 37.5q0 35 -27 57t-68 22q-46 0 -75 -22t-35 -61h-88q7 67 62 108.5t135 41.5q82 0 131.5 -45t49.5 -126v-233zM355 248q-13 -18 -62 -26
l-66 -12q-92 -17 -92 -80q0 -34 25 -54.5t67 -20.5q56 0 92 35.5t36 92.5v65zM103 550l107 123h101l107 -123h-86l-26 28q-24 26 -45 54q-21 -26 -45 -54l-27 -28h-86z" />
    <glyph glyph-name="atilde" unicode="&#xe3;" horiz-adv-x="512" 
d="M441 78q0 -39 3 -78h-83q-1 18 -1 53v18q-48 -83 -155 -83q-72 0 -116.5 38.5t-44.5 98.5t43 97t123 49l81 12q31 4 48 15.5t17 37.5q0 35 -27 57t-68 22q-46 0 -75 -22t-35 -61h-88q7 67 62 108.5t135 41.5q82 0 131.5 -45t49.5 -126v-233zM355 248q-13 -18 -62 -26
l-66 -12q-92 -17 -92 -80q0 -34 25 -54.5t67 -20.5q56 0 92 35.5t36 92.5v65zM294.5 564.5q-18.5 6.5 -41.5 18.5q-21 10 -32 14t-23 4q-16 0 -24.5 -10.5t-8.5 -28.5h-68q0 50 23.5 76.5t66.5 26.5q20 0 36.5 -6t42.5 -18q20 -10 32 -14.5t25 -4.5q16 0 24.5 10.5t8.5 28.5
h68q0 -50 -23 -76.5t-66 -26.5q-22 0 -40.5 6.5z" />
    <glyph glyph-name="adieresis" unicode="&#xe4;" horiz-adv-x="512" 
d="M441 78q0 -39 3 -78h-83q-1 18 -1 53v18q-48 -83 -155 -83q-72 0 -116.5 38.5t-44.5 98.5t43 97t123 49l81 12q31 4 48 15.5t17 37.5q0 35 -27 57t-68 22q-46 0 -75 -22t-35 -61h-88q7 67 62 108.5t135 41.5q82 0 131.5 -45t49.5 -126v-233zM355 248q-13 -18 -62 -26
l-66 -12q-92 -17 -92 -80q0 -34 25 -54.5t67 -20.5q56 0 92 35.5t36 92.5v65zM210 560h-88v103h88v-103zM399 560h-87v103h87v-103z" />
    <glyph glyph-name="aring" unicode="&#xe5;" horiz-adv-x="512" 
d="M441 78q0 -39 3 -78h-83q-1 18 -1 53v18q-48 -83 -155 -83q-72 0 -116.5 38.5t-44.5 98.5t43 97t123 49l81 12q31 4 48 15.5t17 37.5q0 35 -27 57t-68 22q-46 0 -75 -22t-35 -61h-88q7 67 62 108.5t135 41.5q82 0 131.5 -45t49.5 -126v-233zM355 248q-13 -18 -62 -26
l-66 -12q-92 -17 -92 -80q0 -34 25 -54.5t67 -20.5q56 0 92 35.5t36 92.5v65zM179 559.5q-32 28.5 -32 74.5t32 74.5t82 28.5q49 0 81 -29t32 -74t-32 -74t-81 -29q-50 0 -82 28.5zM296.5 598q14.5 14 14.5 36t-14.5 36t-35.5 14q-22 0 -36.5 -14t-14.5 -36t14.5 -36
t36.5 -14q21 0 35.5 14z" />
    <glyph glyph-name="ae" unicode="&#xe6;" horiz-adv-x="844" 
d="M799 214h-358q5 -72 41.5 -112.5t99.5 -40.5q45 0 77.5 21.5t46.5 58.5h87q-14 -68 -73.5 -110.5t-137.5 -42.5q-63 0 -112.5 26.5t-76.5 74.5q-28 -49 -74.5 -75t-107.5 -26q-74 0 -120.5 38.5t-46.5 99.5q0 59 43 96t123 49l81 12q31 4 48 15.5t17 37.5q0 35 -27 57
t-68 22q-46 0 -75 -22t-35 -61h-88q7 67 62 108.5t135 41.5q52 0 92.5 -20t61.5 -58q28 37 71.5 57.5t96.5 20.5q101 0 159 -64t58 -174v-30zM713 281q-1 61 -39 96t-91 35t-93.5 -34t-46.5 -97h270zM355 248q-13 -18 -62 -26l-66 -12q-92 -17 -92 -80q0 -34 25 -54.5
t67 -20.5q56 0 92 35.5t36 92.5v65z" />
    <glyph glyph-name="ccedilla" unicode="&#xe7;" horiz-adv-x="532" 
d="M493 153q-14 -72 -67 -116.5t-131 -48.5l-30 -32q43 4 73 -17t30 -62q0 -40 -30.5 -64.5t-78.5 -24.5q-34 0 -62.5 10.5t-48.5 27.5l32 45q39 -29 78 -29q23 0 36 10.5t13 27.5q0 16 -13 24.5t-34 8.5q-20 0 -40 -9l-30 28l52 58q-89 13 -143.5 80t-54.5 165
q0 71 30 127.5t83.5 88t122.5 31.5q87 0 144.5 -45t66.5 -119h-87q-9 42 -41.5 66t-81.5 24q-66 0 -106 -47.5t-40 -125.5t40 -126t105 -48q47 0 80 24.5t45 67.5h88z" />
    <glyph glyph-name="egrave" unicode="&#xe8;" horiz-adv-x="537" 
d="M492 214h-358q5 -72 41.5 -112.5t99.5 -40.5q45 0 77.5 21.5t46.5 58.5h87q-14 -68 -73.5 -110.5t-137.5 -42.5q-68 0 -120.5 31t-81 87t-28.5 129t30 129t82 87t118 31q100 0 158.5 -64t58.5 -174v-30zM182.5 378.5q-40.5 -33.5 -46.5 -97.5h270q-1 61 -38.5 96
t-91.5 35q-53 0 -93.5 -33.5zM313 549h-72l-90 126h98z" />
    <glyph glyph-name="eacute" unicode="&#xe9;" horiz-adv-x="537" 
d="M492 214h-358q5 -72 41.5 -112.5t99.5 -40.5q45 0 77.5 21.5t46.5 58.5h87q-14 -68 -73.5 -110.5t-137.5 -42.5q-68 0 -120.5 31t-81 87t-28.5 129t30 129t82 87t118 31q100 0 158.5 -64t58.5 -174v-30zM182.5 378.5q-40.5 -33.5 -46.5 -97.5h270q-1 61 -38.5 96
t-91.5 35q-53 0 -93.5 -33.5zM310 549h-72l63 126h99z" />
    <glyph glyph-name="ecircumflex" unicode="&#xea;" horiz-adv-x="537" 
d="M492 214h-358q5 -72 41.5 -112.5t99.5 -40.5q45 0 77.5 21.5t46.5 58.5h87q-14 -68 -73.5 -110.5t-137.5 -42.5q-68 0 -120.5 31t-81 87t-28.5 129t30 129t82 87t118 31q100 0 158.5 -64t58.5 -174v-30zM182.5 378.5q-40.5 -33.5 -46.5 -97.5h270q-1 61 -38.5 96
t-91.5 35q-53 0 -93.5 -33.5zM118 550l107 123h101l107 -123h-86l-26 28q-24 26 -45 54q-21 -26 -45 -54l-27 -28h-86z" />
    <glyph glyph-name="edieresis" unicode="&#xeb;" horiz-adv-x="537" 
d="M492 214h-358q5 -72 41.5 -112.5t99.5 -40.5q45 0 77.5 21.5t46.5 58.5h87q-14 -68 -73.5 -110.5t-137.5 -42.5q-68 0 -120.5 31t-81 87t-28.5 129t30 129t82 87t118 31q100 0 158.5 -64t58.5 -174v-30zM182.5 378.5q-40.5 -33.5 -46.5 -97.5h270q-1 61 -38.5 96
t-91.5 35q-53 0 -93.5 -33.5zM225 560h-88v103h88v-103zM414 560h-87v103h87v-103z" />
    <glyph glyph-name="igrave" unicode="&#xec;" horiz-adv-x="239" 
d="M163 0h-87v470h87v-470zM157 549h-72l-90 126h98z" />
    <glyph glyph-name="iacute" unicode="&#xed;" horiz-adv-x="239" 
d="M163 0h-87v470h87v-470zM154 549h-72l63 126h99z" />
    <glyph glyph-name="icircumflex" unicode="&#xee;" horiz-adv-x="239" 
d="M163 0h-87v470h87v-470zM-38 550l107 123h101l107 -123h-86l-26 28q-24 26 -45 54q-21 -26 -45 -54l-27 -28h-86z" />
    <glyph glyph-name="idieresis" unicode="&#xef;" horiz-adv-x="239" 
d="M163 0h-87v470h87v-470zM69 560h-88v103h88v-103zM258 560h-87v103h87v-103z" />
    <glyph glyph-name="eth" unicode="&#xf0;" horiz-adv-x="547" 
d="M358 586q140 -148 140 -340q0 -80 -28.5 -138.5t-80 -89t-117.5 -30.5q-67 0 -118.5 30t-80 84t-28.5 124t27.5 123.5t77 83t112.5 29.5q82 0 133 -58q-38 78 -114 149l-137 -57l-22 54l109 46q-43 34 -94 62l61 51q63 -36 114 -80l120 51l22 -54zM374.5 106.5
q38.5 45.5 38.5 119.5q0 73 -38.5 118.5t-100.5 45.5t-100 -45t-38 -119t38 -119.5t100 -45.5t100.5 45.5z" />
    <glyph glyph-name="ntilde" unicode="&#xf1;" horiz-adv-x="548" 
d="M431 430q47 -52 47 -139v-291h-87v277q0 61 -29 96t-80 35q-54 0 -86.5 -40t-32.5 -106v-262h-87v470h84v-81q21 46 58.5 69.5t89.5 23.5q76 0 123 -52zM308.5 564.5q-18.5 6.5 -41.5 18.5q-21 10 -32 14t-23 4q-16 0 -24.5 -10.5t-8.5 -28.5h-68q0 50 23.5 76.5
t66.5 26.5q20 0 36.5 -6t42.5 -18q20 -10 32 -14.5t25 -4.5q16 0 24.5 10.5t8.5 28.5h68q0 -50 -23 -76.5t-66 -26.5q-22 0 -40.5 6.5z" />
    <glyph glyph-name="ograve" unicode="&#xf2;" horiz-adv-x="560" 
d="M157 19.5q-54 31.5 -83.5 88t-29.5 127.5q0 72 30 128t83.5 87.5t122.5 31.5q70 0 123.5 -31.5t83 -87.5t29.5 -128t-29.5 -128t-83 -87.5t-123.5 -31.5q-69 0 -123 31.5zM385 108.5q40 47.5 40 126.5q0 78 -40 125.5t-105 47.5t-105 -47.5t-40 -125.5t40 -126t105 -48
t105 47.5zM318 549h-72l-90 126h98z" />
    <glyph glyph-name="oacute" unicode="&#xf3;" horiz-adv-x="560" 
d="M157 19.5q-54 31.5 -83.5 88t-29.5 127.5q0 72 30 128t83.5 87.5t122.5 31.5q70 0 123.5 -31.5t83 -87.5t29.5 -128t-29.5 -128t-83 -87.5t-123.5 -31.5q-69 0 -123 31.5zM385 108.5q40 47.5 40 126.5q0 78 -40 125.5t-105 47.5t-105 -47.5t-40 -125.5t40 -126t105 -48
t105 47.5zM315 549h-72l63 126h99z" />
    <glyph glyph-name="ocircumflex" unicode="&#xf4;" horiz-adv-x="560" 
d="M157 19.5q-54 31.5 -83.5 88t-29.5 127.5q0 72 30 128t83.5 87.5t122.5 31.5q70 0 123.5 -31.5t83 -87.5t29.5 -128t-29.5 -128t-83 -87.5t-123.5 -31.5q-69 0 -123 31.5zM385 108.5q40 47.5 40 126.5q0 78 -40 125.5t-105 47.5t-105 -47.5t-40 -125.5t40 -126t105 -48
t105 47.5zM123 550l107 123h101l107 -123h-86l-26 28q-24 26 -45 54q-21 -26 -45 -54l-27 -28h-86z" />
    <glyph glyph-name="otilde" unicode="&#xf5;" horiz-adv-x="560" 
d="M157 19.5q-54 31.5 -83.5 88t-29.5 127.5q0 72 30 128t83.5 87.5t122.5 31.5q70 0 123.5 -31.5t83 -87.5t29.5 -128t-29.5 -128t-83 -87.5t-123.5 -31.5q-69 0 -123 31.5zM385 108.5q40 47.5 40 126.5q0 78 -40 125.5t-105 47.5t-105 -47.5t-40 -125.5t40 -126t105 -48
t105 47.5zM313.5 564.5q-18.5 6.5 -41.5 18.5q-21 10 -32 14t-23 4q-16 0 -24.5 -10.5t-8.5 -28.5h-68q0 50 23.5 76.5t66.5 26.5q20 0 36.5 -6t42.5 -18q20 -10 32 -14.5t25 -4.5q16 0 24.5 10.5t8.5 28.5h68q0 -50 -23 -76.5t-66 -26.5q-22 0 -40.5 6.5z" />
    <glyph glyph-name="odieresis" unicode="&#xf6;" horiz-adv-x="560" 
d="M157 19.5q-54 31.5 -83.5 88t-29.5 127.5q0 72 30 128t83.5 87.5t122.5 31.5q70 0 123.5 -31.5t83 -87.5t29.5 -128t-29.5 -128t-83 -87.5t-123.5 -31.5q-69 0 -123 31.5zM385 108.5q40 47.5 40 126.5q0 78 -40 125.5t-105 47.5t-105 -47.5t-40 -125.5t40 -126t105 -48
t105 47.5zM230 560h-88v103h88v-103zM419 560h-87v103h87v-103z" />
    <glyph glyph-name="divide" unicode="&#xf7;" horiz-adv-x="580" 
d="M336 437h-92v107h92v-107zM539 262h-498v76h498v-76zM336 55h-92v107h92v-107z" />
    <glyph glyph-name="oslash" unicode="&#xf8;" horiz-adv-x="565" 
d="M463 401q56 -67 56 -166q0 -72 -30 -128t-83.5 -87.5t-122.5 -31.5q-76 0 -131 37l-43 -52l-50 40l45 54q-27 33 -42 75.5t-15 92.5q0 71 30 127.5t83.5 88t122.5 31.5q75 0 132 -38l44 53l49 -42zM160 135l204 248q-34 25 -81 25q-65 0 -105 -47.5t-40 -125.5
q0 -56 22 -100zM388 108.5q40 47.5 40 126.5q0 54 -21 98l-205 -247q36 -25 81 -25q65 0 105 47.5z" />
    <glyph glyph-name="ugrave" unicode="&#xf9;" horiz-adv-x="548" 
d="M385 470h87v-470h-84v81q-21 -46 -58.5 -69.5t-89.5 -23.5q-76 0 -122.5 51.5t-46.5 138.5v292h86v-277q0 -62 29 -97t80 -35q54 0 86.5 40t32.5 106v263zM311 549h-72l-90 126h98z" />
    <glyph glyph-name="uacute" unicode="&#xfa;" horiz-adv-x="548" 
d="M385 470h87v-470h-84v81q-21 -46 -58.5 -69.5t-89.5 -23.5q-76 0 -122.5 51.5t-46.5 138.5v292h86v-277q0 -62 29 -97t80 -35q54 0 86.5 40t32.5 106v263zM308 549h-72l63 126h99z" />
    <glyph glyph-name="ucircumflex" unicode="&#xfb;" horiz-adv-x="548" 
d="M385 470h87v-470h-84v81q-21 -46 -58.5 -69.5t-89.5 -23.5q-76 0 -122.5 51.5t-46.5 138.5v292h86v-277q0 -62 29 -97t80 -35q54 0 86.5 40t32.5 106v263zM116 550l107 123h101l107 -123h-86l-26 28q-24 26 -45 54q-21 -26 -45 -54l-27 -28h-86z" />
    <glyph glyph-name="udieresis" unicode="&#xfc;" horiz-adv-x="548" 
d="M385 470h87v-470h-84v81q-21 -46 -58.5 -69.5t-89.5 -23.5q-76 0 -122.5 51.5t-46.5 138.5v292h86v-277q0 -62 29 -97t80 -35q54 0 86.5 40t32.5 106v263zM223 560h-88v103h88v-103zM412 560h-87v103h87v-103z" />
    <glyph glyph-name="yacute" unicode="&#xfd;" horiz-adv-x="491" 
d="M59 -200v74h30q35 0 57 15t34 48l26 67l-191 466h96l103 -272q26 -67 36 -100q9 30 34 100l96 272h89l-212 -562q-22 -56 -59 -82t-96 -26h-43zM285 549h-72l63 126h99z" />
    <glyph glyph-name="thorn" unicode="&#xfe;" horiz-adv-x="582" 
d="M432 450.5q49 -31.5 77 -88t28 -127.5t-28 -127.5t-77 -88t-110 -31.5q-54 0 -95 24t-64 68v-280h-87v900h87v-310q23 44 64 68t95 24q61 0 110 -31.5zM407.5 108.5q39.5 47.5 39.5 126.5q0 78 -39.5 125.5t-105.5 47.5q-65 0 -103.5 -47.5t-38.5 -125.5
q0 -79 38.5 -126.5t103.5 -47.5q66 0 105.5 47.5z" />
    <glyph glyph-name="ydieresis" unicode="&#xff;" horiz-adv-x="491" 
d="M59 -200v74h30q35 0 57 15t34 48l26 67l-191 466h96l103 -272q26 -67 36 -100q9 30 34 100l96 272h89l-212 -562q-22 -56 -59 -82t-96 -26h-43zM200 560h-88v103h88v-103zM389 560h-87v103h87v-103z" />
    <glyph glyph-name="Amacron" unicode="&#x100;" horiz-adv-x="684" 
d="M668 0h-98l-69 180h-322l-67 -180h-96l273 700h106zM209 260h262l-102 268q-15 41 -30 90q-15 -49 -30 -90zM480 808h-277v65h277v-65z" />
    <glyph glyph-name="amacron" unicode="&#x101;" horiz-adv-x="512" 
d="M441 78q0 -39 3 -78h-83q-1 18 -1 53v18q-48 -83 -155 -83q-72 0 -116.5 38.5t-44.5 98.5t43 97t123 49l81 12q31 4 48 15.5t17 37.5q0 35 -27 57t-68 22q-46 0 -75 -22t-35 -61h-88q7 67 62 108.5t135 41.5q82 0 131.5 -45t49.5 -126v-233zM355 248q-13 -18 -62 -26
l-66 -12q-92 -17 -92 -80q0 -34 25 -54.5t67 -20.5q56 0 92 35.5t36 92.5v65zM399 578h-277v65h277v-65z" />
    <glyph glyph-name="Abreve" unicode="&#x102;" horiz-adv-x="684" 
d="M668 0h-98l-69 180h-322l-67 -180h-96l273 700h106zM209 260h262l-102 268q-15 41 -30 90q-15 -49 -30 -90zM239 813q-39 34 -41 93h71q3 -31 22.5 -49t50.5 -18t50.5 18t22.5 49h71q-2 -59 -41 -93t-103 -34t-103 34z" />
    <glyph glyph-name="abreve" unicode="&#x103;" horiz-adv-x="512" 
d="M441 78q0 -39 3 -78h-83q-1 18 -1 53v18q-48 -83 -155 -83q-72 0 -116.5 38.5t-44.5 98.5t43 97t123 49l81 12q31 4 48 15.5t17 37.5q0 35 -27 57t-68 22q-46 0 -75 -22t-35 -61h-88q7 67 62 108.5t135 41.5q82 0 131.5 -45t49.5 -126v-233zM355 248q-13 -18 -62 -26
l-66 -12q-92 -17 -92 -80q0 -34 25 -54.5t67 -20.5q56 0 92 35.5t36 92.5v65zM158 583q-39 34 -41 93h71q3 -31 22.5 -49t50.5 -18t50.5 18t22.5 49h71q-2 -59 -41 -93t-103 -34t-103 34z" />
    <glyph glyph-name="Aogonek" unicode="&#x104;" horiz-adv-x="684" 
d="M671 -148v-60q-16 -4 -38 -4q-53 0 -84.5 27t-31.5 71q0 35 23.5 64.5t61.5 49.5h-32l-69 180h-322l-67 -180h-96l273 700h106l273 -700q-40 -17 -61.5 -42t-21.5 -53q0 -26 17 -40.5t46 -14.5q7 0 23 2zM209 260h262l-102 268q-15 41 -30 90q-15 -49 -30 -90z" />
    <glyph glyph-name="aogonek" unicode="&#x105;" horiz-adv-x="512" 
d="M448 -148v-60q-15 -4 -37 -4q-54 0 -85.5 27t-31.5 71q0 35 23.5 64.5t62.5 49.5h-19q-1 18 -1 53v18q-48 -83 -155 -83q-72 0 -116.5 38.5t-44.5 98.5t43 97t123 49l81 12q31 4 48 15.5t17 37.5q0 35 -27 57t-68 22q-46 0 -75 -22t-35 -61h-88q7 67 62 108.5t135 41.5
q82 0 131.5 -45t49.5 -126v-233q0 -39 3 -78h1q-40 -17 -61.5 -42t-21.5 -53q0 -26 17 -40.5t47 -14.5q6 0 22 2zM355 248q-13 -18 -62 -26l-66 -12q-92 -17 -92 -80q0 -34 25 -54.5t67 -20.5q56 0 92 35.5t36 92.5v65z" />
    <glyph glyph-name="Cacute" unicode="&#x106;" horiz-adv-x="734" 
d="M214 33.5q-77 45.5 -120.5 128t-43.5 188.5t44.5 188.5t122.5 128t174 45.5q123 0 203.5 -62t97.5 -167h-94q-17 67 -72.5 107.5t-134.5 40.5q-71 0 -127 -35.5t-87 -99.5t-31 -146t31 -146t86 -99.5t126 -35.5q75 0 129.5 39.5t78.5 108.5h95q-14 -67 -57.5 -119
t-107.5 -81t-139 -29q-97 0 -174 45.5zM426 779h-72l63 126h99z" />
    <glyph glyph-name="cacute" unicode="&#x107;" horiz-adv-x="532" 
d="M156.5 19.5q-53.5 31.5 -83 88t-29.5 127.5t30 127.5t83.5 88t122.5 31.5q87 0 144.5 -45t66.5 -119h-87q-9 42 -41.5 66t-81.5 24q-66 0 -106 -47.5t-40 -125.5t40 -126t105 -48q47 0 80 24.5t45 67.5h88q-14 -75 -72 -120t-142 -45q-69 0 -122.5 31.5zM315 549h-72
l63 126h99z" />
    <glyph glyph-name="Ccircumflex" unicode="&#x108;" horiz-adv-x="734" 
d="M214 33.5q-77 45.5 -120.5 128t-43.5 188.5t44.5 188.5t122.5 128t174 45.5q123 0 203.5 -62t97.5 -167h-94q-17 67 -72.5 107.5t-134.5 40.5q-71 0 -127 -35.5t-87 -99.5t-31 -146t31 -146t86 -99.5t126 -35.5q75 0 129.5 39.5t78.5 108.5h95q-14 -67 -57.5 -119
t-107.5 -81t-139 -29q-97 0 -174 45.5zM234 780l107 123h101l107 -123h-86l-26 28q-24 26 -45 54q-21 -26 -45 -54l-27 -28h-86z" />
    <glyph glyph-name="ccircumflex" unicode="&#x109;" horiz-adv-x="532" 
d="M156.5 19.5q-53.5 31.5 -83 88t-29.5 127.5t30 127.5t83.5 88t122.5 31.5q87 0 144.5 -45t66.5 -119h-87q-9 42 -41.5 66t-81.5 24q-66 0 -106 -47.5t-40 -125.5t40 -126t105 -48q47 0 80 24.5t45 67.5h88q-14 -75 -72 -120t-142 -45q-69 0 -122.5 31.5zM123 550l107 123
h101l107 -123h-86l-26 28q-24 26 -45 54q-21 -26 -45 -54l-27 -28h-86z" />
    <glyph glyph-name="Cdotaccent" unicode="&#x10a;" horiz-adv-x="734" 
d="M214 33.5q-77 45.5 -120.5 128t-43.5 188.5t44.5 188.5t122.5 128t174 45.5q123 0 203.5 -62t97.5 -167h-94q-17 67 -72.5 107.5t-134.5 40.5q-71 0 -127 -35.5t-87 -99.5t-31 -146t31 -146t86 -99.5t126 -35.5q75 0 129.5 39.5t78.5 108.5h95q-14 -67 -57.5 -119
t-107.5 -81t-139 -29q-97 0 -174 45.5zM439 786h-96v112h96v-112z" />
    <glyph glyph-name="cdotaccent" unicode="&#x10b;" horiz-adv-x="532" 
d="M156.5 19.5q-53.5 31.5 -83 88t-29.5 127.5t30 127.5t83.5 88t122.5 31.5q87 0 144.5 -45t66.5 -119h-87q-9 42 -41.5 66t-81.5 24q-66 0 -106 -47.5t-40 -125.5t40 -126t105 -48q47 0 80 24.5t45 67.5h88q-14 -75 -72 -120t-142 -45q-69 0 -122.5 31.5zM329 556h-96v112
h96v-112z" />
    <glyph glyph-name="Ccaron" unicode="&#x10c;" horiz-adv-x="734" 
d="M214 33.5q-77 45.5 -120.5 128t-43.5 188.5t44.5 188.5t122.5 128t174 45.5q123 0 203.5 -62t97.5 -167h-94q-17 67 -72.5 107.5t-134.5 40.5q-71 0 -127 -35.5t-87 -99.5t-31 -146t31 -146t86 -99.5t126 -35.5q75 0 129.5 39.5t78.5 108.5h95q-14 -67 -57.5 -119
t-107.5 -81t-139 -29q-97 0 -174 45.5zM341 780l-107 123h86l27 -28q24 -28 45 -54q21 28 45 54l26 28h86l-107 -123h-101z" />
    <glyph glyph-name="ccaron" unicode="&#x10d;" horiz-adv-x="532" 
d="M156.5 19.5q-53.5 31.5 -83 88t-29.5 127.5t30 127.5t83.5 88t122.5 31.5q87 0 144.5 -45t66.5 -119h-87q-9 42 -41.5 66t-81.5 24q-66 0 -106 -47.5t-40 -125.5t40 -126t105 -48q47 0 80 24.5t45 67.5h88q-14 -75 -72 -120t-142 -45q-69 0 -122.5 31.5zM230 550
l-107 123h86l27 -28q24 -28 45 -54q21 28 45 54l26 28h86l-107 -123h-101z" />
    <glyph glyph-name="Dcaron" unicode="&#x10e;" horiz-adv-x="749" 
d="M528 657.5q82 -42.5 126.5 -121.5t44.5 -186t-44.5 -186t-126.5 -121.5t-192 -42.5h-243v700h243q110 0 192 -42.5zM331 81q129 0 200.5 70.5t71.5 198.5t-71.5 198.5t-200.5 70.5h-147v-538h147zM290 780l-107 123h86l27 -28q24 -28 45 -54q21 28 45 54l26 28h86
l-107 -123h-101z" />
    <glyph glyph-name="dcaron" unicode="&#x10f;" horiz-adv-x="598" 
d="M419 700h86v-700h-84v81q-23 -45 -64 -69t-96 -24q-62 0 -111.5 31.5t-77 87.5t-27.5 128q0 71 28 127.5t77 88t110 31.5q54 0 95 -24t64 -68v310zM383 108.5q39 47.5 39 126.5q0 78 -39 125.5t-104 47.5t-104.5 -47.5t-39.5 -125.5q0 -79 39.5 -126.5t104.5 -47.5
t104 47.5zM582 700h90v-110q0 -47 -24 -74.5t-70 -30.5v42q26 5 37 20t11 43v5h-44v105z" />
    <glyph glyph-name="Dcroat" unicode="&#x110;" horiz-adv-x="766" 
d="M545 657.5q82 -42.5 126.5 -121.5t44.5 -186t-44.5 -186t-126.5 -121.5t-192 -42.5h-243v326h-90v70h90v304h243q110 0 192 -42.5zM348 81q129 0 200.5 70.5t71.5 198.5t-71.5 198.5t-200.5 70.5h-147v-223h187v-70h-187v-245h147z" />
    <glyph glyph-name="dcroat" unicode="&#x111;" horiz-adv-x="581" 
d="M572 610v-60h-67v-550h-84v81q-23 -45 -64 -69t-96 -24q-62 0 -111.5 31.5t-77 87.5t-27.5 128q0 71 28 127.5t77 88t110 31.5q54 0 95 -24t64 -68v160h-183v60h183v90h86v-90h67zM383 108.5q39 47.5 39 126.5q0 78 -39 125.5t-104 47.5t-104.5 -47.5t-39.5 -125.5
q0 -79 39.5 -126.5t104.5 -47.5t104 47.5z" />
    <glyph glyph-name="Emacron" unicode="&#x112;" horiz-adv-x="595" 
d="M184 325v-244h360v-81h-451v700h447v-81h-356v-212h312v-82h-312zM462 808h-277v65h277v-65z" />
    <glyph glyph-name="emacron" unicode="&#x113;" horiz-adv-x="537" 
d="M492 214h-358q5 -72 41.5 -112.5t99.5 -40.5q45 0 77.5 21.5t46.5 58.5h87q-14 -68 -73.5 -110.5t-137.5 -42.5q-68 0 -120.5 31t-81 87t-28.5 129t30 129t82 87t118 31q100 0 158.5 -64t58.5 -174v-30zM182.5 378.5q-40.5 -33.5 -46.5 -97.5h270q-1 61 -38.5 96
t-91.5 35q-53 0 -93.5 -33.5zM414 578h-277v65h277v-65z" />
    <glyph glyph-name="Ebreve" unicode="&#x114;" horiz-adv-x="595" 
d="M184 325v-244h360v-81h-451v700h447v-81h-356v-212h312v-82h-312zM221 813q-39 34 -41 93h71q3 -31 22.5 -49t50.5 -18t50.5 18t22.5 49h71q-2 -59 -41 -93t-103 -34t-103 34z" />
    <glyph glyph-name="ebreve" unicode="&#x115;" horiz-adv-x="537" 
d="M492 214h-358q5 -72 41.5 -112.5t99.5 -40.5q45 0 77.5 21.5t46.5 58.5h87q-14 -68 -73.5 -110.5t-137.5 -42.5q-68 0 -120.5 31t-81 87t-28.5 129t30 129t82 87t118 31q100 0 158.5 -64t58.5 -174v-30zM182.5 378.5q-40.5 -33.5 -46.5 -97.5h270q-1 61 -38.5 96
t-91.5 35q-53 0 -93.5 -33.5zM173 583q-39 34 -41 93h71q3 -31 22.5 -49t50.5 -18t50.5 18t22.5 49h71q-2 -59 -41 -93t-103 -34t-103 34z" />
    <glyph glyph-name="Edotaccent" unicode="&#x116;" horiz-adv-x="595" 
d="M184 325v-244h360v-81h-451v700h447v-81h-356v-212h312v-82h-312zM372 786h-96v112h96v-112z" />
    <glyph glyph-name="edotaccent" unicode="&#x117;" horiz-adv-x="537" 
d="M492 214h-358q5 -72 41.5 -112.5t99.5 -40.5q45 0 77.5 21.5t46.5 58.5h87q-14 -68 -73.5 -110.5t-137.5 -42.5q-68 0 -120.5 31t-81 87t-28.5 129t30 129t82 87t118 31q100 0 158.5 -64t58.5 -174v-30zM182.5 378.5q-40.5 -33.5 -46.5 -97.5h270q-1 61 -38.5 96
t-91.5 35q-53 0 -93.5 -33.5zM324 556h-96v112h96v-112z" />
    <glyph glyph-name="Eogonek" unicode="&#x118;" horiz-adv-x="595" 
d="M547 -148v-60q-16 -4 -38 -4q-53 0 -84.5 27t-31.5 71q0 35 23.5 64.5t61.5 49.5h-385v700h447v-81h-356v-212h312v-82h-312v-244h360v-81q-40 -17 -61.5 -42t-21.5 -53q0 -26 17 -40.5t46 -14.5q7 0 23 2z" />
    <glyph glyph-name="eogonek" unicode="&#x119;" horiz-adv-x="537" 
d="M492 214h-358q5 -72 41.5 -112.5t99.5 -40.5q45 0 77.5 21.5t46.5 58.5h87q-9 -48 -44.5 -84.5t-88.5 -59.5q-80 -33 -80 -91q0 -27 16.5 -41.5t46.5 -14.5q7 0 23 2v-60q-16 -4 -38 -4q-53 0 -84.5 27t-31.5 71q0 30 17.5 56.5t48.5 45.5q-67 0 -118 31.5t-79.5 87
t-28.5 128.5t30 129t82 87t118 31q100 0 158.5 -64t58.5 -174v-30zM406 281q-1 61 -39 96t-91 35t-93.5 -34t-46.5 -97h270z" />
    <glyph glyph-name="Ecaron" unicode="&#x11a;" horiz-adv-x="595" 
d="M184 325v-244h360v-81h-451v700h447v-81h-356v-212h312v-82h-312zM273 780l-107 123h86l27 -28q24 -28 45 -54q21 28 45 54l26 28h86l-107 -123h-101z" />
    <glyph glyph-name="ecaron" unicode="&#x11b;" horiz-adv-x="537" 
d="M492 214h-358q5 -72 41.5 -112.5t99.5 -40.5q45 0 77.5 21.5t46.5 58.5h87q-14 -68 -73.5 -110.5t-137.5 -42.5q-68 0 -120.5 31t-81 87t-28.5 129t30 129t82 87t118 31q100 0 158.5 -64t58.5 -174v-30zM182.5 378.5q-40.5 -33.5 -46.5 -97.5h270q-1 61 -38.5 96
t-91.5 35q-53 0 -93.5 -33.5zM225 550l-107 123h86l27 -28q24 -28 45 -54q21 28 45 54l26 28h86l-107 -123h-101z" />
    <glyph glyph-name="Gcircumflex" unicode="&#x11c;" horiz-adv-x="758" 
d="M465 323h228v-323h-79v125q-32 -67 -94 -102t-144 -35q-92 0 -166.5 46.5t-117 129.5t-42.5 186q0 104 45 186.5t123.5 129t176.5 46.5q78 0 140.5 -28t102.5 -79t51 -117h-95q-16 63 -69.5 103t-130.5 40q-72 0 -128.5 -36t-88 -100t-31.5 -145q0 -80 31.5 -144.5
t87.5 -100.5t126 -36q85 0 143.5 46.5t74.5 126.5h-144v81zM237 780l107 123h101l107 -123h-86l-26 28q-24 26 -45 54q-21 -26 -45 -54l-27 -28h-86z" />
    <glyph glyph-name="gcircumflex" unicode="&#x11d;" horiz-adv-x="575" 
d="M415 470h84v-483q0 -93 -60.5 -146t-161.5 -53q-93 0 -149.5 43t-63.5 116h89q9 -41 41 -64t85 -23q61 0 97.5 34t36.5 92v103q-22 -45 -62 -68.5t-93 -23.5q-61 0 -109.5 31t-76 86t-27.5 125t28 125.5t77 86.5t110 31q53 0 93 -23.5t62 -70.5v82zM377.5 116
q38.5 47 38.5 123t-38.5 122.5t-101.5 46.5q-64 0 -102.5 -46.5t-38.5 -122.5q0 -77 38.5 -123.5t102.5 -46.5q63 0 101.5 47zM131 550l107 123h101l107 -123h-86l-26 28q-24 26 -45 54q-21 -26 -45 -54l-27 -28h-86z" />
    <glyph glyph-name="Gbreve" unicode="&#x11e;" horiz-adv-x="758" 
d="M465 323h228v-323h-79v125q-32 -67 -94 -102t-144 -35q-92 0 -166.5 46.5t-117 129.5t-42.5 186q0 104 45 186.5t123.5 129t176.5 46.5q78 0 140.5 -28t102.5 -79t51 -117h-95q-16 63 -69.5 103t-130.5 40q-72 0 -128.5 -36t-88 -100t-31.5 -145q0 -80 31.5 -144.5
t87.5 -100.5t126 -36q85 0 143.5 46.5t74.5 126.5h-144v81zM291 813q-39 34 -41 93h71q3 -31 22.5 -49t50.5 -18t50.5 18t22.5 49h71q-2 -59 -41 -93t-103 -34t-103 34z" />
    <glyph glyph-name="gbreve" unicode="&#x11f;" horiz-adv-x="575" 
d="M415 470h84v-483q0 -93 -60.5 -146t-161.5 -53q-93 0 -149.5 43t-63.5 116h89q9 -41 41 -64t85 -23q61 0 97.5 34t36.5 92v103q-22 -45 -62 -68.5t-93 -23.5q-61 0 -109.5 31t-76 86t-27.5 125t28 125.5t77 86.5t110 31q53 0 93 -23.5t62 -70.5v82zM377.5 116
q38.5 47 38.5 123t-38.5 122.5t-101.5 46.5q-64 0 -102.5 -46.5t-38.5 -122.5q0 -77 38.5 -123.5t102.5 -46.5q63 0 101.5 47zM186 583q-39 34 -41 93h71q3 -31 22.5 -49t50.5 -18t50.5 18t22.5 49h71q-2 -59 -41 -93t-103 -34t-103 34z" />
    <glyph glyph-name="Gdotaccent" unicode="&#x120;" horiz-adv-x="758" 
d="M465 323h228v-323h-79v125q-32 -67 -94 -102t-144 -35q-92 0 -166.5 46.5t-117 129.5t-42.5 186q0 104 45 186.5t123.5 129t176.5 46.5q78 0 140.5 -28t102.5 -79t51 -117h-95q-16 63 -69.5 103t-130.5 40q-72 0 -128.5 -36t-88 -100t-31.5 -145q0 -80 31.5 -144.5
t87.5 -100.5t126 -36q85 0 143.5 46.5t74.5 126.5h-144v81zM442 786h-96v112h96v-112z" />
    <glyph glyph-name="gdotaccent" unicode="&#x121;" horiz-adv-x="575" 
d="M415 470h84v-483q0 -93 -60.5 -146t-161.5 -53q-93 0 -149.5 43t-63.5 116h89q9 -41 41 -64t85 -23q61 0 97.5 34t36.5 92v103q-22 -45 -62 -68.5t-93 -23.5q-61 0 -109.5 31t-76 86t-27.5 125t28 125.5t77 86.5t110 31q53 0 93 -23.5t62 -70.5v82zM377.5 116
q38.5 47 38.5 123t-38.5 122.5t-101.5 46.5q-64 0 -102.5 -46.5t-38.5 -122.5q0 -77 38.5 -123.5t102.5 -46.5q63 0 101.5 47zM337 556h-96v112h96v-112z" />
    <glyph glyph-name="uni0122" unicode="&#x122;" horiz-adv-x="758" 
d="M465 323h228v-323h-79v125q-32 -67 -94 -102t-144 -35q-92 0 -166.5 46.5t-117 129.5t-42.5 186q0 104 45 186.5t123.5 129t176.5 46.5q78 0 140.5 -28t102.5 -79t51 -117h-95q-16 63 -69.5 103t-130.5 40q-72 0 -128.5 -36t-88 -100t-31.5 -145q0 -80 31.5 -144.5
t87.5 -100.5t126 -36q85 0 143.5 46.5t74.5 126.5h-144v81zM347 -77h90v-110q0 -47 -24 -74.5t-70 -30.5v42q26 5 37 20t11 43v6h-44v104z" />
    <glyph glyph-name="uni0123" unicode="&#x123;" horiz-adv-x="575" 
d="M415 470h84v-483q0 -93 -60.5 -146t-161.5 -53q-93 0 -149.5 43t-63.5 116h89q9 -41 41 -64t85 -23q61 0 97.5 34t36.5 92v103q-22 -45 -62 -68.5t-93 -23.5q-61 0 -109.5 31t-76 86t-27.5 125t28 125.5t77 86.5t110 31q53 0 93 -23.5t62 -70.5v82zM377.5 116
q38.5 47 38.5 123t-38.5 122.5t-101.5 46.5q-64 0 -102.5 -46.5t-38.5 -122.5q0 -77 38.5 -123.5t102.5 -46.5q63 0 101.5 47zM338 729q-25 -5 -36 -20t-11 -43v-5h44v-105h-91v110q0 47 24 74.5t70 30.5v-42z" />
    <glyph glyph-name="Hcircumflex" unicode="&#x124;" horiz-adv-x="728" 
d="M544 407v293h91v-700h-91v325h-360v-325h-91v700h91v-293h360zM207 780l107 123h101l107 -123h-86l-26 28q-24 26 -45 54q-21 -26 -45 -54l-27 -28h-86z" />
    <glyph glyph-name="hcircumflex" unicode="&#x125;" horiz-adv-x="548" 
d="M431 430q47 -52 47 -138v-292h-87v278q0 61 -29 95.5t-79 34.5q-54 0 -87 -41t-33 -108v-259h-87v700h87v-303q22 42 58.5 63.5t86.5 21.5q76 0 123 -52zM127 770l107 123h101l107 -123h-86l-26 28q-24 26 -45 54q-21 -26 -45 -54l-27 -28h-86z" />
    <glyph glyph-name="Hbar" unicode="&#x126;" horiz-adv-x="761" 
d="M652 595h84v-70h-84v-525h-91v325h-361v-325h-91v525h-85v70h85v105h91v-105h361v105h91v-105zM200 407h361v118h-361v-118z" />
    <glyph glyph-name="hbar" unicode="&#x127;" horiz-adv-x="548" 
d="M431 430q47 -52 47 -138v-292h-87v278q0 61 -29 95.5t-79 34.5q-54 0 -87 -41t-33 -108v-259h-87v550h-72v60h72v90h87v-90h176v-60h-176v-153q22 42 58.5 63.5t86.5 21.5q76 0 123 -52z" />
    <glyph glyph-name="Itilde" unicode="&#x128;" horiz-adv-x="276" 
d="M184 0h-91v700h91v-700zM171.5 794.5q-18.5 6.5 -41.5 18.5q-21 10 -32 14t-23 4q-16 0 -24.5 -10.5t-8.5 -28.5h-68q0 50 23.5 76.5t66.5 26.5q20 0 36.5 -6t42.5 -18q20 -10 32 -14.5t25 -4.5q16 0 24.5 10.5t8.5 28.5h68q0 -50 -23 -76.5t-66 -26.5q-22 0 -40.5 6.5z
" />
    <glyph glyph-name="itilde" unicode="&#x129;" horiz-adv-x="239" 
d="M163 0h-87v470h87v-470zM153.5 564.5q-18.5 6.5 -41.5 18.5q-21 10 -32 14t-23 4q-16 0 -24.5 -10.5t-8.5 -28.5h-68q0 50 23.5 76.5t66.5 26.5q20 0 36.5 -6t42.5 -18q20 -10 32 -14.5t25 -4.5q16 0 24.5 10.5t8.5 28.5h68q0 -50 -23 -76.5t-66 -26.5q-22 0 -40.5 6.5z
" />
    <glyph glyph-name="Imacron" unicode="&#x12a;" horiz-adv-x="276" 
d="M184 0h-91v700h91v-700zM276 808h-277v65h277v-65z" />
    <glyph glyph-name="imacron" unicode="&#x12b;" horiz-adv-x="239" 
d="M163 0h-87v470h87v-470zM258 578h-277v65h277v-65z" />
    <glyph glyph-name="Ibreve" unicode="&#x12c;" horiz-adv-x="276" 
d="M184 0h-91v700h91v-700zM36 813q-39 34 -41 93h71q3 -31 22.5 -49t50.5 -18t50.5 18t22.5 49h71q-2 -59 -41 -93t-103 -34t-103 34z" />
    <glyph glyph-name="ibreve" unicode="&#x12d;" horiz-adv-x="239" 
d="M163 0h-87v470h87v-470zM17 583q-39 34 -41 93h71q3 -31 22.5 -49t50.5 -18t50.5 18t22.5 49h71q-2 -59 -41 -93t-103 -34t-103 34z" />
    <glyph glyph-name="Iogonek" unicode="&#x12e;" horiz-adv-x="276" 
d="M187 -148v-60q-16 -4 -38 -4q-53 0 -84.5 27t-31.5 71q0 35 23.5 64.5t61.5 49.5h-25v700h91v-700q-40 -17 -61.5 -42t-21.5 -53q0 -26 17 -40.5t46 -14.5q7 0 23 2z" />
    <glyph glyph-name="iogonek" unicode="&#x12f;" horiz-adv-x="239" 
d="M72 556v112h96v-112h-96zM97 -135.5q17 -14.5 47 -14.5q6 0 22 2v-60q-15 -4 -38 -4q-53 0 -84.5 27t-31.5 71q0 35 23.5 64.5t61.5 49.5h-21v470h87v-470q-40 -17 -61.5 -42t-21.5 -53q0 -26 17 -40.5z" />
    <glyph glyph-name="Idotaccent" unicode="&#x130;" horiz-adv-x="276" 
d="M184 0h-91v700h91v-700zM186 786h-96v112h96v-112z" />
    <glyph glyph-name="dotlessi" unicode="&#x131;" horiz-adv-x="239" 
d="M163 0h-87v470h87v-470z" />
    <glyph glyph-name="IJ" unicode="&#x132;" horiz-adv-x="805" 
d="M184 0h-91v700h91v-700zM358 46.5q-54 58.5 -54 162.5h90q2 -67 31.5 -104.5t85.5 -37.5t85.5 38t29.5 109v486h91v-486q0 -108 -55 -167t-151 -59q-99 0 -153 58.5z" />
    <glyph glyph-name="ij" unicode="&#x133;" horiz-adv-x="479" 
d="M163 0h-87v470h87v-470zM168 556h-96v112h96v-112zM231 -200v74h31q26 0 39.5 12.5t13.5 42.5v541h87v-554q0 -57 -28.5 -86.5t-88.5 -29.5h-54zM407 556h-96v112h96v-112z" />
    <glyph glyph-name="Jcircumflex" unicode="&#x134;" horiz-adv-x="528" 
d="M82 46.5q-54 58.5 -54 162.5h90q2 -67 31.5 -104.5t85.5 -37.5t85.5 38t29.5 109v486h91v-486q0 -108 -55 -167t-151 -59q-99 0 -153 58.5zM238 780l107 123h101l107 -123h-86l-26 28q-24 26 -45 54q-21 -26 -45 -54l-27 -28h-86z" />
    <glyph glyph-name="jcircumflex" unicode="&#x135;" horiz-adv-x="239" 
d="M-8 -200v74h31q26 0 39.5 12.5t13.5 42.5v541h87v-554q0 -57 -28.5 -86.5t-88.5 -29.5h-54zM-38 550l107 123h101l107 -123h-86l-26 28q-24 26 -45 54q-21 -26 -45 -54l-27 -28h-86z" />
    <glyph glyph-name="uni0136" unicode="&#x136;" horiz-adv-x="653" 
d="M656 0h-117l-282 353l-73 -71v-282h-91v700h91v-316l329 316h120l-306 -291zM291 -77h90v-110q0 -47 -24 -74.5t-70 -30.5v42q26 5 37 20t11 43v6h-44v104z" />
    <glyph glyph-name="uni0137" unicode="&#x137;" horiz-adv-x="497" 
d="M491 0h-107l-174 221l-47 -45v-176h-87v700h87v-432l205 202h112l-205 -194zM212 -77h90v-110q0 -47 -24 -74.5t-70 -30.5v42q26 5 37 20t11 43v6h-44v104z" />
    <glyph glyph-name="kgreenlandic" unicode="&#x138;" horiz-adv-x="497" 
d="M490 0h-106l-174 221l-47 -45v-176h-87v470h87v-202l205 202h112l-205 -194z" />
    <glyph glyph-name="Lacute" unicode="&#x139;" horiz-adv-x="546" 
d="M184 700v-618l331 -1v-82l-422 1v700h91zM173 779h-72l63 126h99z" />
    <glyph glyph-name="lacute" unicode="&#x13a;" horiz-adv-x="239" 
d="M163 0h-87v700h87v-700zM154 779h-72l63 126h99z" />
    <glyph glyph-name="uni013B" unicode="&#x13b;" horiz-adv-x="546" 
d="M184 700v-618l331 -1v-82l-422 1v700h91zM263 -77h90v-110q0 -47 -24 -74.5t-70 -30.5v42q26 5 37 20t11 43v6h-44v104z" />
    <glyph glyph-name="uni013C" unicode="&#x13c;" horiz-adv-x="239" 
d="M163 0h-87v700h87v-700zM75 -77h90v-110q0 -47 -24 -74.5t-70 -30.5v42q26 5 37 20t11 43v6h-44v104z" />
    <glyph glyph-name="Lcaron" unicode="&#x13d;" horiz-adv-x="549" 
d="M184 700v-618l331 -1v-82l-422 1v700h91zM319 700h90v-110q0 -47 -24 -74.5t-70 -30.5v42q26 5 37 20t11 43v5h-44v105z" />
    <glyph glyph-name="lcaron" unicode="&#x13e;" horiz-adv-x="256" 
d="M163 0h-87v700h87v-700zM240 700h90v-110q0 -47 -24 -74.5t-70 -30.5v42q26 5 37 20t11 43v5h-44v105z" />
    <glyph glyph-name="Ldot" unicode="&#x13f;" horiz-adv-x="543" 
d="M184 700v-618l331 -1v-82l-422 1v700h91zM363 430h100v-116h-100v116z" />
    <glyph glyph-name="ldot" unicode="&#x140;" horiz-adv-x="344" 
d="M163 0h-87v700h87v-700zM343 289h-103v119h103v-119z" />
    <glyph glyph-name="Lslash" unicode="&#x141;" horiz-adv-x="588" 
d="M223 303v-221l332 -1v-82l-423 1v251l-92 -52v81l92 52v368h91v-316l211 120v-81z" />
    <glyph glyph-name="lslash" unicode="&#x142;" horiz-adv-x="338" 
d="M214 375l95 55v-76l-95 -54v-300h-87v251l-96 -55v74l96 55v375h87v-325z" />
    <glyph glyph-name="Nacute" unicode="&#x143;" horiz-adv-x="747" 
d="M93 0v700h126l351 -586q-2 80 -2 116v470h86v-700h-114l-364 607q3 -67 3 -130v-477h-86zM408 779h-72l63 126h99z" />
    <glyph glyph-name="nacute" unicode="&#x144;" horiz-adv-x="548" 
d="M431 430q47 -52 47 -139v-291h-87v277q0 61 -29 96t-80 35q-54 0 -86.5 -40t-32.5 -106v-262h-87v470h84v-81q21 46 58.5 69.5t89.5 23.5q76 0 123 -52zM310 549h-72l63 126h99z" />
    <glyph glyph-name="uni0145" unicode="&#x145;" horiz-adv-x="747" 
d="M93 0v700h126l351 -586q-2 80 -2 116v470h86v-700h-114l-364 607q3 -67 3 -130v-477h-86zM329 -77h90v-110q0 -47 -24 -74.5t-70 -30.5v42q26 5 37 20t11 43v6h-44v104z" />
    <glyph glyph-name="uni0146" unicode="&#x146;" horiz-adv-x="548" 
d="M431 430q47 -52 47 -139v-291h-87v277q0 61 -29 96t-80 35q-54 0 -86.5 -40t-32.5 -106v-262h-87v470h84v-81q21 46 58.5 69.5t89.5 23.5q76 0 123 -52zM230 -77h90v-110q0 -47 -24 -74.5t-70 -30.5v42q26 5 37 20t11 43v6h-44v104z" />
    <glyph glyph-name="Ncaron" unicode="&#x147;" horiz-adv-x="747" 
d="M93 0v700h126l351 -586q-2 80 -2 116v470h86v-700h-114l-364 607q3 -67 3 -130v-477h-86zM323 780l-107 123h86l27 -28q24 -28 45 -54q21 28 45 54l26 28h86l-107 -123h-101z" />
    <glyph glyph-name="ncaron" unicode="&#x148;" horiz-adv-x="548" 
d="M431 430q47 -52 47 -139v-291h-87v277q0 61 -29 96t-80 35q-54 0 -86.5 -40t-32.5 -106v-262h-87v470h84v-81q21 46 58.5 69.5t89.5 23.5q76 0 123 -52zM225 550l-107 123h86l27 -28q24 -28 45 -54q21 28 45 54l26 28h86l-107 -123h-101z" />
    <glyph glyph-name="Eng" unicode="&#x14a;" horiz-adv-x="747" 
d="M437 -200v79h64q35 0 51 16t16 51v64l-391 594q2 -37 2 -96v-508h-86v700h121l356 -540q-2 38 -2 96v444h86v-773q0 -67 -31.5 -97t-103.5 -30h-82z" />
    <glyph glyph-name="eng" unicode="&#x14b;" horiz-adv-x="548" 
d="M431 430q47 -52 47 -139v-375q0 -116 -118 -116h-54v74h32q25 0 39 12.5t14 42.5v348q0 61 -29 96t-80 35q-54 0 -86.5 -40t-32.5 -106v-262h-87v470h84v-82q22 46 59.5 70t88.5 24q76 0 123 -52z" />
    <glyph glyph-name="Omacron" unicode="&#x14c;" horiz-adv-x="791" 
d="M216.5 33.5q-78.5 45.5 -122.5 128t-44 188.5t45 188.5t123.5 128t176.5 45.5q100 0 178.5 -45.5t122.5 -128t44 -188.5t-44 -188.5t-122.5 -128t-178.5 -45.5t-178.5 45.5zM525 105q57 36 88.5 100t31.5 145t-31.5 145t-88.5 100t-130 36q-72 0 -128.5 -36t-88.5 -99.5
t-32 -145.5t32 -145.5t88.5 -99.5t128.5 -36q73 0 130 36zM534 808h-277v65h277v-65z" />
    <glyph glyph-name="omacron" unicode="&#x14d;" horiz-adv-x="560" 
d="M157 19.5q-54 31.5 -83.5 88t-29.5 127.5q0 72 30 128t83.5 87.5t122.5 31.5q70 0 123.5 -31.5t83 -87.5t29.5 -128t-29.5 -128t-83 -87.5t-123.5 -31.5q-69 0 -123 31.5zM385 108.5q40 47.5 40 126.5q0 78 -40 125.5t-105 47.5t-105 -47.5t-40 -125.5t40 -126t105 -48
t105 47.5zM418 578h-277v65h277v-65z" />
    <glyph glyph-name="Obreve" unicode="&#x14e;" horiz-adv-x="791" 
d="M216.5 33.5q-78.5 45.5 -122.5 128t-44 188.5t45 188.5t123.5 128t176.5 45.5q100 0 178.5 -45.5t122.5 -128t44 -188.5t-44 -188.5t-122.5 -128t-178.5 -45.5t-178.5 45.5zM525 105q57 36 88.5 100t31.5 145t-31.5 145t-88.5 100t-130 36q-72 0 -128.5 -36t-88.5 -99.5
t-32 -145.5t32 -145.5t88.5 -99.5t128.5 -36q73 0 130 36zM293 813q-39 34 -41 93h71q3 -31 22.5 -49t50.5 -18t50.5 18t22.5 49h71q-2 -59 -41 -93t-103 -34t-103 34z" />
    <glyph glyph-name="obreve" unicode="&#x14f;" horiz-adv-x="560" 
d="M157 19.5q-54 31.5 -83.5 88t-29.5 127.5q0 72 30 128t83.5 87.5t122.5 31.5q70 0 123.5 -31.5t83 -87.5t29.5 -128t-29.5 -128t-83 -87.5t-123.5 -31.5q-69 0 -123 31.5zM385 108.5q40 47.5 40 126.5q0 78 -40 125.5t-105 47.5t-105 -47.5t-40 -125.5t40 -126t105 -48
t105 47.5zM177 583q-39 34 -41 93h71q3 -31 22.5 -49t50.5 -18t50.5 18t22.5 49h71q-2 -59 -41 -93t-103 -34t-103 34z" />
    <glyph glyph-name="Ohungarumlaut" unicode="&#x150;" horiz-adv-x="791" 
d="M216.5 33.5q-78.5 45.5 -122.5 128t-44 188.5t45 188.5t123.5 128t176.5 45.5q100 0 178.5 -45.5t122.5 -128t44 -188.5t-44 -188.5t-122.5 -128t-178.5 -45.5t-178.5 45.5zM525 105q57 36 88.5 100t31.5 145t-31.5 145t-88.5 100t-130 36q-72 0 -128.5 -36t-88.5 -99.5
t-32 -145.5t32 -145.5t88.5 -99.5t128.5 -36q73 0 130 36zM345 779h-65l64 126h87zM510 779h-66l64 126h88z" />
    <glyph glyph-name="ohungarumlaut" unicode="&#x151;" horiz-adv-x="560" 
d="M157 19.5q-54 31.5 -83.5 88t-29.5 127.5q0 72 30 128t83.5 87.5t122.5 31.5q70 0 123.5 -31.5t83 -87.5t29.5 -128t-29.5 -128t-83 -87.5t-123.5 -31.5q-69 0 -123 31.5zM385 108.5q40 47.5 40 126.5q0 78 -40 125.5t-105 47.5t-105 -47.5t-40 -125.5t40 -126t105 -48
t105 47.5zM230 549h-65l64 126h87zM395 549h-66l64 126h88z" />
    <glyph glyph-name="OE" unicode="&#x152;" horiz-adv-x="1147" 
d="M217 33.5q-78 45.5 -122.5 127.5t-44.5 187t44.5 188t123 129.5t175.5 46.5q81 0 146 -34.5t106 -102.5v125h447v-81h-356v-212h312v-82h-312v-244h360v-81h-451v124q-41 -68 -106 -102t-146 -34q-98 0 -176 45.5zM525 105q57 36 88.5 100t31.5 145t-31.5 145t-88.5 100
t-130 36t-129.5 -36t-88 -99.5t-31.5 -145.5t31.5 -145.5t88 -99.5t129.5 -36t130 36z" />
    <glyph glyph-name="oe" unicode="&#x153;" horiz-adv-x="917" 
d="M157 19.5q-54 31.5 -83.5 88t-29.5 127.5q0 72 30 128t83.5 87.5t122.5 31.5q62 0 111 -26.5t80 -74.5q29 49 77 75t107 26q101 0 159 -64t58 -174v-30h-357q1 -70 39 -111.5t101 -41.5q45 0 78 21.5t46 58.5h88q-15 -68 -74 -110.5t-138 -42.5q-61 0 -108.5 25.5
t-76.5 74.5q-31 -48 -80 -74t-110 -26q-69 0 -123 31.5zM786 281q-1 61 -38.5 96t-90.5 35q-54 0 -94.5 -34t-46.5 -97h270zM385 108.5q40 47.5 40 126.5q0 78 -40 125.5t-105 47.5t-105 -47.5t-40 -125.5t40 -126t105 -48t105 47.5z" />
    <glyph glyph-name="Racute" unicode="&#x154;" horiz-adv-x="654" 
d="M567 119q0 -37 3.5 -64.5t12.5 -54.5h-93q-8 22 -10 47t-2 74v77q0 61 -24.5 86t-91.5 25h-178v-309h-91v700h270q105 0 165 -51.5t60 -138.5q0 -61 -34 -102.5t-98 -55.5q57 -8 84 -43t27 -102v-88zM349 389q67 0 105.5 31t38.5 84q0 54 -38.5 85t-105.5 31h-165v-231
h165zM350 779h-72l63 126h99z" />
    <glyph glyph-name="racute" unicode="&#x155;" horiz-adv-x="349" 
d="M158 378q17 53 55 78t89 25q16 0 24 -1v-83l-20 1q-75 0 -109 -39t-34 -122v-237h-87v470h82v-92zM237 549h-72l63 126h99z" />
    <glyph glyph-name="uni0156" unicode="&#x156;" horiz-adv-x="654" 
d="M567 119q0 -37 3.5 -64.5t12.5 -54.5h-93q-8 22 -10 47t-2 74v77q0 61 -24.5 86t-91.5 25h-178v-309h-91v700h270q105 0 165 -51.5t60 -138.5q0 -61 -34 -102.5t-98 -55.5q57 -8 84 -43t27 -102v-88zM349 389q67 0 105.5 31t38.5 84q0 54 -38.5 85t-105.5 31h-165v-231
h165zM286 -77h90v-110q0 -47 -24 -74.5t-70 -30.5v42q26 5 37 20t11 43v6h-44v104z" />
    <glyph glyph-name="uni0157" unicode="&#x157;" horiz-adv-x="349" 
d="M158 378q17 53 55 78t89 25q16 0 24 -1v-83l-20 1q-75 0 -109 -39t-34 -122v-237h-87v470h82v-92zM75 -77h90v-110q0 -47 -24 -74.5t-70 -30.5v42q26 5 37 20t11 43v6h-44v104z" />
    <glyph glyph-name="Rcaron" unicode="&#x158;" horiz-adv-x="654" 
d="M567 119q0 -37 3.5 -64.5t12.5 -54.5h-93q-8 22 -10 47t-2 74v77q0 61 -24.5 86t-91.5 25h-178v-309h-91v700h270q105 0 165 -51.5t60 -138.5q0 -61 -34 -102.5t-98 -55.5q57 -8 84 -43t27 -102v-88zM349 389q67 0 105.5 31t38.5 84q0 54 -38.5 85t-105.5 31h-165v-231
h165zM265 780l-107 123h86l27 -28q24 -28 45 -54q21 28 45 54l26 28h86l-107 -123h-101z" />
    <glyph glyph-name="rcaron" unicode="&#x159;" horiz-adv-x="349" 
d="M158 378q17 53 55 78t89 25q16 0 24 -1v-83l-20 1q-75 0 -109 -39t-34 -122v-237h-87v470h82v-92zM152 550l-107 123h86l27 -28q24 -28 45 -54q21 28 45 54l26 28h86l-107 -123h-101z" />
    <glyph glyph-name="Sacute" unicode="&#x15a;" horiz-adv-x="628" 
d="M122 46q-72 58 -80 166h95q9 -69 56.5 -106.5t126.5 -37.5q72 0 117.5 34.5t45.5 90.5q0 45 -31 72t-95 41l-105 23q-94 20 -142 67.5t-48 120.5q0 56 32.5 100.5t88.5 69.5t124 25q113 0 184 -54.5t80 -149.5h-94q-8 59 -53.5 92.5t-115.5 33.5q-65 0 -108 -32.5
t-43 -81.5q0 -43 29 -68.5t90 -38.5l108 -23q194 -42 194 -194q0 -61 -33 -108.5t-92 -73.5t-134 -26q-125 0 -197 58zM346 779h-72l63 126h99z" />
    <glyph glyph-name="sacute" unicode="&#x15b;" horiz-adv-x="473" 
d="M98 31q-54 43 -59 114h87q5 -41 36.5 -64.5t80.5 -23.5q44 0 71 21t27 54q0 28 -19.5 44t-60.5 24l-72 13q-136 25 -136 133q0 39 23 70t64 48.5t93 17.5q81 0 131.5 -37.5t57.5 -102.5h-85q-7 34 -35 53t-69 19t-67 -18.5t-26 -47.5q0 -49 67 -61l80 -15
q70 -13 107 -47.5t37 -88.5q0 -43 -23.5 -76.5t-66.5 -52.5t-98 -19q-91 0 -145 43zM269 549h-72l63 126h99z" />
    <glyph glyph-name="Scircumflex" unicode="&#x15c;" horiz-adv-x="628" 
d="M122 46q-72 58 -80 166h95q9 -69 56.5 -106.5t126.5 -37.5q72 0 117.5 34.5t45.5 90.5q0 45 -31 72t-95 41l-105 23q-94 20 -142 67.5t-48 120.5q0 56 32.5 100.5t88.5 69.5t124 25q113 0 184 -54.5t80 -149.5h-94q-8 59 -53.5 92.5t-115.5 33.5q-65 0 -108 -32.5
t-43 -81.5q0 -43 29 -68.5t90 -38.5l108 -23q194 -42 194 -194q0 -61 -33 -108.5t-92 -73.5t-134 -26q-125 0 -197 58zM155 780l107 123h101l107 -123h-86l-26 28q-24 26 -45 54q-21 -26 -45 -54l-27 -28h-86z" />
    <glyph glyph-name="scircumflex" unicode="&#x15d;" horiz-adv-x="473" 
d="M98 31q-54 43 -59 114h87q5 -41 36.5 -64.5t80.5 -23.5q44 0 71 21t27 54q0 28 -19.5 44t-60.5 24l-72 13q-136 25 -136 133q0 39 23 70t64 48.5t93 17.5q81 0 131.5 -37.5t57.5 -102.5h-85q-7 34 -35 53t-69 19t-67 -18.5t-26 -47.5q0 -49 67 -61l80 -15
q70 -13 107 -47.5t37 -88.5q0 -43 -23.5 -76.5t-66.5 -52.5t-98 -19q-91 0 -145 43zM77 550l107 123h101l107 -123h-86l-26 28q-24 26 -45 54q-21 -26 -45 -54l-27 -28h-86z" />
    <glyph glyph-name="Scedilla" unicode="&#x15e;" horiz-adv-x="628" 
d="M547 90.5q-31 -46.5 -86.5 -73.5t-127.5 -29l-30 -32q43 4 73.5 -17t30.5 -62q0 -40 -31 -64.5t-79 -24.5q-34 0 -62.5 10.5t-48.5 27.5l32 45q39 -29 79 -29q23 0 35.5 10t12.5 28q0 16 -13 24.5t-33 8.5t-40 -9l-31 28l52 58q-108 8 -169 65.5t-69 156.5h95
q9 -69 56.5 -106.5t126.5 -37.5q72 0 117.5 34.5t45.5 90.5q0 45 -31 72t-95 41l-105 23q-94 20 -142 67.5t-48 120.5q0 56 32.5 100.5t88.5 69.5t124 25q113 0 184 -54.5t80 -149.5h-94q-8 59 -53.5 92.5t-115.5 33.5q-65 0 -108 -32.5t-43 -81.5q0 -43 29 -68.5t90 -38.5
l108 -23q194 -42 194 -194q0 -59 -31 -105.5z" />
    <glyph glyph-name="scedilla" unicode="&#x15f;" horiz-adv-x="473" 
d="M383 33q-48 -41 -126 -45l-33 -35q5 1 15 1q39 0 64.5 -21t25.5 -59q0 -39 -30.5 -63.5t-78.5 -24.5q-67 0 -112 38l32 45q37 -29 79 -29q23 0 35.5 10t12.5 27q0 16 -13 25t-33 9t-40 -9l-30 27l53 61q-74 9 -117.5 50.5t-47.5 104.5h87q5 -41 36.5 -64.5t80.5 -23.5
q44 0 71 21t27 54q0 28 -19.5 44t-60.5 24l-72 13q-136 25 -136 133q0 39 23 70t64 48.5t93 17.5q81 0 131.5 -37.5t57.5 -102.5h-85q-7 34 -35 53t-69 19t-67 -18.5t-26 -47.5q0 -49 67 -61l80 -15q70 -13 107 -47.5t37 -88.5q0 -62 -48 -103z" />
    <glyph glyph-name="Scaron" unicode="&#x160;" horiz-adv-x="628" 
d="M122 46q-72 58 -80 166h95q9 -69 56.5 -106.5t126.5 -37.5q72 0 117.5 34.5t45.5 90.5q0 45 -31 72t-95 41l-105 23q-94 20 -142 67.5t-48 120.5q0 56 32.5 100.5t88.5 69.5t124 25q113 0 184 -54.5t80 -149.5h-94q-8 59 -53.5 92.5t-115.5 33.5q-65 0 -108 -32.5
t-43 -81.5q0 -43 29 -68.5t90 -38.5l108 -23q194 -42 194 -194q0 -61 -33 -108.5t-92 -73.5t-134 -26q-125 0 -197 58zM262 780l-107 123h86l27 -28q24 -28 45 -54q21 28 45 54l26 28h86l-107 -123h-101z" />
    <glyph glyph-name="scaron" unicode="&#x161;" horiz-adv-x="473" 
d="M98 31q-54 43 -59 114h87q5 -41 36.5 -64.5t80.5 -23.5q44 0 71 21t27 54q0 28 -19.5 44t-60.5 24l-72 13q-136 25 -136 133q0 39 23 70t64 48.5t93 17.5q81 0 131.5 -37.5t57.5 -102.5h-85q-7 34 -35 53t-69 19t-67 -18.5t-26 -47.5q0 -49 67 -61l80 -15
q70 -13 107 -47.5t37 -88.5q0 -43 -23.5 -76.5t-66.5 -52.5t-98 -19q-91 0 -145 43zM184 550l-107 123h86l27 -28q24 -28 45 -54q21 28 45 54l26 28h86l-107 -123h-101z" />
    <glyph glyph-name="uni0162" unicode="&#x162;" horiz-adv-x="585" 
d="M338 0h-19l-42 -45q5 1 15 1q39 0 64.5 -21t25.5 -59q0 -39 -30.5 -63.5t-78.5 -24.5q-67 0 -112 38l32 45q37 -29 79 -29q23 0 35.5 10t12.5 27q0 16 -13.5 25t-33.5 9q-21 0 -39 -9l-30 27l60 69h-17v618h-220v82h531v-82h-220v-618z" />
    <glyph glyph-name="uni0163" unicode="&#x163;" horiz-adv-x="343" 
d="M305 399h-119v-266q0 -29 14.5 -44t49.5 -15h55v-74h-76h-4v0l-41 -44q43 4 73.5 -17t30.5 -62q0 -40 -30.5 -64.5t-78.5 -24.5q-67 0 -112 38l32 45q41 -29 79 -29q23 0 35.5 10t12.5 28q0 16 -13 24.5t-33 8.5t-40 -9l-30 28l66 74q-77 20 -77 116v277h-71v71h71v167
h87v-167h119v-71z" />
    <glyph glyph-name="Tcaron" unicode="&#x164;" horiz-adv-x="585" 
d="M27 700h531v-82h-220v-618h-91v618h-220v82zM242 780l-107 123h86l27 -28q24 -28 45 -54q21 28 45 54l26 28h86l-107 -123h-101z" />
    <glyph glyph-name="tcaron" unicode="&#x165;" horiz-adv-x="343" 
d="M305 399h-119v-266q0 -29 14.5 -44t49.5 -15h55v-74h-76q-64 0 -97 29t-33 93v277h-71v71h71v167h87v-167h119v-71zM255 752h90v-110q0 -47 -24 -74.5t-70 -30.5v42q26 5 37 20t11 43v5h-44v105z" />
    <glyph glyph-name="Tbar" unicode="&#x166;" horiz-adv-x="606" 
d="M569 700v-82h-220v-233h169v-70h-169v-315h-91v315h-168v70h168v233h-220v82h531z" />
    <glyph glyph-name="tbar" unicode="&#x167;" horiz-adv-x="349" 
d="M310 399h-119v-116h119v-60h-119v-90q0 -29 14.5 -44t49.5 -15h55v-74h-77q-63 0 -96 29t-33 93v101h-71v60h71v116h-71v71h71v167h87v-167h119v-71z" />
    <glyph glyph-name="Utilde" unicode="&#x168;" horiz-adv-x="728" 
d="M160.5 62q-74.5 74 -74.5 206v432h91v-430q0 -95 50 -148t137 -53q86 0 136.5 53t50.5 148v430h92v-430q0 -88 -34.5 -151.5t-97.5 -97t-147 -33.5q-129 0 -203.5 74zM397.5 794.5q-18.5 6.5 -41.5 18.5q-21 10 -32 14t-23 4q-16 0 -24.5 -10.5t-8.5 -28.5h-68
q0 50 23.5 76.5t66.5 26.5q20 0 36.5 -6t42.5 -18q20 -10 32 -14.5t25 -4.5q16 0 24.5 10.5t8.5 28.5h68q0 -50 -23 -76.5t-66 -26.5q-22 0 -40.5 6.5z" />
    <glyph glyph-name="utilde" unicode="&#x169;" horiz-adv-x="548" 
d="M385 470h87v-470h-84v81q-21 -46 -58.5 -69.5t-89.5 -23.5q-76 0 -122.5 51.5t-46.5 138.5v292h86v-277q0 -62 29 -97t80 -35q54 0 86.5 40t32.5 106v263zM306.5 564.5q-18.5 6.5 -41.5 18.5q-21 10 -32 14t-23 4q-16 0 -24.5 -10.5t-8.5 -28.5h-68q0 50 23.5 76.5
t66.5 26.5q20 0 36.5 -6t42.5 -18q20 -10 32 -14.5t25 -4.5q16 0 24.5 10.5t8.5 28.5h68q0 -50 -23 -76.5t-66 -26.5q-22 0 -40.5 6.5z" />
    <glyph glyph-name="Umacron" unicode="&#x16a;" horiz-adv-x="728" 
d="M160.5 62q-74.5 74 -74.5 206v432h91v-430q0 -95 50 -148t137 -53q86 0 136.5 53t50.5 148v430h92v-430q0 -88 -34.5 -151.5t-97.5 -97t-147 -33.5q-129 0 -203.5 74zM502 808h-277v65h277v-65z" />
    <glyph glyph-name="umacron" unicode="&#x16b;" horiz-adv-x="548" 
d="M385 470h87v-470h-84v81q-21 -46 -58.5 -69.5t-89.5 -23.5q-76 0 -122.5 51.5t-46.5 138.5v292h86v-277q0 -62 29 -97t80 -35q54 0 86.5 40t32.5 106v263zM411 578h-277v65h277v-65z" />
    <glyph glyph-name="Ubreve" unicode="&#x16c;" horiz-adv-x="728" 
d="M160.5 62q-74.5 74 -74.5 206v432h91v-430q0 -95 50 -148t137 -53q86 0 136.5 53t50.5 148v430h92v-430q0 -88 -34.5 -151.5t-97.5 -97t-147 -33.5q-129 0 -203.5 74zM261 813q-39 34 -41 93h71q3 -31 22.5 -49t50.5 -18t50.5 18t22.5 49h71q-2 -59 -41 -93t-103 -34
t-103 34z" />
    <glyph glyph-name="ubreve" unicode="&#x16d;" horiz-adv-x="548" 
d="M385 470h87v-470h-84v81q-21 -46 -58.5 -69.5t-89.5 -23.5q-76 0 -122.5 51.5t-46.5 138.5v292h86v-277q0 -62 29 -97t80 -35q54 0 86.5 40t32.5 106v263zM170 583q-39 34 -41 93h71q3 -31 22.5 -49t50.5 -18t50.5 18t22.5 49h71q-2 -59 -41 -93t-103 -34t-103 34z" />
    <glyph glyph-name="Uring" unicode="&#x16e;" horiz-adv-x="728" 
d="M160.5 62q-74.5 74 -74.5 206v432h91v-430q0 -95 50 -148t137 -53q86 0 136.5 53t50.5 148v430h92v-430q0 -88 -34.5 -151.5t-97.5 -97t-147 -33.5q-129 0 -203.5 74zM282 790.5q-32 28.5 -32 74.5t32 74.5t82 28.5q49 0 81 -29t32 -74t-32 -74t-81 -29q-50 0 -82 28.5z
M399.5 829q14.5 14 14.5 36t-14.5 36t-35.5 14q-22 0 -36.5 -14t-14.5 -36t14.5 -36t36.5 -14q21 0 35.5 14z" />
    <glyph glyph-name="uring" unicode="&#x16f;" horiz-adv-x="548" 
d="M385 470h87v-470h-84v81q-21 -46 -58.5 -69.5t-89.5 -23.5q-76 0 -122.5 51.5t-46.5 138.5v292h86v-277q0 -62 29 -97t80 -35q54 0 86.5 40t32.5 106v263zM191 559.5q-32 28.5 -32 74.5t32 74.5t82 28.5q49 0 81 -29t32 -74t-32 -74t-81 -29q-50 0 -82 28.5zM308.5 598
q14.5 14 14.5 36t-14.5 36t-35.5 14q-22 0 -36.5 -14t-14.5 -36t14.5 -36t36.5 -14q21 0 35.5 14z" />
    <glyph glyph-name="Uhungarumlaut" unicode="&#x170;" horiz-adv-x="728" 
d="M160.5 62q-74.5 74 -74.5 206v432h91v-430q0 -95 50 -148t137 -53q86 0 136.5 53t50.5 148v430h92v-430q0 -88 -34.5 -151.5t-97.5 -97t-147 -33.5q-129 0 -203.5 74zM314 779h-65l64 126h87zM479 779h-66l64 126h88z" />
    <glyph glyph-name="uhungarumlaut" unicode="&#x171;" horiz-adv-x="548" 
d="M385 470h87v-470h-84v81q-21 -46 -58.5 -69.5t-89.5 -23.5q-76 0 -122.5 51.5t-46.5 138.5v292h86v-277q0 -62 29 -97t80 -35q54 0 86.5 40t32.5 106v263zM223 549h-65l64 126h87zM388 549h-66l64 126h88z" />
    <glyph glyph-name="Uogonek" unicode="&#x172;" horiz-adv-x="728" 
d="M551 700h92v-430q0 -103 -46.5 -170.5t-138.5 -105.5q-39 -17 -59.5 -39.5t-20.5 -49.5q0 -26 17 -40.5t46 -14.5q7 0 23 2v-60q-16 -4 -38 -4q-53 0 -84.5 27t-31.5 71q0 30 17.5 57t47.5 45h-10q-129 0 -204 74t-75 206v432h91v-430q0 -95 50 -148t137 -53
q86 0 136.5 53t50.5 148v430z" />
    <glyph glyph-name="uogonek" unicode="&#x173;" horiz-adv-x="548" 
d="M475 -148v-60q-16 -4 -38 -4q-53 0 -85 27t-32 71q0 35 23.5 64.5t62.5 49.5h-18v81q-21 -46 -58.5 -69.5t-89.5 -23.5q-76 0 -122.5 51.5t-46.5 138.5v292h86v-277q0 -62 29 -97t80 -35q54 0 86.5 40t32.5 106v263h87v-470q-41 -17 -62 -42t-21 -53q0 -26 16.5 -40.5
t46.5 -14.5q5 0 23 2z" />
    <glyph glyph-name="Wcircumflex" unicode="&#x174;" horiz-adv-x="963" 
d="M212 0l-184 700h94l120 -482q13 -46 28 -122q16 71 30 121l132 483h104l132 -483q14 -50 30 -121l28 122l121 482h88l-184 -700h-110l-136 498q-3 14 -11 42l-13 55q-11 -49 -24 -97l-136 -498h-109zM325 780l107 123h101l107 -123h-86l-26 28q-24 26 -45 54
q-21 -26 -45 -54l-27 -28h-86z" />
    <glyph glyph-name="wcircumflex" unicode="&#x175;" horiz-adv-x="722" 
d="M161 0l-133 470h89l76 -295q16 -70 19 -89l16 63q2 6 7 26l82 295h94l83 -295l22 -89q4 19 19 89l76 295h83l-133 -470h-95l-86 304q-11 43 -19 78q-8 -35 -19 -78l-86 -304h-95zM202 550l107 123h101l107 -123h-86l-26 28q-24 26 -45 54q-21 -26 -45 -54l-27 -28h-86z
" />
    <glyph glyph-name="Ycircumflex" unicode="&#x176;" horiz-adv-x="660" 
d="M642 700l-266 -416v-284h-91v283l-267 417h106l163 -261q28 -45 46 -76q30 52 45 76l163 261h101zM174 780l107 123h101l107 -123h-86l-26 28q-24 26 -45 54q-21 -26 -45 -54l-27 -28h-86z" />
    <glyph glyph-name="ycircumflex" unicode="&#x177;" horiz-adv-x="491" 
d="M59 -200v74h30q35 0 57 15t34 48l26 67l-191 466h96l103 -272q26 -67 36 -100q9 30 34 100l96 272h89l-212 -562q-22 -56 -59 -82t-96 -26h-43zM93 550l107 123h101l107 -123h-86l-26 28q-24 26 -45 54q-21 -26 -45 -54l-27 -28h-86z" />
    <glyph glyph-name="Ydieresis" unicode="&#x178;" horiz-adv-x="660" 
d="M642 700l-266 -416v-284h-91v283l-267 417h106l163 -261q28 -45 46 -76q30 52 45 76l163 261h101zM281 790h-88v103h88v-103zM470 790h-87v103h87v-103z" />
    <glyph glyph-name="Zacute" unicode="&#x179;" horiz-adv-x="620" 
d="M571 621l-422 -540h433v-81h-542v78l423 541h-415v81h523v-79zM345 779h-72l63 126h99z" />
    <glyph glyph-name="zacute" unicode="&#x17a;" horiz-adv-x="464" 
d="M414 400l-269 -329h278v-71h-380v68l271 330h-268v72h368v-70zM267 549h-72l63 126h99z" />
    <glyph glyph-name="Zdotaccent" unicode="&#x17b;" horiz-adv-x="620" 
d="M571 621l-422 -540h433v-81h-542v78l423 541h-415v81h523v-79zM359 786h-96v112h96v-112z" />
    <glyph glyph-name="zdotaccent" unicode="&#x17c;" horiz-adv-x="464" 
d="M414 400l-269 -329h278v-71h-380v68l271 330h-268v72h368v-70zM281 556h-96v112h96v-112z" />
    <glyph glyph-name="Zcaron" unicode="&#x17d;" horiz-adv-x="620" 
d="M571 621l-422 -540h433v-81h-542v78l423 541h-415v81h523v-79zM260 780l-107 123h86l27 -28q24 -28 45 -54q21 28 45 54l26 28h86l-107 -123h-101z" />
    <glyph glyph-name="zcaron" unicode="&#x17e;" horiz-adv-x="464" 
d="M414 400l-269 -329h278v-71h-380v68l271 330h-268v72h368v-70zM183 550l-107 123h86l27 -28q24 -28 45 -54q21 28 45 54l26 28h86l-107 -123h-101z" />
    <glyph glyph-name="florin" unicode="&#x192;" horiz-adv-x="449" 
d="M377 627q-35 0 -53 -16t-23 -52l-20 -136h133v-70h-143l-49 -343q-9 -66 -44.5 -96t-105.5 -30h-49v73h41q34 0 52 16t23 52l48 328h-123v70h133l22 151q9 66 44.5 96t105.5 30h45v-73h-37z" />
    <glyph glyph-name="uni01B5" unicode="&#x1b5;" horiz-adv-x="631" 
d="M346 326l-191 -245h433v-81h-542v78l194 248h-159v74h217l171 219h-415v81h522v-79l-172 -221h130v-74h-188z" />
    <glyph glyph-name="uni01B6" unicode="&#x1b6;" horiz-adv-x="471" 
d="M263 211l-114 -140h278v-71h-380v68l118 143h-101v59h149l105 128h-268v72h368v-70l-106 -130h92v-59h-141z" />
    <glyph glyph-name="AEacute" unicode="&#x1fc;" horiz-adv-x="914" 
d="M502 325v-244h360v-81h-451v177h-232l-94 -177h-98l379 700h492v-81h-356v-212h312v-82h-312zM221 257h190v367q-21 -49 -45 -94zM645 779h-72l63 126h99z" />
    <glyph glyph-name="aeacute" unicode="&#x1fd;" horiz-adv-x="844" 
d="M799 214h-358q5 -72 41.5 -112.5t99.5 -40.5q45 0 77.5 21.5t46.5 58.5h87q-14 -68 -73.5 -110.5t-137.5 -42.5q-63 0 -112.5 26.5t-76.5 74.5q-28 -49 -74.5 -75t-107.5 -26q-74 0 -120.5 38.5t-46.5 99.5q0 59 43 96t123 49l81 12q31 4 48 15.5t17 37.5q0 35 -27 57
t-68 22q-46 0 -75 -22t-35 -61h-88q7 67 62 108.5t135 41.5q52 0 92.5 -20t61.5 -58q28 37 71.5 57.5t96.5 20.5q101 0 159 -64t58 -174v-30zM713 281q-1 61 -39 96t-91 35t-93.5 -34t-46.5 -97h270zM355 248q-13 -18 -62 -26l-66 -12q-92 -17 -92 -80q0 -34 25 -54.5
t67 -20.5q56 0 92 35.5t36 92.5v65zM448 549h-72l63 126h99z" />
    <glyph glyph-name="uni0218" unicode="&#x218;" horiz-adv-x="628" 
d="M122 46q-72 58 -80 166h95q9 -69 56.5 -106.5t126.5 -37.5q72 0 117.5 34.5t45.5 90.5q0 45 -31 72t-95 41l-105 23q-94 20 -142 67.5t-48 120.5q0 56 32.5 100.5t88.5 69.5t124 25q113 0 184 -54.5t80 -149.5h-94q-8 59 -53.5 92.5t-115.5 33.5q-65 0 -108 -32.5
t-43 -81.5q0 -43 29 -68.5t90 -38.5l108 -23q194 -42 194 -194q0 -61 -33 -108.5t-92 -73.5t-134 -26q-125 0 -197 58zM273 -77h90v-110q0 -47 -24 -74.5t-70 -30.5v42q26 5 37 20t11 43v6h-44v104z" />
    <glyph glyph-name="uni0219" unicode="&#x219;" horiz-adv-x="473" 
d="M98 31q-54 43 -59 114h87q5 -41 36.5 -64.5t80.5 -23.5q44 0 71 21t27 54q0 28 -19.5 44t-60.5 24l-72 13q-136 25 -136 133q0 39 23 70t64 48.5t93 17.5q81 0 131.5 -37.5t57.5 -102.5h-85q-7 34 -35 53t-69 19t-67 -18.5t-26 -47.5q0 -49 67 -61l80 -15
q70 -13 107 -47.5t37 -88.5q0 -43 -23.5 -76.5t-66.5 -52.5t-98 -19q-91 0 -145 43zM195 -79h90v-110q0 -47 -24 -74.5t-70 -30.5v42q26 5 37 20t11 43v6h-44v104z" />
    <glyph glyph-name="uni021A" unicode="&#x21a;" horiz-adv-x="585" 
d="M27 700h531v-82h-220v-618h-91v618h-220v82zM248 -77h90v-110q0 -47 -24 -74.5t-70 -30.5v42q26 5 37 20t11 43v6h-44v104z" />
    <glyph glyph-name="uni021B" unicode="&#x21b;" horiz-adv-x="343" 
d="M305 399h-119v-266q0 -29 14.5 -44t49.5 -15h55v-74h-76q-64 0 -97 29t-33 93v277h-71v71h71v167h87v-167h119v-71zM154 -77h90v-110q0 -47 -24 -74.5t-70 -30.5v42q26 5 37 20t11 43v6h-44v104z" />
    <glyph glyph-name="uni0237" unicode="&#x237;" horiz-adv-x="239" 
d="M-8 -200v74h31q26 0 39.5 12.5t13.5 42.5v541h87v-554q0 -57 -28.5 -86.5t-88.5 -29.5h-54z" />
    <glyph glyph-name="circumflex" unicode="&#x2c6;" horiz-adv-x="445" 
d="M65 550l107 123h101l107 -123h-86l-26 28q-24 26 -45 54q-21 -26 -45 -54l-27 -28h-86z" />
    <glyph glyph-name="caron" unicode="&#x2c7;" horiz-adv-x="444" 
d="M172 550l-107 123h86l27 -28q24 -28 45 -54q21 28 45 54l26 28h86l-107 -123h-101z" />
    <glyph glyph-name="uni02C9" unicode="&#x2c9;" horiz-adv-x="277" 
d="M277 579h-277v65h277v-65z" />
    <glyph glyph-name="breve" unicode="&#x2d8;" horiz-adv-x="418" 
d="M106 583q-39 34 -41 93h71q3 -31 22.5 -49t50.5 -18t50.5 18t22.5 49h71q-2 -59 -41 -93t-103 -34t-103 34z" />
    <glyph glyph-name="dotaccent" unicode="&#x2d9;" horiz-adv-x="226" 
d="M161 556h-96v112h96v-112z" />
    <glyph glyph-name="ring" unicode="&#x2da;" horiz-adv-x="350" 
d="M97 560.5q-32 28.5 -32 74.5t32 74.5t82 28.5q49 0 81 -29t32 -74t-32 -74t-81 -29q-50 0 -82 28.5zM214.5 599q14.5 14 14.5 36t-14.5 36t-35.5 14q-22 0 -36.5 -14t-14.5 -36t14.5 -36t36.5 -14q21 0 35.5 14z" />
    <glyph glyph-name="ogonek" unicode="&#x2db;" horiz-adv-x="278" 
d="M96.5 -185q-31.5 27 -31.5 71q0 42 34 77t86 51l31 -14q-40 -17 -61.5 -42t-21.5 -53q0 -26 17 -40.5t47 -14.5q6 0 22 2v-60q-15 -4 -37 -4q-54 0 -85.5 27z" />
    <glyph glyph-name="tilde" unicode="&#x2dc;" horiz-adv-x="455" 
d="M262.5 564.5q-18.5 6.5 -41.5 18.5q-21 10 -32 14t-23 4q-16 0 -24.5 -10.5t-8.5 -28.5h-68q0 50 23.5 76.5t66.5 26.5q20 0 36.5 -6t42.5 -18q20 -10 32 -14.5t25 -4.5q16 0 24.5 10.5t8.5 28.5h68q0 -50 -23 -76.5t-66 -26.5q-22 0 -40.5 6.5z" />
    <glyph glyph-name="hungarumlaut" unicode="&#x2dd;" horiz-adv-x="445" 
d="M129 549h-65l64 126h87zM294 549h-66l64 126h88z" />
    <glyph glyph-name="gravecomb" unicode="&#x300;" horiz-adv-x="0" 
d="M0 549h-72l-90 126h98z" />
    <glyph glyph-name="acutecomb" unicode="&#x301;" horiz-adv-x="0" 
d="M-90 549h-72l63 126h99z" />
    <glyph glyph-name="uni0302" unicode="&#x302;" horiz-adv-x="0" 
d="M-315 550l107 123h101l107 -123h-86l-26 28q-24 26 -45 54q-21 -26 -45 -54l-27 -28h-86z" />
    <glyph glyph-name="tildecomb" unicode="&#x303;" horiz-adv-x="0" 
d="M-129.5 564.5q-18.5 6.5 -41.5 18.5q-21 10 -32 14t-23 4q-16 0 -24.5 -10.5t-8.5 -28.5h-68q0 50 23.5 76.5t66.5 26.5q20 0 36.5 -6t42.5 -18q20 -10 32 -14.5t25 -4.5q16 0 24.5 10.5t8.5 28.5h68q0 -50 -23 -76.5t-66 -26.5q-22 0 -40.5 6.5z" />
    <glyph glyph-name="uni0304" unicode="&#x304;" horiz-adv-x="0" 
d="M0 579h-277v65h277v-65z" />
    <glyph glyph-name="uni0306" unicode="&#x306;" horiz-adv-x="0" 
d="M-247 583q-39 34 -41 93h71q3 -31 22.5 -49t50.5 -18t50.5 18t22.5 49h71q-2 -59 -41 -93t-103 -34t-103 34z" />
    <glyph glyph-name="uni0307" unicode="&#x307;" horiz-adv-x="0" 
d="M0 556h-96v112h96v-112z" />
    <glyph glyph-name="uni0308" unicode="&#x308;" horiz-adv-x="0" 
d="M-189 560h-88v103h88v-103zM0 560h-87v103h87v-103z" />
    <glyph glyph-name="uni030A" unicode="&#x30a;" horiz-adv-x="0" 
d="M-195 560.5q-32 28.5 -32 74.5t32 74.5t82 28.5q49 0 81 -29t32 -74t-32 -74t-81 -29q-50 0 -82 28.5zM-77.5 599q14.5 14 14.5 36t-14.5 36t-35.5 14q-22 0 -36.5 -14t-14.5 -36t14.5 -36t36.5 -14q21 0 35.5 14z" />
    <glyph glyph-name="uni030B" unicode="&#x30b;" horiz-adv-x="0" 
d="M-251 549h-65l64 126h87zM-86 549h-66l64 126h88z" />
    <glyph glyph-name="uni030C" unicode="&#x30c;" horiz-adv-x="0" 
d="M-208 550l-107 123h86l27 -28q24 -28 45 -54q21 28 45 54l26 28h86l-107 -123h-101z" />
    <glyph glyph-name="uni0312" unicode="&#x312;" horiz-adv-x="0" 
d="M0 729q-25 -5 -36 -20t-11 -43v-5h44v-105h-91v110q0 47 24 74.5t70 30.5v-42z" />
    <glyph glyph-name="uni0326" unicode="&#x326;" horiz-adv-x="0" 
d="M-90 -77h90v-110q0 -47 -24 -74.5t-70 -30.5v42q26 5 37 20t11 43v6h-44v104z" />
    <glyph glyph-name="uni0327" unicode="&#x327;" horiz-adv-x="0" 
d="M-104 -44q43 4 73.5 -17t30.5 -62q0 -40 -30.5 -64.5t-78.5 -24.5q-67 0 -112 38l32 45q39 -29 79 -29q23 0 35.5 10t12.5 28q0 16 -13 24.5t-33 8.5q-21 0 -40 -9l-31 28l69 77h47v-9z" />
    <glyph glyph-name="uni0328" unicode="&#x328;" horiz-adv-x="0" 
d="M-122.5 -185q-31.5 27 -31.5 71q0 42 34 77t86 51l31 -14q-40 -17 -61.5 -42t-21.5 -53q0 -26 17 -40.5t47 -14.5q6 0 22 2v-60q-15 -4 -37 -4q-54 0 -85.5 27z" />
    <glyph glyph-name="uni0394" unicode="&#x394;" horiz-adv-x="655" 
d="M624 0h-592v82l242 618h107l243 -618v-82zM125 81h405l-167 434q-21 51 -35 100q-13 -39 -35 -100z" />
    <glyph glyph-name="uni03A9" unicode="&#x3a9;" horiz-adv-x="790" 
d="M687.5 194q-49.5 -77 -133.5 -114h159v-80h-259v98q84 27 136 99t52 168q0 76 -31.5 136.5t-88 95t-127.5 34.5t-127.5 -34.5t-88 -95t-31.5 -136.5q0 -96 52 -168t136 -99v-98h-258v80h158q-84 37 -133.5 114t-49.5 175t44 176.5t122 122.5t176 44t176 -44t122 -122.5
t44 -176.5t-49.5 -175z" />
    <glyph glyph-name="uni03BC" unicode="&#x3bc;" horiz-adv-x="554" 
d="M391 470h87v-470h-84v80q-22 -46 -59.5 -69t-88.5 -23q-45 0 -83 23v-211h-87v670h87v-277q0 -62 28.5 -97t80.5 -35q54 0 86.5 40t32.5 106v263z" />
    <glyph glyph-name="pi" unicode="&#x3c0;" horiz-adv-x="604" 
d="M559 398h-96v-268q0 -29 14 -42.5t43 -13.5h39v-74h-66q-60 0 -88 28t-28 86v284h-180v-398h-86v398h-87v72h535v-72z" />
    <glyph glyph-name="uni0E3F" unicode="&#xe3f;" horiz-adv-x="619" 
d="M510.5 53q-60.5 -51 -161.5 -53v-93h-73v93h-183v668h183v92h73v-92q92 0 147.5 -47.5t55.5 -125.5q0 -54 -30.5 -92.5t-85.5 -51.5q64 -14 99.5 -57.5t35.5 -105.5q0 -84 -60.5 -135zM276 592h-97v-206h97v206zM432.5 561.5q-30.5 27.5 -83.5 30.5v-206q53 3 83.5 30
t30.5 72q0 46 -30.5 73.5zM179 310v-234h97v234h-97zM349 76q63 2 98 33t35 84t-34.5 84t-98.5 33v-234z" />
    <glyph glyph-name="Wgrave" unicode="&#x1e80;" horiz-adv-x="963" 
d="M212 0l-184 700h94l120 -482q13 -46 28 -122q16 71 30 121l132 483h104l132 -483q14 -50 30 -121l28 122l121 482h88l-184 -700h-110l-136 498q-3 14 -11 42l-13 55q-11 -49 -24 -97l-136 -498h-109zM527 779h-72l-90 126h98z" />
    <glyph glyph-name="wgrave" unicode="&#x1e81;" horiz-adv-x="722" 
d="M161 0l-133 470h89l76 -295q16 -70 19 -89l16 63q2 6 7 26l82 295h94l83 -295l22 -89q4 19 19 89l76 295h83l-133 -470h-95l-86 304q-11 43 -19 78q-8 -35 -19 -78l-86 -304h-95zM397 549h-72l-90 126h98z" />
    <glyph glyph-name="Wacute" unicode="&#x1e82;" horiz-adv-x="963" 
d="M212 0l-184 700h94l120 -482q13 -46 28 -122q16 71 30 121l132 483h104l132 -483q14 -50 30 -121l28 122l121 482h88l-184 -700h-110l-136 498q-3 14 -11 42l-13 55q-11 -49 -24 -97l-136 -498h-109zM524 779h-72l63 126h99z" />
    <glyph glyph-name="wacute" unicode="&#x1e83;" horiz-adv-x="722" 
d="M161 0l-133 470h89l76 -295q16 -70 19 -89l16 63q2 6 7 26l82 295h94l83 -295l22 -89q4 19 19 89l76 295h83l-133 -470h-95l-86 304q-11 43 -19 78q-8 -35 -19 -78l-86 -304h-95zM394 549h-72l63 126h99z" />
    <glyph glyph-name="Wdieresis" unicode="&#x1e84;" horiz-adv-x="963" 
d="M212 0l-184 700h94l120 -482q13 -46 28 -122q16 71 30 121l132 483h104l132 -483q14 -50 30 -121l28 122l121 482h88l-184 -700h-110l-136 498q-3 14 -11 42l-13 55q-11 -49 -24 -97l-136 -498h-109zM439 790h-88v103h88v-103zM628 790h-87v103h87v-103z" />
    <glyph glyph-name="wdieresis" unicode="&#x1e85;" horiz-adv-x="722" 
d="M161 0l-133 470h89l76 -295q16 -70 19 -89l16 63q2 6 7 26l82 295h94l83 -295l22 -89q4 19 19 89l76 295h83l-133 -470h-95l-86 304q-11 43 -19 78q-8 -35 -19 -78l-86 -304h-95zM309 560h-88v103h88v-103zM498 560h-87v103h87v-103z" />
    <glyph glyph-name="uni1E9E" unicode="&#x1e9e;" horiz-adv-x="718" 
d="M562 360q64 -37 93.5 -81t29.5 -102q0 -55 -26 -98t-72.5 -67t-105.5 -24q-98 0 -154 52t-59 149h92q4 -58 36 -89.5t86 -31.5q48 0 78.5 30.5t30.5 77.5q0 35 -19.5 63t-61.5 51l-62 34q-59 33 -85.5 70.5t-26.5 89.5q0 45 23 80t64 55h-239v-619h-91v700h513v-81h-18
q-82 0 -121.5 -33t-39.5 -83q0 -35 16.5 -59.5t54.5 -46.5z" />
    <glyph glyph-name="Ygrave" unicode="&#x1ef2;" horiz-adv-x="660" 
d="M642 700l-266 -416v-284h-91v283l-267 417h106l163 -261q28 -45 46 -76q30 52 45 76l163 261h101zM369 779h-72l-90 126h98z" />
    <glyph glyph-name="ygrave" unicode="&#x1ef3;" horiz-adv-x="491" 
d="M59 -200v74h30q35 0 57 15t34 48l26 67l-191 466h96l103 -272q26 -67 36 -100q9 30 34 100l96 272h89l-212 -562q-22 -56 -59 -82t-96 -26h-43zM288 549h-72l-90 126h98z" />
    <glyph glyph-name="endash" unicode="&#x2013;" horiz-adv-x="551" 
d="M497 235h-443v78h443v-78z" />
    <glyph glyph-name="emdash" unicode="&#x2014;" horiz-adv-x="853" 
d="M800 236h-746v76h746v-76z" />
    <glyph glyph-name="quoteleft" unicode="&#x2018;" horiz-adv-x="226" 
d="M166 661q-55 -10 -55 -73v-19h51v-116h-101v135q0 51 27 82t78 36v-45z" />
    <glyph glyph-name="quoteright" unicode="&#x2019;" horiz-adv-x="219" 
d="M65 700h101v-135q0 -51 -27 -82.5t-78 -35.5v45q55 10 55 73v18h-51v117z" />
    <glyph glyph-name="quotesinglbase" unicode="&#x201a;" horiz-adv-x="233" 
d="M70 117h101v-135q0 -51 -27 -82.5t-78 -35.5v45q55 10 55 73v18h-51v117z" />
    <glyph glyph-name="quotedblleft" unicode="&#x201c;" horiz-adv-x="394" 
d="M61 588q0 51 27 82t78 36v-45q-55 -10 -55 -73v-19h51v-116h-101v135zM334 661q-55 -10 -55 -73v-19h50v-116h-101v135q0 51 27.5 82t78.5 36v-45z" />
    <glyph glyph-name="quotedblright" unicode="&#x201d;" horiz-adv-x="387" 
d="M65 583v117h101v-135q0 -51 -27 -82.5t-78 -35.5v45q55 10 55 73v18h-51zM233 700h101v-135q0 -51 -27.5 -82.5t-77.5 -35.5v45q54 11 54 73v18h-50v117z" />
    <glyph glyph-name="quotedblbase" unicode="&#x201e;" horiz-adv-x="401" 
d="M69 0v117h101v-135q0 -51 -27 -82.5t-78 -35.5v45q55 10 55 73v18h-51zM237 117h101v-135q0 -51 -27.5 -82.5t-77.5 -35.5v45q54 11 54 73v18h-50v117z" />
    <glyph glyph-name="dagger" unicode="&#x2020;" horiz-adv-x="428" 
d="M254 613h136v-74h-136v-327h-79v327h-137v74h137v169h79v-169z" />
    <glyph glyph-name="daggerdbl" unicode="&#x2021;" horiz-adv-x="457" 
d="M402 615v-72h-134v-91h134v-73h-134v-167h-79v167h-135v73h135v91h-135v72h135v167h79v-167h134z" />
    <glyph glyph-name="bullet" unicode="&#x2022;" horiz-adv-x="435" 
d="M146.5 152q-32.5 19 -51.5 51.5t-19 71.5q0 38 19 70.5t51.5 51t71.5 18.5q38 0 70.5 -18.5t51 -51t18.5 -70.5q0 -39 -18.5 -71.5t-51 -51.5t-70.5 -19q-39 0 -71.5 19z" />
    <glyph glyph-name="ellipsis" unicode="&#x2026;" horiz-adv-x="779" 
d="M168 0h-103v122h103v-122zM441 0h-103v122h103v-122zM715 0h-103v122h103v-122z" />
    <glyph glyph-name="perthousand" unicode="&#x2030;" horiz-adv-x="1239" 
d="M113 347q-39 23 -61.5 64t-22.5 92q0 50 22.5 90.5t61.5 63.5t88 23q50 0 90 -23t62.5 -63.5t22.5 -90.5q0 -51 -22.5 -92t-62.5 -64t-90 -23q-49 0 -88 23zM712 637l-512 -649l-54 43l512 649zM274 422q28 31 28 81q0 49 -28 80t-72 31t-72 -31t-28 -80
q0 -51 27.5 -81.5t72.5 -30.5q44 0 72 31zM568 11q-39 23 -61.5 63.5t-22.5 91.5q0 50 22.5 90.5t61.5 63.5t88 23q50 0 89.5 -23t62 -63.5t22.5 -90.5q0 -51 -22.5 -91.5t-62 -63.5t-89.5 -23q-49 0 -88 23zM952.5 11q-39.5 23 -62 63.5t-22.5 91.5q0 50 22.5 90.5t62 63.5
t88.5 23t89 -23t62.5 -63.5t22.5 -90.5q0 -51 -22.5 -91.5t-62 -63.5t-89.5 -23q-49 0 -88.5 23zM729 85q28 31 28 81t-28 80.5t-72 30.5t-72 -30.5t-28 -80.5t27.5 -81t72.5 -31q44 0 72 31zM1113 85q28 31 28 81q0 49 -28 80t-72 31t-72 -30.5t-28 -80.5t28 -81t72 -31
t72 31z" />
    <glyph glyph-name="guilsinglleft" unicode="&#x2039;" horiz-adv-x="286" 
d="M237 50h-85l-106 194l106 194h85l-105 -194z" />
    <glyph glyph-name="guilsinglright" unicode="&#x203a;" horiz-adv-x="286" 
d="M133 50h-84l105 194l-105 194h84l106 -194z" />
    <glyph glyph-name="uni2042" unicode="&#x2042;" horiz-adv-x="792" 
d="M396 478l-75 -116l-56 40l88 108l-134 36l20 64l130 -49l-7 139h68l-7 -139l129 50l21 -66l-134 -35l88 -108l-56 -40zM195 104l-75 -116l-56 39l88 108l-134 36l21 65l129 -49l-7 139h68l-7 -139l129 50l22 -66l-134 -36l87 -107l-56 -40zM597 104l-75 -116l-56 39
l88 108l-134 36l20 65l130 -49l-7 139h68l-7 -139l129 50l21 -66l-134 -36l88 -107l-56 -40z" />
    <glyph glyph-name="fraction" unicode="&#x2044;" horiz-adv-x="231" 
d="M381 640l-481 -652l-54 40l481 652z" />
    <glyph glyph-name="uni2070" unicode="&#x2070;" horiz-adv-x="470" 
d="M95 348q-50 67 -50 189q0 121 50 188.5t139 67.5q90 0 140.5 -67.5t50.5 -188.5q0 -122 -50.5 -189t-140.5 -67q-89 0 -139 67zM315.5 396.5q28.5 49.5 28.5 140.5t-28.5 140.5t-81.5 49.5q-52 0 -80 -49.5t-28 -140.5t28 -140.5t80 -49.5q53 0 81.5 49.5z" />
    <glyph glyph-name="uni2074" unicode="&#x2074;" horiz-adv-x="464" 
d="M357 493h72v-64h-72v-139h-76v139h-247v68l224 287h99v-291zM281 493v221q-10 -12 -16 -23l-15 -20l-110 -140l-31 -38h172z" />
    <glyph glyph-name="uni2075" unicode="&#x2075;" horiz-adv-x="443" 
d="M328 597.5q36 -21.5 56.5 -59.5t20.5 -86q0 -50 -23 -89t-64.5 -60.5t-94.5 -21.5q-80 0 -127 39t-51 109h79q5 -38 31 -60t68 -22q46 0 73.5 29t27.5 76t-27 76t-71 29q-30 0 -54.5 -14t-35.5 -38h-76l3 279h313v-65h-242l-2 -147q42 47 114 47q46 0 82 -21.5z" />
    <glyph glyph-name="uni2076" unicode="&#x2076;" horiz-adv-x="462" 
d="M340 590q37 -21 58 -58t21 -84q0 -48 -23.5 -86t-64.5 -59.5t-92 -21.5q-93 0 -144 67t-51 189q0 120 53 188t146 68q69 0 114.5 -36.5t52.5 -99.5h-80q-6 34 -29 52.5t-59 18.5q-57 0 -88 -49t-31 -141v-1q18 35 53 54.5t81 19.5t83 -21zM309.5 375.5
q28.5 28.5 28.5 72.5q0 43 -28.5 71.5t-73.5 28.5q-44 0 -72.5 -28t-28.5 -72t28.5 -72.5t72.5 -28.5q45 0 73.5 28.5z" />
    <glyph glyph-name="uni2077" unicode="&#x2077;" horiz-adv-x="365" 
d="M16 784h341v-69q-157 -148 -180 -425h-88q13 136 62.5 244t130.5 183h-266v67z" />
    <glyph glyph-name="uni2078" unicode="&#x2078;" horiz-adv-x="458" 
d="M387.5 502q27.5 -32 27.5 -76q0 -42 -23.5 -75t-66 -51.5t-96.5 -18.5q-53 0 -95.5 18.5t-66.5 51.5t-24 75q0 44 27 76t76 45q-42 13 -65.5 43t-23.5 69q0 60 48 97t124 37q77 0 124.5 -37t47.5 -97q0 -39 -24 -68.5t-65 -43.5q48 -13 75.5 -45zM161 708
q-26 -21 -26 -55t26 -55t68 -21t68 21t26 55t-26 55t-68 21t-68 -21zM306 369q29 23 29 62q0 38 -29 61.5t-77 23.5q-47 0 -76 -23.5t-29 -61.5t28.5 -61.5t76.5 -23.5t77 23z" />
    <glyph glyph-name="uni2079" unicode="&#x2079;" horiz-adv-x="462" 
d="M366 726q51 -67 51 -189q0 -120 -53 -188t-146 -68q-69 0 -114.5 36.5t-52.5 99.5h80q6 -34 29 -52.5t59 -18.5q57 0 88 49t31 141v1q-18 -35 -53 -54.5t-81 -19.5t-83 21t-58 58t-21 84q0 48 23.5 86t64.5 59.5t92 21.5q93 0 144 -67zM297.5 554q28.5 28 28.5 72
t-28.5 72.5t-72.5 28.5q-45 0 -73.5 -28.5t-28.5 -72.5q0 -43 28.5 -71.5t73.5 -28.5q44 0 72.5 28z" />
    <glyph glyph-name="uni2080" unicode="&#x2080;" horiz-adv-x="470" 
d="M97 -100q-50 67 -50 189q0 121 50 188.5t139 67.5q90 0 140.5 -67.5t50.5 -188.5q0 -122 -50.5 -189t-140.5 -67q-89 0 -139 67zM317.5 -51.5q28.5 49.5 28.5 140.5t-28.5 140.5t-81.5 49.5q-52 0 -80 -49.5t-28 -140.5t28 -140.5t80 -49.5q53 0 81.5 49.5z" />
    <glyph glyph-name="uni2081" unicode="&#x2081;" horiz-adv-x="278" 
d="M16 211l103 125h78v-494h-79v402l-57 -71z" />
    <glyph glyph-name="uni2082" unicode="&#x2082;" horiz-adv-x="430" 
d="M388 -92v-66h-349q3 56 33 102t93 91l56 41q83 61 83 121q0 36 -24 59t-62 23q-42 0 -68 -25t-27 -67h-80q2 72 49 115t124 43q76 0 122 -41t46 -108q0 -46 -28.5 -88t-90.5 -87l-58 -42q-51 -39 -68 -71h249z" />
    <glyph glyph-name="uni2083" unicode="&#x2083;" horiz-adv-x="448" 
d="M381.5 57.5q24.5 -31.5 24.5 -75.5q0 -43 -23 -77t-63.5 -53t-91.5 -19q-84 0 -133.5 41t-53.5 115h81q5 -43 32 -66.5t73 -23.5q43 0 71 23.5t28 62.5q0 38 -27 59.5t-73 21.5h-43v66h42q41 0 65 20t24 54q0 32 -25 52.5t-63 20.5q-41 0 -67.5 -22.5t-30.5 -59.5h-80
q6 68 54.5 108t123.5 40q74 0 121 -38t47 -98q0 -37 -22 -65.5t-59 -41.5q44 -13 68.5 -44.5z" />
    <glyph glyph-name="uni2084" unicode="&#x2084;" horiz-adv-x="464" 
d="M358 45h72v-64h-72v-139h-76v139h-247v68l224 287h99v-291zM282 45v221q-10 -12 -16 -23l-15 -20l-110 -140l-31 -38h172z" />
    <glyph glyph-name="uni2085" unicode="&#x2085;" horiz-adv-x="443" 
d="M327 149.5q36 -21.5 56.5 -59.5t20.5 -86q0 -50 -23 -89t-64.5 -60.5t-94.5 -21.5q-80 0 -127 39t-51 109h79q5 -38 31 -60t68 -22q46 0 73.5 29t27.5 76t-27 76t-71 29q-30 0 -54.5 -14t-35.5 -38h-76l3 279h313v-65h-242l-2 -147q42 47 114 47q46 0 82 -21.5z" />
    <glyph glyph-name="uni2086" unicode="&#x2086;" horiz-adv-x="461" 
d="M341 142q37 -21 58 -58t21 -84q0 -48 -23.5 -86t-64.5 -59.5t-92 -21.5q-93 0 -144 67t-51 189q0 120 53 188t146 68q69 0 114.5 -36.5t52.5 -99.5h-80q-6 34 -29 52.5t-59 18.5q-57 0 -88 -49t-31 -141v-1q18 35 53 54.5t81 19.5t83 -21zM310.5 -72.5
q28.5 28.5 28.5 72.5q0 43 -28.5 71.5t-73.5 28.5q-44 0 -72.5 -28t-28.5 -72t28.5 -72.5t72.5 -28.5q45 0 73.5 28.5z" />
    <glyph glyph-name="uni2087" unicode="&#x2087;" horiz-adv-x="366" 
d="M15 336h341v-69q-157 -148 -180 -425h-88q13 136 62.5 244t130.5 183h-266v67z" />
    <glyph glyph-name="uni2088" unicode="&#x2088;" horiz-adv-x="458" 
d="M388.5 54q27.5 -32 27.5 -76q0 -42 -23.5 -75t-66 -51.5t-96.5 -18.5q-53 0 -95.5 18.5t-66.5 51.5t-24 75q0 44 27 76t76 45q-42 13 -65.5 43t-23.5 69q0 60 48 97t124 37q77 0 124.5 -37t47.5 -97q0 -39 -24 -68.5t-65 -43.5q48 -13 75.5 -45zM162 260q-26 -21 -26 -55
t26 -55t68 -21t68 21t26 55t-26 55t-68 21t-68 -21zM307 -79q29 23 29 62q0 38 -29 61.5t-77 23.5q-47 0 -76 -23.5t-29 -61.5t28.5 -61.5t76.5 -23.5t77 23z" />
    <glyph glyph-name="uni2089" unicode="&#x2089;" horiz-adv-x="463" 
d="M368 278q51 -67 51 -189q0 -120 -53 -188t-146 -68q-69 0 -114.5 36.5t-52.5 99.5h80q6 -34 29 -52.5t59 -18.5q57 0 88 49t31 141v1q-18 -35 -53 -54.5t-81 -19.5t-83 21t-58 58t-21 84q0 48 23.5 86t64.5 59.5t92 21.5q93 0 144 -67zM299.5 106q28.5 28 28.5 72
t-28.5 72.5t-72.5 28.5q-45 0 -73.5 -28.5t-28.5 -72.5q0 -43 28.5 -71.5t73.5 -28.5q44 0 72.5 28z" />
    <glyph glyph-name="franc" unicode="&#x20a3;" horiz-adv-x="568" 
d="M532 668v-77h-315v-209h274v-77h-274v-109h195v-70h-195v-126h-88v126h-89v70h89v472h403z" />
    <glyph glyph-name="uni20A8" unicode="&#x20a8;" horiz-adv-x="1020" 
d="M523 388.5q-32 -39.5 -92 -53.5q54 -8 79 -41.5t25 -96.5v-83q0 -42 3.5 -65.5t11.5 -48.5h-91q-8 22 -10 46.5t-2 68.5v73q0 58 -23.5 82t-86.5 24h-155v-294h-89v668h246q100 0 158 -49.5t58 -132.5q0 -58 -32 -97.5zM325 370q64 0 100.5 29.5t36.5 80.5
q0 52 -36.5 81.5t-100.5 29.5h-143v-221h143zM844 260q68 -13 102.5 -46t34.5 -84q0 -62 -50 -101.5t-131 -39.5q-87 0 -139 41t-57 109h86q5 -39 34.5 -61t75.5 -22q41 0 67 19.5t26 50.5q0 51 -76 64l-69 12q-129 25 -129 128q0 37 22 66.5t61 46.5t89 17q77 0 126 -35.5
t56 -98.5h-84q-7 32 -33 50t-65 18t-63.5 -17.5t-24.5 -44.5q0 -45 64 -57z" />
    <glyph glyph-name="uni20A9" unicode="&#x20a9;" horiz-adv-x="927" 
d="M866 420v-64h-95l-14 -65h109v-64h-123l-50 -227h-102l-52 227h-152l-52 -227h-102l-50 227h-121v64h107l-14 65h-93v64h79l-54 248h83l51 -248h142l57 248h90l57 -248h142l52 248h79l-55 -248h81zM431 420h64l-3 14q-16 68 -28 136l-5 -22q-20 -96 -25 -114zM349 356
h-114l13 -65h86zM416 356l-15 -65h124l-15 65h-94zM596 291h86l14 65h-115zM319 227h-58l2 -8q12 -50 26 -131l7 34q17 80 21 96zM669 227h-58l2 -9q20 -87 28 -130q14 77 26 131z" />
    <glyph glyph-name="uni20AA" unicode="&#x20aa;" horiz-adv-x="713" 
d="M93 0v668h189q95 0 141 -44t46 -134v-334h-72v325q0 111 -113 111h-112v-592h-79zM249 0v512h71v-435h113q113 0 113 110v481h80v-483q0 -94 -46.5 -139.5t-144.5 -45.5h-186z" />
    <glyph glyph-name="dong" unicode="&#x20ab;" horiz-adv-x="618" 
d="M576 610v-60h-67v-550h-84v81q-23 -45 -64 -69t-96 -24q-62 0 -111 31.5t-77 87.5t-28 128q0 71 28 127.5t77 88t110 31.5q54 0 95 -24t64 -68v160h-182v60h182v90h86v-90h67zM387 108.5q39 47.5 39 126.5q0 78 -39 125.5t-103 47.5q-66 0 -105.5 -47.5t-39.5 -125.5
q0 -79 39.5 -126.5t105.5 -47.5q64 0 103 47.5zM508 -150h-429v70h429v-70z" />
    <glyph glyph-name="Euro" unicode="&#x20ac;" horiz-adv-x="645" 
d="M592 205q-10 -101 -69 -159t-150 -58q-97 0 -158 62.5t-80 180.5h-75v66h69q-1 12 -1 37t1 37h-69v66h75q19 118 80 180.5t159 62.5q91 0 148 -54.5t66 -150.5h-90q-7 60 -40 94t-84 34q-60 0 -96.5 -42t-50.5 -124h211l-8 -66h-210q-1 -12 -1 -37t1 -37h203l-8 -66h-188
q13 -82 50 -124.5t96 -42.5q53 0 86.5 36.5t42.5 104.5h90z" />
    <glyph glyph-name="uni20AD" unicode="&#x20ad;" horiz-adv-x="659" 
d="M621 0h-109l-252 307h-27v-307h-88v307h-90v73h90v288h88v-288h26l235 288h104l-243 -288h219v-73h-212z" />
    <glyph glyph-name="uni20B1" unicode="&#x20b1;" horiz-adv-x="714" 
d="M680 558v-61h-81q1 -8 1 -24t-1 -24h81v-60h-96q-23 -54 -77.5 -82t-139.5 -28h-142v-279h-88v389h-90v60h90v48h-90v61h90v110h229q85 0 140 -28t78 -82h96zM363 354q71 0 109 31t38 88t-38.5 88t-108.5 31h-138v-238h138z" />
    <glyph glyph-name="uni20B4" unicode="&#x20b4;" horiz-adv-x="681" 
d="M622 429v-64h-562v64h396q20 28 20 67q0 49 -35 79.5t-92 30.5t-95.5 -31t-45.5 -83h-88q7 86 69.5 137t159.5 51q98 0 156.5 -49.5t58.5 -133.5q0 -37 -14 -68h72zM60 241v64h562v-64h-406q-10 -24 -10 -54q0 -56 38 -90t100 -34q58 0 98.5 31t52.5 84h90
q-13 -87 -79 -138.5t-162 -51.5q-67 0 -119 24.5t-80.5 69.5t-28.5 104q0 24 9 55h-65z" />
    <glyph glyph-name="uni20B8" unicode="&#x20b8;" horiz-adv-x="535" 
d="M40 592v76h455v-76h-455zM223 446h-183v78h455v-78h-184v-446h-88v446z" />
    <glyph glyph-name="uni20B9" unicode="&#x20b9;" horiz-adv-x="606" 
d="M560 668v-71h-161q30 -13 50.5 -37.5t28.5 -55.5h82v-70h-79q-11 -75 -70.5 -118t-154.5 -43h-63l326 -273h-132l-315 273v73h176q60 0 97 22.5t48 65.5h-321v70h321q-11 43 -48 65.5t-97 22.5h-176v76h488z" />
    <glyph glyph-name="uni20BA" unicode="&#x20ba;" horiz-adv-x="604" 
d="M574 249q-10 -121 -87 -185t-199 -64h-139v209l-92 -46v75l92 46v86l-92 -45v74l92 46v223h89v-179l214 107v-76l-214 -106v-86l214 106v-74l-214 -107v-176h51q85 0 137 44t62 128h86z" />
    <glyph glyph-name="uni20BD" unicode="&#x20bd;" horiz-adv-x="636" 
d="M229 282v-89h236v-70h-236v-123h-88v123h-88v70h88v89h-88v72h88v314h230q108 0 171 -52t63 -141t-62 -141t-171 -52h-143zM229 592v-238h137q71 0 109.5 31t38.5 88t-39 88t-110 31h-136z" />
    <glyph glyph-name="uni20BF" unicode="&#x20bf;" horiz-adv-x="608" 
d="M515.5 67.5q-45.5 -48.5 -123.5 -62.5v-100h-68v95h-67v-95h-68v95h-97v668h97v95h68v-95h67v95h68v-100q69 -14 109 -58.5t40 -109.5q0 -53 -30.5 -92t-84.5 -52q63 -14 99 -57t36 -106q0 -72 -45.5 -120.5zM419.5 564q-33.5 28 -93.5 28h-148v-206h149q59 0 92.5 27.5
t33.5 74.5q0 48 -33.5 76zM328 76q69 0 106.5 30.5t37.5 86.5q0 55 -38 86.5t-106 31.5h-150v-235h150z" />
    <glyph glyph-name="uni2113" unicode="&#x2113;" horiz-adv-x="483" 
d="M448 157q-3 -79 -46.5 -124t-117.5 -45q-73 0 -114.5 43.5t-42.5 123.5q-39 -14 -89 -22v78q45 7 89 26v292q0 70 38.5 110.5t105.5 40.5t106 -40t39 -110q0 -98 -56.5 -189t-152.5 -148v-34q0 -47 21 -72.5t59 -25.5q35 0 56.5 24t23.5 72h81zM207 285q61 46 95.5 111
t34.5 134q0 38 -17 59.5t-47 21.5t-48 -22t-18 -60v-244z" />
    <glyph glyph-name="uni2116" unicode="&#x2116;" horiz-adv-x="1108" 
d="M795 343q-40 23 -62 63.5t-22 92.5q0 51 22 91.5t62 63t91 22.5q77 0 125.5 -49.5t48.5 -127.5q0 -52 -22 -92.5t-61.5 -63.5t-90.5 -23t-91 23zM550 668h85v-668h-112l-349 581q3 -64 3 -126v-455h-84v668h123l336 -559q-2 74 -2 110v449zM815.5 580
q-27.5 -31 -27.5 -81q0 -51 27 -82.5t71 -31.5t71 31.5t27 82.5q0 50 -27.5 81t-70.5 31t-70.5 -31zM1044 182h-316v73h316v-73z" />
    <glyph glyph-name="uni2117" unicode="&#x2117;" horiz-adv-x="651" 
d="M190.5 217.5q-61.5 35.5 -97 96.5t-35.5 135t35.5 135.5t97 97t135.5 35.5t135.5 -35.5t97 -97t35.5 -135.5t-35.5 -135t-97 -96.5t-135.5 -35.5t-135.5 35.5zM432 265q48 28 76 76.5t28 107.5t-28 107.5t-76 77t-106 28.5t-106.5 -28.5t-76.5 -77t-28 -107.5t28 -107.5
t76.5 -76.5t106.5 -28t106 28zM237 309v280h107q46 0 73 -23t27 -62t-27 -62t-73 -23h-54v-110h-53zM342 463q22 0 35.5 11t13.5 30t-13 29.5t-36 10.5h-52v-81h52z" />
    <glyph glyph-name="uni2120" unicode="&#x2120;" horiz-adv-x="980" 
d="M104.5 311.5q-47.5 38.5 -51.5 101.5h78q5 -36 30.5 -55.5t66.5 -19.5q38 0 61.5 17t23.5 44q0 46 -61 57l-73 14q-55 10 -84.5 40t-29.5 76q0 53 44 87t112 34q72 0 117 -34.5t50 -94.5h-77q-6 30 -30 48t-60 18q-34 0 -56 -15.5t-22 -39.5q0 -39 54 -50l76 -14
q58 -10 88.5 -42t30.5 -79q0 -59 -45.5 -95t-119.5 -36q-75 0 -122.5 38.5zM457 280v420h117l83 -246q9 -28 23 -81q10 40 24 81l82 246h116v-420h-74v287q0 22 2 72l-118 -359h-67l-118 359q2 -50 2 -72v-287h-72z" />
    <glyph glyph-name="trademark" unicode="&#x2122;" horiz-adv-x="930" 
d="M223 280h-79v351h-119v69h316v-69h-118v-351zM407 280v420h117l82 -246q10 -26 24 -81q14 55 24 81l82 246h116v-420h-74v285q0 38 3 77l-119 -362h-68l-118 362q2 -52 2 -77v-285h-71z" />
    <glyph glyph-name="uni2126" unicode="&#x2126;" horiz-adv-x="804" 
d="M694.5 193.5q-49.5 -76.5 -133.5 -113.5h159v-80h-259v98q84 27 136 99t52 168q0 76 -31.5 136.5t-88 95t-127.5 34.5t-127.5 -34.5t-88 -95t-31.5 -136.5q0 -95 52 -167.5t136 -99.5v-98h-258v80h158q-84 37 -133.5 114t-49.5 175t44 176.5t122 122.5t176 44t176 -44
t122 -122.5t44 -176.5q0 -99 -49.5 -175.5z" />
    <glyph glyph-name="estimated" unicode="&#x212e;" horiz-adv-x="694" 
d="M202.5 28.5q-66.5 39.5 -105 108t-38.5 150.5t39 150.5t106 108t148 39.5q79 0 145 -37t105 -104t39 -152v-26h-484v-137q33 -45 83 -72t110 -27q74 0 133.5 37.5t88.5 100.5h46q-30 -80 -102.5 -129.5t-165.5 -49.5q-81 0 -147.5 39.5zM157 309h393v126q-33 50 -85 79.5
t-113 29.5q-60 0 -111.5 -27.5t-83.5 -73.5v-134z" />
    <glyph glyph-name="uni2153" unicode="&#x2153;" horiz-adv-x="812" 
d="M27 564l85 104h69v-401h-71v320l-44 -55zM617 640l-481 -652l-54 40l481 652zM753 175q20 -26 20 -61q0 -53 -41 -87t-106 -34q-69 0 -110 33t-43 94h71q4 -33 25.5 -51t56.5 -18q33 0 54 18t21 48q0 29 -20.5 45.5t-56.5 16.5h-34v58h33q31 0 50 15t19 41t-19 42t-49 16
q-31 0 -51.5 -17.5t-23.5 -46.5h-71q4 55 44 88t102 33q61 0 99.5 -31t38.5 -80q0 -30 -17 -52.5t-46 -33.5q34 -10 54 -36z" />
    <glyph glyph-name="uni2154" unicode="&#x2154;" horiz-adv-x="939" 
d="M330 324v-57h-288q3 48 27.5 85.5t74.5 73.5l46 34q65 47 65 93q0 29 -18.5 47t-47.5 18q-32 0 -51.5 -20t-21.5 -52h-71q2 59 40.5 94t102.5 35q62 0 100.5 -33.5t38.5 -88.5q0 -38 -24 -71.5t-74 -70.5l-47 -34q-38 -28 -52 -53h200zM745 640l-481 -652l-54 40l481 652
zM882 175q20 -26 20 -61q0 -53 -41 -87t-106 -34q-69 0 -110 33t-43 94h71q4 -33 25.5 -51t56.5 -18q33 0 54 18t21 48q0 29 -20.5 45.5t-56.5 16.5h-34v58h33q31 0 50 15t19 41t-19 42t-49 16q-31 0 -51.5 -17.5t-23.5 -46.5h-71q4 55 44 88t102 33q61 0 99.5 -31t38.5 -80
q0 -30 -17 -52.5t-46 -33.5q34 -10 54 -36z" />
    <glyph glyph-name="oneeighth" unicode="&#x215b;" horiz-adv-x="818" 
d="M27 564l85 104h69v-401h-71v320l-44 -55zM617 640l-481 -652l-54 40l481 652zM758 172q22 -26 22 -61q0 -52 -42.5 -85t-109.5 -33t-110 33t-43 85q0 35 22 61t61 37q-33 11 -52.5 35t-19.5 55q0 49 39 79t103 30q63 0 102.5 -30t39.5 -79q0 -32 -19.5 -56t-52.5 -34
q38 -11 60 -37zM575.5 335q-20.5 -16 -20.5 -42t20 -42t53 -16q32 0 52.5 16t20.5 42t-20.5 42t-52.5 16t-52.5 -16zM686.5 68q22.5 18 22.5 48q0 29 -22.5 47t-58.5 18q-37 0 -59.5 -18t-22.5 -47q0 -30 22.5 -48t59.5 -18q36 0 58.5 18z" />
    <glyph glyph-name="threeeighths" unicode="&#x215c;" horiz-adv-x="943" 
d="M320 442q20 -26 20 -61q0 -53 -41 -87t-106 -34q-69 0 -110 33t-43 94h71q4 -33 25.5 -51t56.5 -18q33 0 54 18t21 48q0 29 -20.5 45.5t-56.5 16.5h-34v58h33q31 0 50 15t19 41t-19 42t-49 16q-31 0 -51.5 -17.5t-23.5 -46.5h-71q4 55 44 88t102 33q61 0 99.5 -31
t38.5 -80q0 -30 -17 -52.5t-46 -33.5q34 -10 54 -36zM742 640l-481 -652l-54 40l481 652zM883 172q22 -26 22 -61q0 -52 -42.5 -85t-109.5 -33t-110 33t-43 85q0 35 22 61t61 37q-33 11 -52.5 35t-19.5 55q0 49 39 79t103 30q63 0 102.5 -30t39.5 -79q0 -32 -19.5 -56
t-52.5 -34q38 -11 60 -37zM700.5 335q-20.5 -16 -20.5 -42t20 -42t53 -16q32 0 52.5 16t20.5 42t-20.5 42t-52.5 16t-52.5 -16zM811.5 68q22.5 18 22.5 48q0 29 -22.5 47t-58.5 18q-37 0 -59.5 -18t-22.5 -47q0 -30 22.5 -48t59.5 -18q36 0 58.5 18z" />
    <glyph glyph-name="fiveeighths" unicode="&#x215d;" horiz-adv-x="936" 
d="M301 495.5q36 -37.5 36 -96.5q0 -62 -41.5 -100.5t-107.5 -38.5q-67 0 -105 31.5t-43 89.5h72q4 -31 24 -47t52 -16q34 0 55.5 22.5t21.5 58.5t-21 58.5t-55 22.5q-23 0 -41.5 -11t-27.5 -30h-68l3 229h259v-58h-196l-2 -115q35 38 93 38q56 0 92 -37.5zM736 640
l-481 -652l-54 40l481 652zM877 172q22 -26 22 -61q0 -52 -42.5 -85t-109.5 -33t-110 33t-43 85q0 35 22 61t61 37q-33 11 -52.5 35t-19.5 55q0 49 39 79t103 30q63 0 102.5 -30t39.5 -79q0 -32 -19.5 -56t-52.5 -34q38 -11 60 -37zM694.5 335q-20.5 -16 -20.5 -42t20 -42
t53 -16q32 0 52.5 16t20.5 42t-20.5 42t-52.5 16t-52.5 -16zM805.5 68q22.5 18 22.5 48q0 29 -22.5 47t-58.5 18q-37 0 -59.5 -18t-22.5 -47q0 -30 22.5 -48t59.5 -18q36 0 58.5 18z" />
    <glyph glyph-name="seveneighths" unicode="&#x215e;" horiz-adv-x="856" 
d="M26 668h281v-62q-128 -115 -145 -339h-79q11 109 50 195t106 146h-213v60zM656 640l-481 -652l-54 40l481 652zM797 172q22 -26 22 -61q0 -52 -42.5 -85t-109.5 -33t-110 33t-43 85q0 35 22 61t61 37q-33 11 -52.5 35t-19.5 55q0 49 39 79t103 30q63 0 102.5 -30
t39.5 -79q0 -32 -19.5 -56t-52.5 -34q38 -11 60 -37zM614.5 335q-20.5 -16 -20.5 -42t20 -42t53 -16q32 0 52.5 16t20.5 42t-20.5 42t-52.5 16t-52.5 -16zM725.5 68q22.5 18 22.5 48q0 29 -22.5 47t-58.5 18q-37 0 -59.5 -18t-22.5 -47q0 -30 22.5 -48t59.5 -18
q36 0 58.5 18z" />
    <glyph glyph-name="arrowleft" unicode="&#x2190;" horiz-adv-x="837" 
d="M190 388h588v-77h-587l178 -178l-48 -50l-267 267l267 268l49 -51z" />
    <glyph glyph-name="arrowup" unicode="&#x2191;" horiz-adv-x="580" 
d="M290 724l268 -267l-51 -48l-179 179v-588h-77v587l-178 -178l-50 48z" />
    <glyph glyph-name="arrowright" unicode="&#x2192;" horiz-adv-x="837" 
d="M468 567l48 51l267 -268l-267 -267l-49 50l180 179h-588v77h587z" />
    <glyph glyph-name="arrowdown" unicode="&#x2193;" horiz-adv-x="583" 
d="M330 112l179 179l50 -48l-267 -267l-268 267l50 48l179 -178v587h77v-588z" />
    <glyph glyph-name="arrowboth" unicode="&#x2194;" horiz-adv-x="992" 
d="M364 136l-49 -50l-263 264l263 264l49 -50l-178 -178h620l-177 178l48 50l263 -264l-263 -264l-48 50l177 178h-620z" />
    <glyph glyph-name="arrowupdn" unicode="&#x2195;" horiz-adv-x="532" 
d="M496 207l-230 -231l-230 231l48 49l145 -147v482l-145 -147l-48 49l230 231l230 -231l-48 -49l-145 147v-482l145 147z" />
    <glyph glyph-name="uni2196" unicode="&#x2196;" horiz-adv-x="623" 
d="M180 550l415 -416l-54 -54l-416 415v-252l-69 -2v378l378 1l-1 -70h-253z" />
    <glyph glyph-name="uni2197" unicode="&#x2197;" horiz-adv-x="624" 
d="M567 619l1 -378l-70 2v253l-415 -416l-55 55l415 415h-252l-1 69h377z" />
    <glyph glyph-name="uni2198" unicode="&#x2198;" horiz-adv-x="623" 
d="M498 205v252l69 2v-378l-378 -1l2 70h253l-416 416l55 54z" />
    <glyph glyph-name="uni2199" unicode="&#x2199;" horiz-adv-x="624" 
d="M596 565l-416 -415h252l2 -69h-377l-1 378l70 -2v-253l415 416z" />
    <glyph glyph-name="partialdiff" unicode="&#x2202;" horiz-adv-x="568" 
d="M188 719q161 -77 245 -189t84 -265q0 -84 -28.5 -146.5t-81.5 -96.5t-124 -34q-69 0 -123.5 32t-85 89t-30.5 129q0 71 28.5 127.5t79.5 88.5t115 32q85 0 136 -57q-35 70 -101.5 124.5t-166.5 103.5zM386.5 111.5q39.5 47.5 39.5 126.5q0 78 -39.5 125.5t-104.5 47.5
q-66 0 -105.5 -47.5t-39.5 -125.5q0 -79 39.5 -126.5t105.5 -47.5q65 0 104.5 47.5z" />
    <glyph glyph-name="uni2206" unicode="&#x2206;" horiz-adv-x="650" 
d="M621 0h-592v82l242 618h107l243 -618v-82zM122 81h405l-167 434q-21 51 -35 100q-13 -39 -35 -100z" />
    <glyph glyph-name="product" unicode="&#x220f;" horiz-adv-x="671" 
d="M637 700v-81h-93v-735h-88v735h-240v-735h-89v735h-92v81h602z" />
    <glyph glyph-name="summation" unicode="&#x2211;" horiz-adv-x="532" 
d="M39 700h455v-81h-355l242 -302v-50l-242 -302h355v-81h-455v89l255 319l-255 319v89z" />
    <glyph glyph-name="minus" unicode="&#x2212;" horiz-adv-x="580" 
d="M523 261h-466v76h466v-76z" />
    <glyph glyph-name="uni2215" unicode="&#x2215;" horiz-adv-x="523" 
d="M508 708l-420 -813l-73 36l420 814z" />
    <glyph glyph-name="uni2219" unicode="&#x2219;" horiz-adv-x="332" 
d="M218 291h-103v122h103v-122z" />
    <glyph glyph-name="radical" unicode="&#x221a;" horiz-adv-x="706" 
d="M307 0l-136 350l-98 -44l-26 66l176 78l88 -233q26 -65 42 -113q20 64 38 113l206 566h87l-286 -783h-91z" />
    <glyph glyph-name="infinity" unicode="&#x221e;" horiz-adv-x="855" 
d="M709 450.5q42 -22.5 66 -62t24 -88.5q0 -50 -24 -90t-66 -62.5t-95 -22.5q-63 0 -106.5 28t-80.5 80q-36 -52 -79.5 -80t-107.5 -28q-53 0 -95.5 22.5t-66 62.5t-23.5 90q0 49 24 88.5t66 62t95 22.5q64 0 107.5 -28t79.5 -80q37 52 80.5 80t106.5 28q53 0 95 -22.5z
M320 222q32 27 64 77q-32 50 -64 77t-80 27q-45 0 -75 -29.5t-30 -74.5t30 -74.5t75 -29.5q48 0 80 27zM689 224.5q30 29.5 30 74.5t-30 74.5t-76 29.5q-47 0 -79 -27t-64 -77q32 -50 64 -77t79 -27q46 0 76 29.5z" />
    <glyph glyph-name="integral" unicode="&#x222b;" horiz-adv-x="354" 
d="M25 -200v73h42q67 0 67 66v633q0 128 130 128h65v-73h-43q-66 0 -66 -66v-633q0 -128 -130 -128h-65z" />
    <glyph glyph-name="approxequal" unicode="&#x2248;" horiz-adv-x="641" 
d="M375 342q-28 11 -69 34q-31 18 -50.5 26.5t-40.5 8.5q-29 0 -45 -18.5t-17 -53.5h-82q1 71 36 109t100 38q35 0 63 -11t69 -34q31 -18 50.5 -26.5t40.5 -8.5q29 0 45 18.5t18 53.5h81q-1 -72 -36 -109.5t-100 -37.5q-35 0 -63 11zM375 122q-28 11 -69 34
q-31 18 -50.5 26.5t-40.5 8.5q-29 0 -45 -18.5t-17 -53.5h-82q1 71 36 109t100 38q35 0 63 -11t69 -34q31 -18 50.5 -26.5t40.5 -8.5q29 0 45 18.5t18 53.5h81q-1 -72 -36 -109.5t-100 -37.5q-35 0 -63 11z" />
    <glyph glyph-name="notequal" unicode="&#x2260;" horiz-adv-x="592" 
d="M536 451v-76h-163l-65 -151h228v-76h-261l-50 -117h-79l50 117h-132v76h165l65 151h-230v76h263l50 116h78l-50 -116h131z" />
    <glyph glyph-name="lessequal" unicode="&#x2264;" horiz-adv-x="588" 
d="M514 156l-454 188v89l454 187v-83l-297 -121q-15 -6 -77 -28q42 -14 77 -28l297 -120v-84zM514 17h-454v76h454v-76z" />
    <glyph glyph-name="greaterequal" unicode="&#x2265;" horiz-adv-x="588" 
d="M74 156v84l297 120q35 14 77 28q-62 22 -77 28l-297 121v83l454 -187v-89zM528 17h-454v76h454v-76z" />
    <glyph glyph-name="uni2460" unicode="&#x2460;" horiz-adv-x="941" 
d="M679.5 703.5q94.5 -54.5 149.5 -148t55 -205.5t-55 -205.5t-149.5 -148t-208.5 -54.5t-209 54t-150 147.5t-55 206.5q0 112 55 205.5t150 148t209 54.5t208.5 -54.5zM643.5 56.5q77.5 44.5 122 122t44.5 171.5t-45 171t-122.5 122t-171.5 45t-172 -45t-123 -122t-45 -171
t45 -171t123 -122t172 -45q95 0 172.5 44.5zM385 421l-42 36l94 114h75v-441h-76v354z" />
    <glyph glyph-name="uni2461" unicode="&#x2461;" horiz-adv-x="941" 
d="M679.5 703.5q94.5 -54.5 149.5 -148t55 -205.5t-55 -205.5t-149.5 -148t-208.5 -54.5t-209 54t-150 147.5t-55 206.5q0 112 55 205.5t150 148t209 54.5t208.5 -54.5zM643.5 56.5q77.5 44.5 122 122t44.5 171.5t-45 171t-122.5 122t-171.5 45t-172 -45t-123 -122t-45 -171
t45 -171t123 -122t172 -45q95 0 172.5 44.5zM458 250q-42 -30 -56 -56h218v-64h-317q3 53 30 94t83 82l50 36q71 52 71 103q0 30 -20 50t-53 20q-34 0 -55.5 -22t-23.5 -57h-78q2 67 45.5 105t112.5 38q68 0 110 -37t42 -97q0 -41 -26 -79t-82 -79z" />
    <glyph glyph-name="uni2462" unicode="&#x2462;" horiz-adv-x="941" 
d="M679.5 703.5q94.5 -54.5 149 -148t54.5 -205.5t-54.5 -205.5t-149 -148t-208.5 -54.5t-209 54t-150 147.5t-55 206.5q0 112 55 205.5t150 148t209 54.5t208.5 -54.5zM643.5 56.5q77.5 44.5 122 122t44.5 171.5t-45 171t-122.5 122t-171.5 45t-172 -45t-123 -122t-45 -171
t45 -171t123 -122t172 -45q95 0 172.5 44.5zM609.5 322q21.5 -28 21.5 -66q0 -59 -45.5 -96.5t-116.5 -37.5q-76 0 -121 37.5t-48 103.5h81q3 -37 26.5 -57t61.5 -20q36 0 59.5 20t23.5 53q0 31 -23 49.5t-61 18.5h-39v64h37q34 0 54.5 16.5t20.5 44.5t-21 45.5t-53 17.5
q-33 0 -55.5 -19t-26.5 -50h-79q5 61 49 97t112 36q67 0 109.5 -34t42.5 -88q0 -32 -18.5 -57.5t-50.5 -37.5q38 -12 59.5 -40z" />
    <glyph glyph-name="uni2463" unicode="&#x2463;" horiz-adv-x="941" 
d="M679.5 703.5q94.5 -54.5 149.5 -148t55 -205.5t-55 -205.5t-149.5 -148t-208.5 -54.5t-209 54t-150 147.5t-55 206.5q0 112 55 205.5t150 148t209 54.5t208.5 -54.5zM643.5 56.5q77.5 44.5 122 122t44.5 171.5t-45 171t-122.5 122t-171.5 45t-172 -45t-123 -122t-45 -171
t45 -171t123 -122t172 -45q95 0 172.5 44.5zM462 571h99v-258h63v-63h-63v-120h-75v120h-220v68zM486 313v190l-25 -35l-95 -122q-16 -22 -27 -33h147z" />
    <glyph glyph-name="uni2464" unicode="&#x2464;" horiz-adv-x="941" 
d="M679.5 703.5q94.5 -54.5 149 -148t54.5 -205.5t-54.5 -205.5t-149 -148t-208.5 -54.5t-209 54t-150 147.5t-55 206.5q0 112 55 205.5t150 148t209 54.5t208.5 -54.5zM643.5 56.5q77.5 44.5 122 122t44.5 171.5t-45 171t-122.5 122t-171.5 45t-172 -45t-123 -122t-45 -171
t45 -171t123 -122t172 -45q95 0 172.5 44.5zM594.5 381.5q39.5 -41.5 39.5 -106.5q0 -67 -46 -110t-117 -43q-73 0 -116 35t-47 99h79q5 -32 26 -51t57 -19q38 0 61.5 24.5t23.5 64.5t-23 64t-60 24q-25 0 -45.5 -11.5t-30.5 -32.5h-74l2 252h285v-64h-215l-2 -126
q37 42 101 42q62 0 101.5 -41.5z" />
    <glyph glyph-name="uni2465" unicode="&#x2465;" horiz-adv-x="941" 
d="M679.5 703.5q94.5 -54.5 149.5 -148t55 -205.5t-55 -205.5t-149.5 -148t-208.5 -54.5t-209 54t-150 147.5t-55 206.5q0 112 55 205.5t150 148t209 54.5t208.5 -54.5zM643.5 56.5q77.5 44.5 122 122t44.5 171.5t-45 171t-122.5 122t-171.5 45t-172 -45t-123 -122t-45 -171
t45 -171t123 -122t172 -45q95 0 172.5 44.5zM594.5 375q41.5 -41 41.5 -103q0 -43 -21.5 -77t-58.5 -53.5t-83 -19.5q-85 0 -131 59.5t-46 168.5q0 108 48 168.5t132 60.5q64 0 104.5 -33.5t47.5 -90.5h-80q-5 30 -24.5 45t-49.5 15q-47 0 -74 -42.5t-27 -120.5q17 30 47 47
t71 17q62 0 103.5 -41zM531 210q24 24 24 61t-24 60.5t-61 23.5q-38 0 -62 -23.5t-24 -60.5t24.5 -61t61.5 -24t61 24z" />
    <glyph glyph-name="uni2466" unicode="&#x2466;" horiz-adv-x="941" 
d="M679.5 703.5q94.5 -54.5 149 -148t54.5 -205.5t-54.5 -205.5t-149 -148t-208.5 -54.5t-209 54t-150 147.5t-55 206.5q0 112 55 205.5t150 148t209 54.5t208.5 -54.5zM643.5 56.5q77.5 44.5 122 122t44.5 171.5t-45 171t-122.5 122t-171.5 45t-172 -45t-123 -122t-45 -171
t45 -171t123 -122t172 -45q95 0 172.5 44.5zM317 505v66h310v-69q-71 -63 -110.5 -155t-49.5 -217h-87q11 120 54.5 215t117.5 160h-235z" />
    <glyph glyph-name="uni2467" unicode="&#x2467;" horiz-adv-x="941" 
d="M679.5 703.5q94.5 -54.5 149.5 -148t55 -205.5t-55 -205.5t-149.5 -148t-208.5 -54.5t-209 54t-150 147.5t-55 206.5q0 112 55 205.5t150 148t209 54.5t208.5 -54.5zM643.5 56.5q77.5 44.5 122 122t44.5 171.5t-45 171t-122.5 122t-171.5 45t-172 -45t-123 -122t-45 -171
t45 -171t123 -122t172 -45q95 0 172.5 44.5zM614.5 318.5q24.5 -28.5 24.5 -67.5q0 -57 -47.5 -93.5t-121.5 -36.5t-121 36t-47 94q0 39 24 67.5t67 40.5q-36 11 -58 37.5t-22 61.5q0 53 44 86.5t113 33.5q70 0 113.5 -33.5t43.5 -86.5q0 -35 -22 -61t-58 -38
q43 -12 67.5 -40.5zM413 497q-22 -18 -22 -46q0 -29 22 -46.5t57 -17.5q36 0 58 17.5t22 46.5q0 28 -22.5 46t-57.5 18t-57 -18zM534.5 204q24.5 20 24.5 52t-24.5 51.5t-64.5 19.5t-64 -19.5t-24 -51.5t24.5 -52t63.5 -20q40 0 64.5 20z" />
    <glyph glyph-name="uni2468" unicode="&#x2468;" horiz-adv-x="941" 
d="M679 704q95 -54 150 -147.5t55 -206.5q0 -112 -55 -205.5t-150 -148t-209 -54.5t-208.5 54.5t-149.5 148t-55 205.5t55 205.5t149.5 148t208.5 54.5t209 -54zM641.5 57.5q77.5 44.5 122.5 121.5t45 171t-45 171t-122.5 121.5t-171.5 44.5q-95 0 -172 -44t-121.5 -121
t-44.5 -172q0 -94 44.5 -171t122 -121.5t171.5 -44.5t171.5 44.5zM596 518q47 -60 47 -168q0 -107 -48 -168t-132 -61q-65 0 -105.5 33.5t-46.5 90.5h79q5 -29 24.5 -44.5t49.5 -15.5q46 0 72.5 41.5t27.5 118.5q-17 -29 -47 -45t-70 -16q-62 0 -103 41t-41 103q0 43 21 77
t58 53.5t83 19.5q84 0 131 -60zM529.5 369q24.5 24 24.5 60q0 37 -24.5 61t-61.5 24t-61 -24t-24 -61q0 -36 24 -60t61 -24t61.5 24z" />
    <glyph glyph-name="uni24EA" unicode="&#x24ea;" horiz-adv-x="941" 
d="M262 -4q-95 54 -150 147.5t-55 206.5q0 112 55 205.5t150 148t209 54.5t208.5 -54.5t149.5 -148t55 -205.5t-55 -205.5t-149.5 -148t-208.5 -54.5t-209 54zM643.5 56.5q77.5 44.5 122 122t44.5 171.5t-45 171t-122.5 122t-171.5 45t-172 -45t-123 -122t-45 -171t45 -171
t123 -122t172 -45q95 0 172.5 44.5zM343 182q-45 60 -45 168t45 168.5t127 60.5t127.5 -60t45.5 -169q0 -108 -45.5 -168t-127.5 -60t-127 60zM539 229.5q24 42.5 24 120.5q0 79 -24 121.5t-69 42.5q-44 0 -68.5 -42.5t-24.5 -121.5q0 -78 24.5 -120.5t68.5 -42.5
q45 0 69 42.5z" />
    <glyph glyph-name="uni24FF" unicode="&#x24ff;" horiz-adv-x="941" 
d="M262 -4q-95 54 -150 147.5t-55 206.5q0 112 55 205.5t150 148t209 54.5t208.5 -54.5t149.5 -148t55 -205.5t-55 -205.5t-149.5 -148t-208.5 -54.5t-209 54zM597.5 182q45.5 60 45.5 168q0 109 -45.5 169t-127.5 60t-127 -60.5t-45 -168.5t45 -168t127 -60t127.5 60z
M401.5 229.5q-24.5 42.5 -24.5 120.5q0 79 24.5 121.5t68.5 42.5q45 0 69 -42.5t24 -121.5q0 -78 -24 -120.5t-69 -42.5q-44 0 -68.5 42.5z" />
    <glyph glyph-name="filledbox" unicode="&#x25a0;" horiz-adv-x="887" 
d="M793 0h-700v700h700v-700z" />
    <glyph glyph-name="uni25A1" unicode="&#x25a1;" horiz-adv-x="887" 
d="M793 0h-700v700h700v-700zM174 622v-544h539v544h-539z" />
    <glyph glyph-name="triagup" unicode="&#x25b2;" horiz-adv-x="900" 
d="M450 752l436 -754h-872z" />
    <glyph glyph-name="uni25B3" unicode="&#x25b3;" horiz-adv-x="900" 
d="M886 -2h-872l436 754zM450 589l-297 -511h595z" />
    <glyph glyph-name="uni25B6" unicode="&#x25b6;" horiz-adv-x="847" 
d="M802 350l-698 -404v807z" />
    <glyph glyph-name="uni25B7" unicode="&#x25b7;" horiz-adv-x="849" 
d="M802 350l-698 -404v807zM184 615v-530l458 265z" />
    <glyph glyph-name="triagdn" unicode="&#x25bc;" horiz-adv-x="901" 
d="M886 700l-436 -754l-436 754h872z" />
    <glyph glyph-name="uni25BD" unicode="&#x25bd;" horiz-adv-x="901" 
d="M886 700l-436 -754l-436 754h872zM153 620l297 -511l298 511h-595z" />
    <glyph glyph-name="uni25C0" unicode="&#x25c0;" horiz-adv-x="847" 
d="M743 753v-807l-697 404z" />
    <glyph glyph-name="uni25C1" unicode="&#x25c1;" horiz-adv-x="849" 
d="M745 753v-807l-698 404zM207 350l459 -265v530z" />
    <glyph glyph-name="lozenge" unicode="&#x25ca;" horiz-adv-x="597" 
d="M344 0h-90l-204 350l204 350h90l203 -350zM333 142l119 208l-119 208q-16 26 -34 66l-34 -66l-120 -208l120 -208l34 -65q20 41 34 65z" />
    <glyph glyph-name="circle" unicode="&#x25cb;" horiz-adv-x="870" 
d="M626.5 23q86.5 50 136 136.5t49.5 191.5q0 104 -49.5 190.5t-136 136t-190.5 49.5q-105 0 -191.5 -49.5t-136.5 -136t-50 -190.5q0 -105 50 -191.5t136.5 -136.5t191.5 -50q104 0 190.5 50zM287 92.5q-67 39.5 -106 107.5t-39 151q0 82 39 149.5t106 107t149 39.5
q81 0 148 -39.5t105.5 -107t38.5 -149.5q0 -83 -38.5 -151t-105.5 -107.5t-148 -39.5q-82 0 -149 39.5z" />
    <glyph glyph-name="uni25CF" unicode="&#x25cf;" horiz-adv-x="869" 
d="M245.5 24q-86.5 51 -137.5 137.5t-51 189.5q0 102 51 188.5t137.5 137t189.5 50.5q102 0 188.5 -50.5t137 -137t50.5 -188.5q0 -103 -50.5 -189.5t-137 -137.5t-188.5 -51q-103 0 -189.5 51z" />
    <glyph glyph-name="uni2661" unicode="&#x2661;" horiz-adv-x="865" 
d="M361 19q-160 135 -237.5 252.5t-77.5 224.5q0 64 26 114t72.5 78.5t105.5 28.5q66 0 113 -32.5t70 -84.5q23 52 70 84.5t113 32.5q59 0 105.5 -28.5t72.5 -78.5t26 -114q0 -107 -77.5 -224.5t-237.5 -252.5l-72 -61zM667 299q74 104 74 197q0 65 -35 104t-92 39
q-50 0 -83.5 -29.5t-53.5 -92.5h-88q-19 63 -52.5 92.5t-85.5 29.5q-57 0 -92 -39t-35 -104q0 -94 75 -198.5t234 -235.5q160 133 234 237z" />
    <glyph glyph-name="heart" unicode="&#x2665;" horiz-adv-x="865" 
d="M361 19q-160 134 -237.5 251.5t-77.5 225.5q0 65 25.5 115.5t72 78t106.5 27.5q66 0 113 -32.5t70 -84.5q23 52 70 84.5t113 32.5q60 0 106.5 -27.5t72 -78t25.5 -115.5q0 -108 -77.5 -225.5t-237.5 -251.5l-72 -61z" />
    <glyph glyph-name="uni2713" unicode="&#x2713;" horiz-adv-x="821" 
d="M799 666l-476 -678l-277 357l62 50l213 -276l414 593z" />
    <glyph glyph-name="uni2715" unicode="&#x2715;" horiz-adv-x="765" 
d="M382 294l-294 -294l-56 54l295 295l-295 296l55 55l295 -295l295 295l55 -55l-295 -296l295 -295l-56 -54z" />
    <glyph glyph-name="uni2776" unicode="&#x2776;" horiz-adv-x="941" 
d="M262 -4q-95 54 -150 147.5t-55 206.5q0 112 55 205.5t150 148t209 54.5t208.5 -54.5t149.5 -148t55 -205.5t-55 -205.5t-149.5 -148t-208.5 -54.5t-209 54zM436 483v-353h76v441h-75l-94 -114l42 -36z" />
    <glyph glyph-name="uni2777" unicode="&#x2777;" horiz-adv-x="941" 
d="M262 -4q-95 54 -150 147.5t-55 206.5q0 112 55 205.5t150 148t209 54.5t208.5 -54.5t149.5 -148t55 -205.5t-55 -205.5t-149.5 -148t-208.5 -54.5t-209 54zM620 130v64h-218q14 24 56 56l51 37q56 41 82 79t26 79q0 60 -42 97t-110 37q-69 0 -112.5 -38t-45.5 -105h78
q2 35 23.5 57t55.5 22q33 0 53 -20t20 -50q0 -51 -71 -103l-50 -36q-56 -41 -83 -82t-30 -94h317z" />
    <glyph glyph-name="uni2778" unicode="&#x2778;" horiz-adv-x="941" 
d="M262 -4q-95 54 -150 147.5t-55 206.5q0 112 55 205.5t150 148t209 54.5t208.5 -54.5t149 -148t54.5 -205.5t-54.5 -205.5t-149 -148t-208.5 -54.5t-209 54zM585.5 159.5q45.5 37.5 45.5 96.5q0 38 -21.5 66t-59.5 40q33 12 51 37t18 58q0 54 -42.5 88t-109.5 34
q-68 0 -112 -36t-49 -97h79q4 31 26.5 50t55.5 19q32 0 53 -17.5t21 -45.5t-20.5 -44.5t-54.5 -16.5h-37v-64h39q38 0 61 -18.5t23 -49.5q0 -33 -23.5 -53t-59.5 -20q-38 0 -61.5 20t-26.5 57h-81q3 -66 48 -103.5t121 -37.5q71 0 116.5 37.5z" />
    <glyph glyph-name="uni2779" unicode="&#x2779;" horiz-adv-x="941" 
d="M262 -4q-95 54 -150 147.5t-55 206.5q0 112 55 205.5t150 148t209 54.5t208.5 -54.5t149.5 -148t55 -205.5t-55 -205.5t-149.5 -148t-208.5 -54.5t-209 54zM486 250v-120h75v120h63v63h-63v258h-99l-196 -253v-68h220zM339 313q11 11 27 33l95 122l25 35v-190h-147z" />
    <glyph glyph-name="uni277A" unicode="&#x277a;" horiz-adv-x="941" 
d="M262 -4q-95 54 -150 147.5t-55 206.5q0 112 55 205.5t150 148t209 54.5t208.5 -54.5t149 -148t54.5 -205.5t-54.5 -205.5t-149 -148t-208.5 -54.5t-209 54zM588 165q46 43 46 110q0 65 -39.5 106.5t-101.5 41.5q-64 0 -100 -42l1 126h215v64h-285l-2 -252h74
q10 21 30.5 32.5t45.5 11.5q37 0 60 -24t23 -64t-23.5 -64.5t-61.5 -24.5q-36 0 -57 19t-26 51h-79q4 -64 47 -99t116 -35q71 0 117 43z" />
    <glyph glyph-name="uni277B" unicode="&#x277b;" horiz-adv-x="941" 
d="M262 -4q-95 54 -150 147.5t-55 206.5q0 112 55 205.5t150 148t209 54.5t208.5 -54.5t149.5 -148t55 -205.5t-55 -205.5t-149.5 -148t-208.5 -54.5t-209 54zM556 141.5q37 19.5 58.5 53.5t21.5 77q0 62 -41.5 103t-103.5 41q-40 0 -70.5 -16.5t-47.5 -46.5
q1 79 27.5 120.5t73.5 41.5q30 0 49.5 -15t24.5 -45h80q-7 57 -47.5 90.5t-104.5 33.5q-84 0 -132 -60.5t-48 -168.5q0 -109 46 -168.5t131 -59.5q46 0 83 19.5zM408.5 210q-24.5 24 -24.5 61t24 60.5t62 23.5q37 0 61 -23.5t24 -60.5t-24 -61t-61 -24t-61.5 24z" />
    <glyph glyph-name="uni277C" unicode="&#x277c;" horiz-adv-x="941" 
d="M262 -4q-95 54 -150 147.5t-55 206.5q0 112 55 205.5t150 148t209 54.5t208.5 -54.5t149 -148t54.5 -205.5t-54.5 -205.5t-149 -148t-208.5 -54.5t-209 54zM467 130q10 125 49.5 217t110.5 155v69h-310v-66h235q-74 -66 -117.5 -160.5t-54.5 -214.5h87z" />
    <glyph glyph-name="uni277D" unicode="&#x277d;" horiz-adv-x="941" 
d="M262 -4q-95 54 -150 147.5t-55 206.5q0 112 55 205.5t150 148t209 54.5t208.5 -54.5t149.5 -148t55 -205.5t-55 -205.5t-149.5 -148t-208.5 -54.5t-209 54zM591.5 157.5q47.5 36.5 47.5 93.5q0 39 -24.5 67.5t-67.5 40.5q36 11 58 37.5t22 61.5q0 53 -43.5 86.5
t-113.5 33.5q-69 0 -113 -33.5t-44 -86.5q0 -35 22 -61.5t59 -37.5q-43 -12 -67.5 -40.5t-24.5 -67.5q0 -58 47 -94t121 -36t121.5 36.5zM413 404.5q-22 17.5 -22 46.5q0 28 22 46t57 18t57.5 -18t22.5 -46q0 -29 -22 -46.5t-58 -17.5q-35 0 -57 17.5zM406.5 204
q-24.5 20 -24.5 52t24 51.5t64 19.5t64.5 -19.5t24.5 -51.5t-24.5 -52t-64.5 -20q-39 0 -63.5 20z" />
    <glyph glyph-name="uni277E" unicode="&#x277e;" horiz-adv-x="941" 
d="M261.5 -3.5q-94.5 54.5 -149.5 148t-55 205.5t55 205.5t149.5 148t208.5 54.5t209 -54t150 -147.5t55 -206.5q0 -112 -55 -205.5t-150 -148t-209 -54.5t-208.5 54.5zM597 181.5q48 60.5 48 168.5q0 109 -46 168.5t-131 59.5q-46 0 -83 -19.5t-58.5 -53.5t-21.5 -77
q0 -62 41.5 -103t103.5 -41q40 0 70.5 16.5t47.5 46.5q-1 -79 -27.5 -120.5t-73.5 -41.5q-30 0 -49.5 15t-24.5 45h-80q7 -57 47.5 -90.5t104.5 -33.5q84 0 132 60.5zM410 368.5q-24 23.5 -24 60.5t24 61t61 24t61.5 -24t24.5 -61t-24 -60.5t-62 -23.5q-37 0 -61 23.5z" />
    <glyph glyph-name="uni2940" unicode="&#x2940;" horiz-adv-x="1207" 
d="M457 444l48 -49l-229 -228l-230 228l49 49l144 -148v30q0 112 47.5 200t131 137t187.5 49q56 0 108.5 -16t96.5 -45v-90q-42 37 -94.5 56.5t-110.5 19.5q-84 0 -150.5 -39t-104 -109.5t-37.5 -162.5v-30zM1161 305l-49 -49l-145 148v-30q0 -113 -47.5 -200.5t-131 -136.5
t-187.5 -49q-55 0 -108 16t-97 45v90q42 -37 94.5 -56.5t110.5 -19.5q84 0 151 39t104.5 109.5t37.5 162.5v31l-144 -149l-49 49l230 228z" />
    <glyph glyph-name="uni2941" unicode="&#x2941;" horiz-adv-x="1207" 
d="M1112 444l49 -49l-230 -228l-229 228l48 49l144 -148v30q0 92 -37.5 162.5t-104.5 109.5t-151 39q-58 0 -110 -19.5t-94 -56.5v90q43 29 96 45t108 16q105 0 188.5 -49t131 -137t47.5 -200v-30zM313 374q0 -92 37.5 -162.5t104.5 -109.5t151 -39q117 0 205 76v-90
q-44 -29 -97 -45t-108 -16q-105 0 -188.5 49t-131 136.5t-47.5 200.5v30l-144 -148l-49 49l230 228l229 -228l-48 -49l-144 148v-30z" />
    <glyph glyph-name="uniF000" unicode="&#xf000;" horiz-adv-x="1383" 
d="M1332 0h-1266l211 109l-216 124l272 1l-176 231l266 -103l-50 249l191 -201l10 304l143 -302l87 267l69 -267l173 251l-58 -334l199 121l-109 -227l254 -193v-30zM1117.5 72q11.5 12 11.5 28q0 17 -11.5 28.5t-28.5 11.5q-16 0 -28 -11.5t-12 -28.5q0 -16 12 -28t28 -12
q17 0 28.5 12zM1081.5 83.5q-6.5 6.5 -6.5 16.5t6.5 16.5t16.5 6.5t16.5 -6.5t6.5 -16.5t-6.5 -16.5t-16.5 -6.5t-16.5 6.5z" />
    <glyph glyph-name="uniF8FF" unicode="&#xf8ff;" horiz-adv-x="777" 
d="M99.5 6.5q-6.5 6.5 -6.5 15.5v595q0 7 4.5 13.5t11.5 8.5l270 78l10 2l10 -2l270 -78q7 -2 11.5 -8.5t4.5 -13.5v-595q0 -9 -6.5 -15.5t-15.5 -6.5l-7 1l-267 77l-267 -77l-7 -1q-9 0 -15.5 6.5zM367 669l-230 -67q4 -62 35 -114t82.5 -84.5t112.5 -37.5v303zM411 366
q61 5 112.5 37.5t82.5 84.5t35 114l-230 67v-303zM136 51l231 67v204q-73 6 -134 43.5t-97 97.5v-412zM642 463q-37 -60 -97.5 -97.5t-133.5 -43.5v-204l231 -67v412z" />
    <glyph glyph-name="fi" unicode="&#xfb01;" horiz-adv-x="565" 
d="M256 627q-66 0 -66 -66v-91h119v-71h-119v-399h-86v399h-73v71h73v102q0 128 130 128h75v-73h-53zM489 0h-87v470h87v-470zM494 556h-96v112h96v-112z" />
    <glyph glyph-name="fl" unicode="&#xfb02;" horiz-adv-x="565" 
d="M256 627q-66 0 -66 -66v-91h119v-71h-119v-399h-86v399h-73v71h73v102q0 128 130 128h75v-73h-53zM489 0h-87v700h87v-700z" />
    <glyph glyph-name="Q.ss01" horiz-adv-x="791" 
d="M708.5 187q-31.5 -73 -89.5 -122l51 -64l-64 -51l-57 71q-69 -33 -154 -33q-100 0 -178.5 45.5t-122.5 128t-44 188.5t45 188.5t123.5 128t176.5 45.5q100 0 178.5 -45.5t122.5 -128t44 -188.5q0 -90 -31.5 -163zM494 89l-68 84l65 52l72 -90q39 38 60.5 93t21.5 122
q0 81 -31.5 145t-88.5 100t-130 36q-72 0 -128.5 -36t-88.5 -99.5t-32 -145.5t32 -145.5t88.5 -99.5t128.5 -36q53 0 99 20z" />
    <glyph glyph-name="R.ss02" horiz-adv-x="648" 
d="M506 0l-194 308h-128v-308h-91v700h271q67 0 118 -24.5t78.5 -68.5t27.5 -103q0 -72 -45.5 -124t-133.5 -66l203 -314h-106zM184 620v-232h170q67 0 103 30t36 86q0 55 -36.5 85.5t-102.5 30.5h-170z" />
    <glyph glyph-name="Racute.ss02" horiz-adv-x="648" 
d="M506 0l-194 308h-128v-308h-91v700h271q67 0 118 -24.5t78.5 -68.5t27.5 -103q0 -72 -45.5 -124t-133.5 -66l203 -314h-106zM184 620v-232h170q67 0 103 30t36 86q0 55 -36.5 85.5t-102.5 30.5h-170zM350 779h-72l63 126h99z" />
    <glyph glyph-name="Rcaron.ss02" horiz-adv-x="648" 
d="M506 0l-194 308h-128v-308h-91v700h271q67 0 118 -24.5t78.5 -68.5t27.5 -103q0 -72 -45.5 -124t-133.5 -66l203 -314h-106zM184 620v-232h170q67 0 103 30t36 86q0 55 -36.5 85.5t-102.5 30.5h-170zM265 780l-107 123h86l27 -28q24 -28 45 -54q21 28 45 54l26 28h86
l-107 -123h-101z" />
    <glyph glyph-name="uni0156.ss02" horiz-adv-x="648" 
d="M506 0l-194 308h-128v-308h-91v700h271q67 0 118 -24.5t78.5 -68.5t27.5 -103q0 -72 -45.5 -124t-133.5 -66l203 -314h-106zM184 620v-232h170q67 0 103 30t36 86q0 55 -36.5 85.5t-102.5 30.5h-170zM279 -77h90v-110q0 -47 -24 -74.5t-70 -30.5v42q26 5 37 20t11 43v6
h-44v104z" />
    <glyph glyph-name="Adieresis.ss04" horiz-adv-x="684" 
d="M668 0h-98l-69 180h-322l-67 -180h-96l273 700h106zM209 260h262l-102 268q-15 41 -30 90q-15 -49 -30 -90zM209.5 802.5q-16.5 16.5 -16.5 39.5t16.5 39.5t39.5 15.5q24 1 40 -15t16 -40q0 -23 -16 -39.5t-40 -15.5q-23 -1 -39.5 15.5zM395 802.5q-16 16.5 -16 39.5
q0 24 16 40t40 15q23 1 39.5 -15.5t16.5 -39.5t-16.5 -39.5t-39.5 -15.5q-24 -1 -40 15.5z" />
    <glyph glyph-name="Cdotaccent.ss04" horiz-adv-x="734" 
d="M214 33.5q-77 45.5 -120.5 128t-43.5 188.5t44.5 188.5t122.5 128t174 45.5q123 0 203.5 -62t97.5 -167h-94q-17 67 -72.5 107.5t-134.5 40.5q-71 0 -127 -35.5t-87 -99.5t-31 -146t31 -146t86 -99.5t126 -35.5q75 0 129.5 39.5t78.5 108.5h95q-14 -67 -57.5 -119
t-107.5 -81t-139 -29q-97 0 -174 45.5zM348 799.5q-18 17.5 -18 41.5q0 26 17.5 43.5t43.5 17.5t44 -17.5t18 -43.5q0 -24 -18 -41.5t-44 -18.5q-25 1 -43 18.5z" />
    <glyph glyph-name="Edieresis.ss04" horiz-adv-x="595" 
d="M184 325v-244h360v-81h-451v700h447v-81h-356v-212h312v-82h-312zM191.5 802.5q-16.5 16.5 -16.5 39.5t16.5 39.5t39.5 15.5q24 1 40 -15t16 -40q0 -23 -16 -39.5t-40 -15.5q-23 -1 -39.5 15.5zM377 802.5q-16 16.5 -16 39.5q0 24 16 40t40 15q23 1 39.5 -15.5
t16.5 -39.5t-16.5 -39.5t-39.5 -15.5q-24 -1 -40 15.5z" />
    <glyph glyph-name="Edotaccent.ss04" horiz-adv-x="595" 
d="M184 325v-244h360v-81h-451v700h447v-81h-356v-212h312v-82h-312zM280 799.5q-18 17.5 -18 41.5q0 26 17.5 43.5t43.5 17.5t44 -17.5t18 -43.5q0 -24 -18 -41.5t-44 -18.5q-25 1 -43 18.5z" />
    <glyph glyph-name="uni0122.ss04" horiz-adv-x="758" 
d="M465 323h228v-323h-79v125q-32 -67 -94 -102t-144 -35q-92 0 -166.5 46.5t-117 129.5t-42.5 186q0 104 45 186.5t123.5 129t176.5 46.5q78 0 140.5 -28t102.5 -79t51 -117h-95q-16 63 -69.5 103t-130.5 40q-72 0 -128.5 -36t-88 -100t-31.5 -145q0 -80 31.5 -144.5
t87.5 -100.5t126 -36q85 0 143.5 46.5t74.5 126.5h-144v81zM338 -250q25 10 41 30t19 43l-9 -1q-24 0 -39.5 15t-15.5 38t16 38t41 15q26 0 42 -20t16 -53q0 -55 -30 -96t-81 -51v42z" />
    <glyph glyph-name="Gdotaccent.ss04" horiz-adv-x="758" 
d="M465 323h228v-323h-79v125q-32 -67 -94 -102t-144 -35q-92 0 -166.5 46.5t-117 129.5t-42.5 186q0 104 45 186.5t123.5 129t176.5 46.5q78 0 140.5 -28t102.5 -79t51 -117h-95q-16 63 -69.5 103t-130.5 40q-72 0 -128.5 -36t-88 -100t-31.5 -145q0 -80 31.5 -144.5
t87.5 -100.5t126 -36q85 0 143.5 46.5t74.5 126.5h-144v81zM350 799.5q-18 17.5 -18 41.5q0 26 17.5 43.5t43.5 17.5t44 -17.5t18 -43.5q0 -24 -18 -41.5t-44 -18.5q-25 1 -43 18.5z" />
    <glyph glyph-name="Idieresis.ss04" horiz-adv-x="276" 
d="M184 0h-91v700h91v-700zM5.5 802.5q-16.5 16.5 -16.5 39.5t16.5 39.5t39.5 15.5q24 1 40 -15t16 -40q0 -23 -16 -39.5t-40 -15.5q-23 -1 -39.5 15.5zM191 802.5q-16 16.5 -16 39.5q0 24 16 40t40 15q23 1 39.5 -15.5t16.5 -39.5t-16.5 -39.5t-39.5 -15.5q-24 -1 -40 15.5
z" />
    <glyph glyph-name="Idotaccent.ss04" horiz-adv-x="276" 
d="M184 0h-91v700h91v-700zM95 799.5q-18 17.5 -18 41.5q0 26 17.5 43.5t43.5 17.5t44 -17.5t18 -43.5q0 -24 -18 -41.5t-44 -18.5q-25 1 -43 18.5z" />
    <glyph glyph-name="uni0136.ss04" horiz-adv-x="653" 
d="M656 0h-117l-282 353l-73 -71v-282h-91v700h91v-316l329 316h120l-306 -291zM282 -250q25 10 41 30t19 43l-9 -1q-24 0 -39.5 15t-15.5 38t16 38t41 15q26 0 42 -20t16 -53q0 -55 -30 -96t-81 -51v42z" />
    <glyph glyph-name="Lcaron.ss04" horiz-adv-x="549" 
d="M184 700v-618l331 -1v-82l-422 1v700h91zM314 527q25 10 41 30t19 43l-9 -1q-24 0 -39.5 15t-15.5 38q0 22 16.5 37.5t40.5 15.5q26 0 42 -20t16 -53q0 -55 -30.5 -96t-80.5 -51v42z" />
    <glyph glyph-name="uni013B.ss04" horiz-adv-x="546" 
d="M184 700v-618l331 -1v-82l-422 1v700h91zM254 -250q25 10 41 30t19 43l-9 -1q-24 0 -39.5 15t-15.5 38t16 38t41 15q26 0 42 -20t16 -53q0 -55 -30 -96t-81 -51v42z" />
    <glyph glyph-name="Ldot.ss04" horiz-adv-x="543" 
d="M184 700v-618l331 -1v-82l-422 1v700h91zM354.5 328.5q-18.5 18.5 -18.5 44.5t18.5 44.5t45.5 18.5q26 0 45 -18.5t19 -44.5t-19 -44.5t-45 -18.5q-27 0 -45.5 18.5z" />
    <glyph glyph-name="uni0145.ss04" horiz-adv-x="747" 
d="M93 0v700h126l351 -586q-2 80 -2 116v470h86v-700h-114l-364 607q3 -67 3 -130v-477h-86zM320 -250q25 10 41 30t19 43l-9 -1q-24 0 -39.5 15t-15.5 38t16 38t41 15q26 0 42 -20t16 -53q0 -55 -30 -96t-81 -51v42z" />
    <glyph glyph-name="Odieresis.ss04" horiz-adv-x="791" 
d="M216.5 33.5q-78.5 45.5 -122.5 128t-44 188.5t45 188.5t123.5 128t176.5 45.5q100 0 178.5 -45.5t122.5 -128t44 -188.5t-44 -188.5t-122.5 -128t-178.5 -45.5t-178.5 45.5zM525 105q57 36 88.5 100t31.5 145t-31.5 145t-88.5 100t-130 36q-72 0 -128.5 -36t-88.5 -99.5
t-32 -145.5t32 -145.5t88.5 -99.5t128.5 -36q73 0 130 36zM262.5 802.5q-16.5 16.5 -16.5 39.5t16.5 39.5t39.5 15.5q24 1 40 -15t16 -40q0 -23 -16 -39.5t-40 -15.5q-23 -1 -39.5 15.5zM448 802.5q-16 16.5 -16 39.5q0 24 16 40t40 15q23 1 39.5 -15.5t16.5 -39.5
t-16.5 -39.5t-39.5 -15.5q-24 -1 -40 15.5z" />
    <glyph glyph-name="uni0156.ss04" horiz-adv-x="654" 
d="M567 119q0 -37 3.5 -64.5t12.5 -54.5h-93q-8 22 -10 47t-2 74v77q0 61 -24.5 86t-91.5 25h-178v-309h-91v700h270q105 0 165 -51.5t60 -138.5q0 -61 -34 -102.5t-98 -55.5q57 -8 84 -43t27 -102v-88zM349 389q67 0 105.5 31t38.5 84q0 54 -38.5 85t-105.5 31h-165v-231
h165zM277 -250q25 10 41 30t19 43l-9 -1q-24 0 -39.5 15t-15.5 38t16 38t41 15q26 0 42 -20t16 -53q0 -55 -30 -96t-81 -51v42z" />
    <glyph glyph-name="uni0218.ss04" horiz-adv-x="628" 
d="M122 46q-72 58 -80 166h95q9 -69 56.5 -106.5t126.5 -37.5q72 0 117.5 34.5t45.5 90.5q0 45 -31 72t-95 41l-105 23q-94 20 -142 67.5t-48 120.5q0 56 32.5 100.5t88.5 69.5t124 25q113 0 184 -54.5t80 -149.5h-94q-8 59 -53.5 92.5t-115.5 33.5q-65 0 -108 -32.5
t-43 -81.5q0 -43 29 -68.5t90 -38.5l108 -23q194 -42 194 -194q0 -61 -33 -108.5t-92 -73.5t-134 -26q-125 0 -197 58zM264 -250q25 10 41 30t19 43l-9 -1q-24 0 -39.5 15t-15.5 38t16 38t41 15q26 0 42 -20t16 -53q0 -55 -30 -96t-81 -51v42z" />
    <glyph glyph-name="uni021A.ss04" horiz-adv-x="585" 
d="M27 700h531v-82h-220v-618h-91v618h-220v82zM239 -250q25 10 41 30t19 43l-9 -1q-24 0 -39.5 15t-15.5 38t16 38t41 15q26 0 42 -20t16 -53q0 -55 -30 -96t-81 -51v42z" />
    <glyph glyph-name="Udieresis.ss04" horiz-adv-x="728" 
d="M160.5 62q-74.5 74 -74.5 206v432h91v-430q0 -95 50 -148t137 -53q86 0 136.5 53t50.5 148v430h92v-430q0 -88 -34.5 -151.5t-97.5 -97t-147 -33.5q-129 0 -203.5 74zM231.5 802.5q-16.5 16.5 -16.5 39.5t16.5 39.5t39.5 15.5q24 1 40 -15t16 -40q0 -23 -16 -39.5
t-40 -15.5q-23 -1 -39.5 15.5zM417 802.5q-16 16.5 -16 39.5q0 24 16 40t40 15q23 1 39.5 -15.5t16.5 -39.5t-16.5 -39.5t-39.5 -15.5q-24 -1 -40 15.5z" />
    <glyph glyph-name="Wdieresis.ss04" horiz-adv-x="963" 
d="M212 0l-184 700h94l120 -482q13 -46 28 -122q16 71 30 121l132 483h104l132 -483q14 -50 30 -121l28 122l121 482h88l-184 -700h-110l-136 498q-3 14 -11 42l-13 55q-11 -49 -24 -97l-136 -498h-109zM357.5 802.5q-16.5 16.5 -16.5 39.5t16.5 39.5t39.5 15.5q24 1 40 -15
t16 -40q0 -23 -16 -39.5t-40 -15.5q-23 -1 -39.5 15.5zM543 802.5q-16 16.5 -16 39.5q0 24 16 40t40 15q23 1 39.5 -15.5t16.5 -39.5t-16.5 -39.5t-39.5 -15.5q-24 -1 -40 15.5z" />
    <glyph glyph-name="Ydieresis.ss04" horiz-adv-x="660" 
d="M642 700l-266 -416v-284h-91v283l-267 417h106l163 -261q28 -45 46 -76q30 52 45 76l163 261h101zM198.5 802.5q-16.5 16.5 -16.5 39.5t16.5 39.5t39.5 15.5q24 1 40 -15t16 -40q0 -23 -16 -39.5t-40 -15.5q-23 -1 -39.5 15.5zM384 802.5q-16 16.5 -16 39.5q0 24 16 40
t40 15q23 1 39.5 -15.5t16.5 -39.5t-16.5 -39.5t-39.5 -15.5q-24 -1 -40 15.5z" />
    <glyph glyph-name="Zdotaccent.ss04" horiz-adv-x="620" 
d="M571 621l-422 -540h433v-81h-542v78l423 541h-415v81h523v-79zM267 799.5q-18 17.5 -18 41.5q0 26 17.5 43.5t43.5 17.5t44 -17.5t18 -43.5q0 -24 -18 -41.5t-44 -18.5q-25 1 -43 18.5z" />
    <glyph glyph-name="uni0122.ss06" horiz-adv-x="758" 
d="M465 323h228v-323h-79v125q-32 -67 -94 -102t-144 -35q-92 0 -166.5 46.5t-117 129.5t-42.5 186q0 104 45 186.5t123.5 129t176.5 46.5q78 0 140.5 -28t102.5 -79t51 -117h-95q-16 63 -69.5 103t-130.5 40q-72 0 -128.5 -36t-88 -100t-31.5 -145q0 -80 31.5 -144.5
t87.5 -100.5t126 -36q85 0 143.5 46.5t74.5 126.5h-144v81zM360 -262h-65l50 176h93z" />
    <glyph glyph-name="uni0136.ss06" horiz-adv-x="653" 
d="M656 0h-117l-282 353l-73 -71v-282h-91v700h91v-316l329 316h120l-306 -291zM304 -262h-65l50 176h93z" />
    <glyph glyph-name="Lcaron.ss06" horiz-adv-x="549" 
d="M184 700v-618l331 -1v-82l-422 1v700h91zM363 525h-64l50 175h92z" />
    <glyph glyph-name="uni013B.ss06" horiz-adv-x="546" 
d="M184 700v-618l331 -1v-82l-422 1v700h91zM276 -262h-65l50 176h93z" />
    <glyph glyph-name="uni0145.ss06" horiz-adv-x="747" 
d="M93 0v700h126l351 -586q-2 80 -2 116v470h86v-700h-114l-364 607q3 -67 3 -130v-477h-86zM342 -262h-65l50 176h93z" />
    <glyph glyph-name="uni0156.ss06" horiz-adv-x="654" 
d="M567 119q0 -37 3.5 -64.5t12.5 -54.5h-93q-8 22 -10 47t-2 74v77q0 61 -24.5 86t-91.5 25h-178v-309h-91v700h270q105 0 165 -51.5t60 -138.5q0 -61 -34 -102.5t-98 -55.5q57 -8 84 -43t27 -102v-88zM349 389q67 0 105.5 31t38.5 84q0 54 -38.5 85t-105.5 31h-165v-231
h165zM299 -262h-65l50 176h93z" />
    <glyph glyph-name="uni0218.ss06" horiz-adv-x="628" 
d="M122 46q-72 58 -80 166h95q9 -69 56.5 -106.5t126.5 -37.5q72 0 117.5 34.5t45.5 90.5q0 45 -31 72t-95 41l-105 23q-94 20 -142 67.5t-48 120.5q0 56 32.5 100.5t88.5 69.5t124 25q113 0 184 -54.5t80 -149.5h-94q-8 59 -53.5 92.5t-115.5 33.5q-65 0 -108 -32.5
t-43 -81.5q0 -43 29 -68.5t90 -38.5l108 -23q194 -42 194 -194q0 -61 -33 -108.5t-92 -73.5t-134 -26q-125 0 -197 58zM286 -262h-65l50 176h93z" />
    <glyph glyph-name="uni021A.ss06" horiz-adv-x="585" 
d="M27 700h531v-82h-220v-618h-91v618h-220v82zM261 -262h-65l50 176h93z" />
    <glyph glyph-name="uni0156.ss02.ss06" horiz-adv-x="648" 
d="M506 0l-194 308h-128v-308h-91v700h271q67 0 118 -24.5t78.5 -68.5t27.5 -103q0 -72 -45.5 -124t-133.5 -66l203 -314h-106zM184 620v-232h170q67 0 103 30t36 86q0 55 -36.5 85.5t-102.5 30.5h-170zM292 -262h-65l50 176h93z" />
    <glyph glyph-name="i.loclTRK" horiz-adv-x="239" 
d="M163 0h-87v470h87v-470zM168 556h-96v112h96v-112z" />
    <glyph glyph-name="a.ss03" horiz-adv-x="579" 
d="M418 470h84v-470h-84v81q-23 -45 -63.5 -69t-94.5 -24q-62 0 -111 31.5t-76.5 87.5t-27.5 128t27.5 128t76.5 87.5t111 31.5q54 0 94.5 -24t63.5 -69v81zM380.5 108.5q38.5 47.5 38.5 126.5q0 78 -38.5 125.5t-102.5 47.5t-103.5 -47.5t-39.5 -125.5q0 -79 39 -126.5
t104 -47.5q64 0 102.5 47.5z" />
    <glyph glyph-name="aacute.ss03" horiz-adv-x="579" 
d="M418 470h84v-470h-84v81q-23 -45 -63.5 -69t-94.5 -24q-62 0 -111 31.5t-76.5 87.5t-27.5 128t27.5 128t76.5 87.5t111 31.5q54 0 94.5 -24t63.5 -69v81zM380.5 108.5q38.5 47.5 38.5 126.5q0 78 -38.5 125.5t-102.5 47.5t-103.5 -47.5t-39.5 -125.5q0 -79 39 -126.5
t104 -47.5q64 0 102.5 47.5zM324 549h-72l63 126h99z" />
    <glyph glyph-name="abreve.ss03" horiz-adv-x="579" 
d="M418 470h84v-470h-84v81q-23 -45 -63.5 -69t-94.5 -24q-62 0 -111 31.5t-76.5 87.5t-27.5 128t27.5 128t76.5 87.5t111 31.5q54 0 94.5 -24t63.5 -69v81zM380.5 108.5q38.5 47.5 38.5 126.5q0 78 -38.5 125.5t-102.5 47.5t-103.5 -47.5t-39.5 -125.5q0 -79 39 -126.5
t104 -47.5q64 0 102.5 47.5zM187 583q-39 34 -41 93h71q3 -31 22.5 -49t50.5 -18t50.5 18t22.5 49h71q-2 -59 -41 -93t-103 -34t-103 34z" />
    <glyph glyph-name="acircumflex.ss03" horiz-adv-x="579" 
d="M418 470h84v-470h-84v81q-23 -45 -63.5 -69t-94.5 -24q-62 0 -111 31.5t-76.5 87.5t-27.5 128t27.5 128t76.5 87.5t111 31.5q54 0 94.5 -24t63.5 -69v81zM380.5 108.5q38.5 47.5 38.5 126.5q0 78 -38.5 125.5t-102.5 47.5t-103.5 -47.5t-39.5 -125.5q0 -79 39 -126.5
t104 -47.5q64 0 102.5 47.5zM132 550l107 123h101l107 -123h-86l-26 28q-24 26 -45 54q-21 -26 -45 -54l-27 -28h-86z" />
    <glyph glyph-name="adieresis.ss03" horiz-adv-x="579" 
d="M418 470h84v-470h-84v81q-23 -45 -63.5 -69t-94.5 -24q-62 0 -111 31.5t-76.5 87.5t-27.5 128t27.5 128t76.5 87.5t111 31.5q54 0 94.5 -24t63.5 -69v81zM380.5 108.5q38.5 47.5 38.5 126.5q0 78 -38.5 125.5t-102.5 47.5t-103.5 -47.5t-39.5 -125.5q0 -79 39 -126.5
t104 -47.5q64 0 102.5 47.5zM239 560h-88v103h88v-103zM428 560h-87v103h87v-103z" />
    <glyph glyph-name="agrave.ss03" horiz-adv-x="579" 
d="M418 470h84v-470h-84v81q-23 -45 -63.5 -69t-94.5 -24q-62 0 -111 31.5t-76.5 87.5t-27.5 128t27.5 128t76.5 87.5t111 31.5q54 0 94.5 -24t63.5 -69v81zM380.5 108.5q38.5 47.5 38.5 126.5q0 78 -38.5 125.5t-102.5 47.5t-103.5 -47.5t-39.5 -125.5q0 -79 39 -126.5
t104 -47.5q64 0 102.5 47.5zM327 549h-72l-90 126h98z" />
    <glyph glyph-name="amacron.ss03" horiz-adv-x="579" 
d="M418 470h84v-470h-84v81q-23 -45 -63.5 -69t-94.5 -24q-62 0 -111 31.5t-76.5 87.5t-27.5 128t27.5 128t76.5 87.5t111 31.5q54 0 94.5 -24t63.5 -69v81zM380.5 108.5q38.5 47.5 38.5 126.5q0 78 -38.5 125.5t-102.5 47.5t-103.5 -47.5t-39.5 -125.5q0 -79 39 -126.5
t104 -47.5q64 0 102.5 47.5zM428 578h-277v65h277v-65z" />
    <glyph glyph-name="aogonek.ss03" horiz-adv-x="579" 
d="M505 -148v-60q-15 -4 -37 -4q-54 0 -85.5 27t-31.5 71q0 35 23.5 64.5t62.5 49.5h-19v81q-23 -45 -63.5 -69t-94.5 -24q-62 0 -111 31.5t-76.5 87.5t-27.5 128t27.5 128t76.5 87.5t111 31.5q54 0 94.5 -24t63.5 -69v81h84v-470q-40 -17 -61.5 -42t-21.5 -53
q0 -26 17 -40.5t47 -14.5q6 0 22 2zM380.5 108.5q38.5 47.5 38.5 126.5q0 78 -38.5 125.5t-102.5 47.5t-103.5 -47.5t-39.5 -125.5q0 -79 39 -126.5t104 -47.5q64 0 102.5 47.5z" />
    <glyph glyph-name="aring.ss03" horiz-adv-x="579" 
d="M418 470h84v-470h-84v81q-23 -45 -63.5 -69t-94.5 -24q-62 0 -111 31.5t-76.5 87.5t-27.5 128t27.5 128t76.5 87.5t111 31.5q54 0 94.5 -24t63.5 -69v81zM380.5 108.5q38.5 47.5 38.5 126.5q0 78 -38.5 125.5t-102.5 47.5t-103.5 -47.5t-39.5 -125.5q0 -79 39 -126.5
t104 -47.5q64 0 102.5 47.5zM208 559.5q-32 28.5 -32 74.5t32 74.5t82 28.5q49 0 81 -29t32 -74t-32 -74t-81 -29q-50 0 -82 28.5zM325.5 598q14.5 14 14.5 36t-14.5 36t-35.5 14q-22 0 -36.5 -14t-14.5 -36t14.5 -36t36.5 -14q21 0 35.5 14z" />
    <glyph glyph-name="atilde.ss03" horiz-adv-x="579" 
d="M418 470h84v-470h-84v81q-23 -45 -63.5 -69t-94.5 -24q-62 0 -111 31.5t-76.5 87.5t-27.5 128t27.5 128t76.5 87.5t111 31.5q54 0 94.5 -24t63.5 -69v81zM380.5 108.5q38.5 47.5 38.5 126.5q0 78 -38.5 125.5t-102.5 47.5t-103.5 -47.5t-39.5 -125.5q0 -79 39 -126.5
t104 -47.5q64 0 102.5 47.5zM323.5 564.5q-18.5 6.5 -41.5 18.5q-21 10 -32 14t-23 4q-16 0 -24.5 -10.5t-8.5 -28.5h-68q0 50 23.5 76.5t66.5 26.5q20 0 36.5 -6t42.5 -18q20 -10 32 -14.5t25 -4.5q16 0 24.5 10.5t8.5 28.5h68q0 -50 -23 -76.5t-66 -26.5q-22 0 -40.5 6.5z
" />
    <glyph glyph-name="ae.ss03" horiz-adv-x="921" 
d="M875 214h-357q4 -72 41 -112.5t100 -40.5q45 0 77.5 21.5t46.5 58.5h87q-9 -44 -39 -79t-74.5 -54.5t-93.5 -19.5q-55 0 -99 20.5t-68 58.5v-67h-78v82q-23 -45 -63.5 -69.5t-94.5 -24.5q-62 0 -111 31.5t-76.5 87.5t-27.5 128t27.5 128t76.5 87.5t111 31.5
q54 0 94.5 -24.5t63.5 -69.5v82h78v-75q25 42 70 64.5t95 22.5q100 0 157 -63.5t57 -174.5v-30zM790 281q-1 61 -39 96t-91 35t-94 -34t-47 -97h271zM380.5 108.5q38.5 47.5 38.5 126.5q0 78 -38.5 125.5t-102.5 47.5t-103.5 -47.5t-39.5 -125.5q0 -79 39 -126.5t104 -47.5
q64 0 102.5 47.5z" />
    <glyph glyph-name="aeacute.ss03" horiz-adv-x="921" 
d="M875 214h-357q4 -72 41 -112.5t100 -40.5q45 0 77.5 21.5t46.5 58.5h87q-9 -44 -39 -79t-74.5 -54.5t-93.5 -19.5q-55 0 -99 20.5t-68 58.5v-67h-78v82q-23 -45 -63.5 -69.5t-94.5 -24.5q-62 0 -111 31.5t-76.5 87.5t-27.5 128t27.5 128t76.5 87.5t111 31.5
q54 0 94.5 -24.5t63.5 -69.5v82h78v-75q25 42 70 64.5t95 22.5q100 0 157 -63.5t57 -174.5v-30zM790 281q-1 61 -39 96t-91 35t-94 -34t-47 -97h271zM380.5 108.5q38.5 47.5 38.5 126.5q0 78 -38.5 125.5t-102.5 47.5t-103.5 -47.5t-39.5 -125.5q0 -79 39 -126.5t104 -47.5
q64 0 102.5 47.5zM491 549h-72l63 126h99z" />
    <glyph glyph-name="adieresis.ss04" horiz-adv-x="512" 
d="M441 78q0 -39 3 -78h-83q-1 18 -1 53v18q-48 -83 -155 -83q-72 0 -116.5 38.5t-44.5 98.5t43 97t123 49l81 12q31 4 48 15.5t17 37.5q0 35 -27 57t-68 22q-46 0 -75 -22t-35 -61h-88q7 67 62 108.5t135 41.5q82 0 131.5 -45t49.5 -126v-233zM355 248q-13 -18 -62 -26
l-66 -12q-92 -17 -92 -80q0 -34 25 -54.5t67 -20.5q56 0 92 35.5t36 92.5v65zM128.5 572.5q-16.5 16.5 -16.5 39.5t16.5 39.5t39.5 15.5q24 1 40 -15t16 -40q0 -23 -16 -39.5t-40 -15.5q-23 -1 -39.5 15.5zM314 572.5q-16 16.5 -16 39.5q0 24 16 40t40 15q23 1 39.5 -15.5
t16.5 -39.5t-16.5 -39.5t-39.5 -15.5q-24 -1 -40 15.5z" />
    <glyph glyph-name="cdotaccent.ss04" horiz-adv-x="532" 
d="M156.5 19.5q-53.5 31.5 -83 88t-29.5 127.5t30 127.5t83.5 88t122.5 31.5q87 0 144.5 -45t66.5 -119h-87q-9 42 -41.5 66t-81.5 24q-66 0 -106 -47.5t-40 -125.5t40 -126t105 -48q47 0 80 24.5t45 67.5h88q-14 -75 -72 -120t-142 -45q-69 0 -122.5 31.5zM237 569.5
q-18 17.5 -18 41.5q0 26 17.5 43.5t43.5 17.5t44 -17.5t18 -43.5q0 -24 -18 -41.5t-44 -18.5q-25 1 -43 18.5z" />
    <glyph glyph-name="dcaron.ss04" horiz-adv-x="597" 
d="M419 700h86v-700h-84v81q-23 -45 -64 -69t-96 -24q-62 0 -111.5 31.5t-77 87.5t-27.5 128q0 71 28 127.5t77 88t110 31.5q54 0 95 -24t64 -68v310zM383 108.5q39 47.5 39 126.5q0 78 -39 125.5t-104 47.5t-104.5 -47.5t-39.5 -125.5q0 -79 39.5 -126.5t104.5 -47.5
t104 47.5zM577 527q25 10 41 30t19 43l-9 -1q-24 0 -39.5 15t-15.5 38q0 22 16.5 37.5t40.5 15.5q26 0 42 -20t16 -53q0 -55 -30.5 -96t-80.5 -51v42z" />
    <glyph glyph-name="edieresis.ss04" horiz-adv-x="537" 
d="M492 214h-358q5 -72 41.5 -112.5t99.5 -40.5q45 0 77.5 21.5t46.5 58.5h87q-14 -68 -73.5 -110.5t-137.5 -42.5q-68 0 -120.5 31t-81 87t-28.5 129t30 129t82 87t118 31q100 0 158.5 -64t58.5 -174v-30zM182.5 378.5q-40.5 -33.5 -46.5 -97.5h270q-1 61 -38.5 96
t-91.5 35q-53 0 -93.5 -33.5zM143.5 572.5q-16.5 16.5 -16.5 39.5t16.5 39.5t39.5 15.5q24 1 40 -15t16 -40q0 -23 -16 -39.5t-40 -15.5q-23 -1 -39.5 15.5zM329 572.5q-16 16.5 -16 39.5q0 24 16 40t40 15q23 1 39.5 -15.5t16.5 -39.5t-16.5 -39.5t-39.5 -15.5
q-24 -1 -40 15.5z" />
    <glyph glyph-name="edotaccent.ss04" horiz-adv-x="537" 
d="M492 214h-358q5 -72 41.5 -112.5t99.5 -40.5q45 0 77.5 21.5t46.5 58.5h87q-14 -68 -73.5 -110.5t-137.5 -42.5q-68 0 -120.5 31t-81 87t-28.5 129t30 129t82 87t118 31q100 0 158.5 -64t58.5 -174v-30zM182.5 378.5q-40.5 -33.5 -46.5 -97.5h270q-1 61 -38.5 96
t-91.5 35q-53 0 -93.5 -33.5zM232 569.5q-18 17.5 -18 41.5q0 26 17.5 43.5t43.5 17.5t44 -17.5t18 -43.5q0 -24 -18 -41.5t-44 -18.5q-25 1 -43 18.5z" />
    <glyph glyph-name="uni0123.ss04" horiz-adv-x="575" 
d="M415 470h84v-483q0 -93 -60.5 -146t-161.5 -53q-93 0 -149.5 43t-63.5 116h89q9 -41 41 -64t85 -23q61 0 97.5 34t36.5 92v103q-22 -45 -62 -68.5t-93 -23.5q-61 0 -109.5 31t-76 86t-27.5 125t28 125.5t77 86.5t110 31q53 0 93 -23.5t62 -70.5v82zM377.5 116
q38.5 47 38.5 123t-38.5 122.5t-101.5 46.5q-64 0 -102.5 -46.5t-38.5 -122.5q0 -77 38.5 -123.5t102.5 -46.5q63 0 101.5 47zM247 569.5q-16 19.5 -16 53.5q0 55 30 96t81 51v-42q-25 -10 -41 -29.5t-19 -43.5l9 1q24 0 39.5 -15t15.5 -38q0 -22 -16.5 -37.5t-40.5 -15.5
q-26 0 -42 19.5z" />
    <glyph glyph-name="gdotaccent.ss04" horiz-adv-x="575" 
d="M415 470h84v-483q0 -93 -60.5 -146t-161.5 -53q-93 0 -149.5 43t-63.5 116h89q9 -41 41 -64t85 -23q61 0 97.5 34t36.5 92v103q-22 -45 -62 -68.5t-93 -23.5q-61 0 -109.5 31t-76 86t-27.5 125t28 125.5t77 86.5t110 31q53 0 93 -23.5t62 -70.5v82zM377.5 116
q38.5 47 38.5 123t-38.5 122.5t-101.5 46.5q-64 0 -102.5 -46.5t-38.5 -122.5q0 -77 38.5 -123.5t102.5 -46.5q63 0 101.5 47zM245 569.5q-18 17.5 -18 41.5q0 26 17.5 43.5t43.5 17.5t44 -17.5t18 -43.5q0 -24 -18 -41.5t-44 -18.5q-25 1 -43 18.5z" />
    <glyph glyph-name="i.ss04" horiz-adv-x="239" 
d="M163 0h-87v470h87v-470zM76 569.5q-18 17.5 -18 41.5q0 26 17.5 43.5t43.5 17.5t44 -17.5t18 -43.5q0 -24 -18 -41.5t-44 -18.5q-25 1 -43 18.5z" />
    <glyph glyph-name="idieresis.ss04" horiz-adv-x="239" 
d="M163 0h-87v470h87v-470zM-12.5 572.5q-16.5 16.5 -16.5 39.5t16.5 39.5t39.5 15.5q24 1 40 -15t16 -40q0 -23 -16 -39.5t-40 -15.5q-23 -1 -39.5 15.5zM173 572.5q-16 16.5 -16 39.5q0 24 16 40t40 15q23 1 39.5 -15.5t16.5 -39.5t-16.5 -39.5t-39.5 -15.5
q-24 -1 -40 15.5z" />
    <glyph glyph-name="i.loclTRK.ss04" horiz-adv-x="239" 
d="M163 0h-87v470h87v-470zM76 569.5q-18 17.5 -18 41.5q0 26 17.5 43.5t43.5 17.5t44 -17.5t18 -43.5q0 -24 -18 -41.5t-44 -18.5q-25 1 -43 18.5z" />
    <glyph glyph-name="ij.ss04" horiz-adv-x="479" 
d="M163 0h-87v470h87v-470zM76 569.5q-18 17.5 -18 41.5q0 26 17.5 43.5t43.5 17.5t44 -17.5t18 -43.5q0 -24 -18 -41.5t-44 -18.5q-25 1 -43 18.5zM231 -200v74h31q26 0 39.5 12.5t13.5 42.5v541h87v-554q0 -57 -28.5 -86.5t-88.5 -29.5h-54zM315 569.5q-18 17.5 -18 41.5
q0 26 17.5 43.5t43.5 17.5t44 -17.5t18 -43.5q0 -24 -18 -41.5t-44 -18.5q-25 1 -43 18.5z" />
    <glyph glyph-name="iogonek.ss04" horiz-adv-x="239" 
d="M76 569.5q-18 17.5 -18 41.5q0 26 18 43.5t44 17.5t43.5 -17.5t17.5 -43.5q0 -24 -18 -41.5t-43 -18.5q-26 1 -44 18.5zM97 -135.5q17 -14.5 47 -14.5q6 0 22 2v-60q-15 -4 -38 -4q-53 0 -84.5 27t-31.5 71q0 35 23.5 64.5t61.5 49.5h-21v470h87v-470q-40 -17 -61.5 -42
t-21.5 -53q0 -26 17 -40.5z" />
    <glyph glyph-name="j.ss04" horiz-adv-x="239" 
d="M-8 -200v74h31q26 0 39.5 12.5t13.5 42.5v541h87v-554q0 -57 -28.5 -86.5t-88.5 -29.5h-54zM76 569.5q-18 17.5 -18 41.5q0 26 17.5 43.5t43.5 17.5t44 -17.5t18 -43.5q0 -24 -18 -41.5t-44 -18.5q-25 1 -43 18.5z" />
    <glyph glyph-name="uni0137.ss04" horiz-adv-x="497" 
d="M491 0h-107l-174 221l-47 -45v-176h-87v700h87v-432l205 202h112l-205 -194zM203 -250q25 10 41 30t19 43l-9 -1q-24 0 -39.5 15t-15.5 38t16 38t41 15q26 0 42 -20t16 -53q0 -55 -30 -96t-81 -51v42z" />
    <glyph glyph-name="lcaron.ss04" horiz-adv-x="255" 
d="M163 0h-87v700h87v-700zM235 527q25 10 41 30t19 43l-9 -1q-24 0 -39.5 15t-15.5 38q0 22 16.5 37.5t40.5 15.5q26 0 42 -20t16 -53q0 -55 -30.5 -96t-80.5 -51v42z" />
    <glyph glyph-name="uni013C.ss04" horiz-adv-x="239" 
d="M163 0h-87v700h87v-700zM66 -250q25 10 41 30t19 43l-9 -1q-24 0 -39.5 15t-15.5 38t16 38t41 15q26 0 42 -20t16 -53q0 -55 -30 -96t-81 -51v42z" />
    <glyph glyph-name="ldot.ss04" horiz-adv-x="340" 
d="M163 0h-87v700h87v-700zM248.5 308q-17.5 17 -17.5 42t17.5 42t43.5 17q25 0 42.5 -17t17.5 -42t-17.5 -42t-42.5 -17q-26 0 -43.5 17z" />
    <glyph glyph-name="uni0146.ss04" horiz-adv-x="548" 
d="M431 430q47 -52 47 -139v-291h-87v277q0 61 -29 96t-80 35q-54 0 -86.5 -40t-32.5 -106v-262h-87v470h84v-81q21 46 58.5 69.5t89.5 23.5q76 0 123 -52zM221 -250q25 10 41 30t19 43l-9 -1q-24 0 -39.5 15t-15.5 38t16 38t41 15q26 0 42 -20t16 -53q0 -55 -30 -96
t-81 -51v42z" />
    <glyph glyph-name="odieresis.ss04" horiz-adv-x="560" 
d="M157 19.5q-54 31.5 -83.5 88t-29.5 127.5q0 72 30 128t83.5 87.5t122.5 31.5q70 0 123.5 -31.5t83 -87.5t29.5 -128t-29.5 -128t-83 -87.5t-123.5 -31.5q-69 0 -123 31.5zM385 108.5q40 47.5 40 126.5q0 78 -40 125.5t-105 47.5t-105 -47.5t-40 -125.5t40 -126t105 -48
t105 47.5zM147.5 572.5q-16.5 16.5 -16.5 39.5t16.5 39.5t39.5 15.5q24 1 40 -15t16 -40q0 -23 -16 -39.5t-40 -15.5q-23 -1 -39.5 15.5zM333 572.5q-16 16.5 -16 39.5q0 24 16 40t40 15q23 1 39.5 -15.5t16.5 -39.5t-16.5 -39.5t-39.5 -15.5q-24 -1 -40 15.5z" />
    <glyph glyph-name="uni0157.ss04" horiz-adv-x="349" 
d="M158 378q17 53 55 78t89 25q16 0 24 -1v-83l-20 1q-75 0 -109 -39t-34 -122v-237h-87v470h82v-92zM66 -250q25 10 41 30t19 43l-9 -1q-24 0 -39.5 15t-15.5 38t16 38t41 15q26 0 42 -20t16 -53q0 -55 -30 -96t-81 -51v42z" />
    <glyph glyph-name="uni0219.ss04" horiz-adv-x="473" 
d="M98 31q-54 43 -59 114h87q5 -41 36.5 -64.5t80.5 -23.5q44 0 71 21t27 54q0 28 -19.5 44t-60.5 24l-72 13q-136 25 -136 133q0 39 23 70t64 48.5t93 17.5q81 0 131.5 -37.5t57.5 -102.5h-85q-7 34 -35 53t-69 19t-67 -18.5t-26 -47.5q0 -49 67 -61l80 -15
q70 -13 107 -47.5t37 -88.5q0 -43 -23.5 -76.5t-66.5 -52.5t-98 -19q-91 0 -145 43zM186 -252q25 10 41 30t19 43l-9 -1q-24 0 -39.5 15t-15.5 38t16 38t41 15q26 0 42 -20t16 -53q0 -55 -30 -96t-81 -51v42z" />
    <glyph glyph-name="adieresis.ss03.ss04" horiz-adv-x="579" 
d="M418 470h84v-470h-84v81q-23 -45 -63.5 -69t-94.5 -24q-62 0 -111 31.5t-76.5 87.5t-27.5 128t27.5 128t76.5 87.5t111 31.5q54 0 94.5 -24t63.5 -69v81zM380.5 108.5q38.5 47.5 38.5 126.5q0 78 -38.5 125.5t-102.5 47.5t-103.5 -47.5t-39.5 -125.5q0 -79 39 -126.5
t104 -47.5q64 0 102.5 47.5zM157.5 572.5q-16.5 16.5 -16.5 39.5t16.5 39.5t39.5 15.5q24 1 40 -15t16 -40q0 -23 -16 -39.5t-40 -15.5q-23 -1 -39.5 15.5zM343 572.5q-16 16.5 -16 39.5q0 24 16 40t40 15q23 1 39.5 -15.5t16.5 -39.5t-16.5 -39.5t-39.5 -15.5
q-24 -1 -40 15.5z" />
    <glyph glyph-name="tcaron.ss04" horiz-adv-x="343" 
d="M305 399h-119v-266q0 -29 14.5 -44t49.5 -15h55v-74h-76q-64 0 -97 29t-33 93v277h-71v71h71v167h87v-167h119v-71zM251 579q25 10 41 30t19 43l-9 -1q-24 0 -39.5 15t-15.5 38q0 22 16.5 37.5t40.5 15.5q26 0 42 -20t16 -53q0 -55 -30.5 -96t-80.5 -51v42z" />
    <glyph glyph-name="uni021B.ss04" horiz-adv-x="343" 
d="M305 399h-119v-266q0 -29 14.5 -44t49.5 -15h55v-74h-76q-64 0 -97 29t-33 93v277h-71v71h71v167h87v-167h119v-71zM145 -250q25 10 41 30t19 43l-9 -1q-24 0 -39.5 15t-15.5 38t16 38t41 15q26 0 42 -20t16 -53q0 -55 -30 -96t-81 -51v42z" />
    <glyph glyph-name="udieresis.ss04" horiz-adv-x="548" 
d="M385 470h87v-470h-84v81q-21 -46 -58.5 -69.5t-89.5 -23.5q-76 0 -122.5 51.5t-46.5 138.5v292h86v-277q0 -62 29 -97t80 -35q54 0 86.5 40t32.5 106v263zM140.5 572.5q-16.5 16.5 -16.5 39.5t16.5 39.5t39.5 15.5q24 1 40 -15t16 -40q0 -23 -16 -39.5t-40 -15.5
q-23 -1 -39.5 15.5zM326 572.5q-16 16.5 -16 39.5q0 24 16 40t40 15q23 1 39.5 -15.5t16.5 -39.5t-16.5 -39.5t-39.5 -15.5q-24 -1 -40 15.5z" />
    <glyph glyph-name="wdieresis.ss04" horiz-adv-x="722" 
d="M161 0l-133 470h89l76 -295q16 -70 19 -89l16 63q2 6 7 26l82 295h94l83 -295l22 -89q4 19 19 89l76 295h83l-133 -470h-95l-86 304q-11 43 -19 78q-8 -35 -19 -78l-86 -304h-95zM227.5 572.5q-16.5 16.5 -16.5 39.5t16.5 39.5t39.5 15.5q24 1 40 -15t16 -40
q0 -23 -16 -39.5t-40 -15.5q-23 -1 -39.5 15.5zM413 572.5q-16 16.5 -16 39.5q0 24 16 40t40 15q23 1 39.5 -15.5t16.5 -39.5t-16.5 -39.5t-39.5 -15.5q-24 -1 -40 15.5z" />
    <glyph glyph-name="ydieresis.ss04" horiz-adv-x="491" 
d="M59 -200v74h30q35 0 57 15t34 48l26 67l-191 466h96l103 -272q26 -67 36 -100q9 30 34 100l96 272h89l-212 -562q-22 -56 -59 -82t-96 -26h-43zM117.5 572.5q-16.5 16.5 -16.5 39.5t16.5 39.5t39.5 15.5q24 1 40 -15t16 -40q0 -23 -16 -39.5t-40 -15.5q-23 -1 -39.5 15.5
zM303 572.5q-16 16.5 -16 39.5q0 24 16 40t40 15q23 1 39.5 -15.5t16.5 -39.5t-16.5 -39.5t-39.5 -15.5q-24 -1 -40 15.5z" />
    <glyph glyph-name="zdotaccent.ss04" horiz-adv-x="464" 
d="M414 400l-269 -329h278v-71h-380v68l271 330h-268v72h368v-70zM189 569.5q-18 17.5 -18 41.5q0 26 17.5 43.5t43.5 17.5t44 -17.5t18 -43.5q0 -24 -18 -41.5t-44 -18.5q-25 1 -43 18.5z" />
    <glyph glyph-name="dcaron.ss06" horiz-adv-x="582" 
d="M419 700h86v-700h-84v81q-23 -45 -64 -69t-96 -24q-62 0 -111.5 31.5t-77 87.5t-27.5 128q0 71 28 127.5t77 88t110 31.5q54 0 95 -24t64 -68v310zM383 108.5q39 47.5 39 126.5q0 78 -39 125.5t-104 47.5t-104.5 -47.5t-39.5 -125.5q0 -79 39.5 -126.5t104.5 -47.5
t104 47.5zM626 525h-64l50 175h92z" />
    <glyph glyph-name="uni0123.ss06" horiz-adv-x="575" 
d="M415 470h84v-483q0 -93 -60.5 -146t-161.5 -53q-93 0 -149.5 43t-63.5 116h89q9 -41 41 -64t85 -23q61 0 97.5 34t36.5 92v103q-22 -45 -62 -68.5t-93 -23.5q-61 0 -109.5 31t-76 86t-27.5 125t28 125.5t77 86.5t110 31q53 0 93 -23.5t62 -70.5v82zM377.5 116
q38.5 47 38.5 123t-38.5 122.5t-101.5 46.5q-64 0 -102.5 -46.5t-38.5 -122.5q0 -77 38.5 -123.5t102.5 -46.5q63 0 101.5 47zM334 556h-93l78 175h65z" />
    <glyph glyph-name="uni0137.ss06" horiz-adv-x="497" 
d="M491 0h-107l-174 221l-47 -45v-176h-87v700h87v-432l205 202h112l-205 -194zM225 -262h-65l50 176h93z" />
    <glyph glyph-name="lcaron.ss06" horiz-adv-x="239" 
d="M163 0h-87v700h87v-700zM284 525h-64l50 175h92z" />
    <glyph glyph-name="uni013C.ss06" horiz-adv-x="239" 
d="M163 0h-87v700h87v-700zM88 -262h-65l50 176h93z" />
    <glyph glyph-name="uni0146.ss06" horiz-adv-x="548" 
d="M431 430q47 -52 47 -139v-291h-87v277q0 61 -29 96t-80 35q-54 0 -86.5 -40t-32.5 -106v-262h-87v470h84v-81q21 46 58.5 69.5t89.5 23.5q76 0 123 -52zM244 -262h-65l50 176h93z" />
    <glyph glyph-name="uni0157.ss06" horiz-adv-x="349" 
d="M158 378q17 53 55 78t89 25q16 0 24 -1v-83l-20 1q-75 0 -109 -39t-34 -122v-237h-87v470h82v-92zM88 -262h-65l50 176h93z" />
    <glyph glyph-name="uni0219.ss06" horiz-adv-x="473" 
d="M98 31q-54 43 -59 114h87q5 -41 36.5 -64.5t80.5 -23.5q44 0 71 21t27 54q0 28 -19.5 44t-60.5 24l-72 13q-136 25 -136 133q0 39 23 70t64 48.5t93 17.5q81 0 131.5 -37.5t57.5 -102.5h-85q-7 34 -35 53t-69 19t-67 -18.5t-26 -47.5q0 -49 67 -61l80 -15
q70 -13 107 -47.5t37 -88.5q0 -43 -23.5 -76.5t-66.5 -52.5t-98 -19q-91 0 -145 43zM208 -264h-65l50 176h93z" />
    <glyph glyph-name="tcaron.ss06" horiz-adv-x="343" 
d="M305 399h-119v-266q0 -29 14.5 -44t49.5 -15h55v-74h-76q-64 0 -97 29t-33 93v277h-71v71h71v167h87v-167h119v-71zM311 537h-64l50 175h92z" />
    <glyph glyph-name="uni021B.ss06" horiz-adv-x="343" 
d="M305 399h-119v-266q0 -29 14.5 -44t49.5 -15h55v-74h-76q-64 0 -97 29t-33 93v277h-71v71h71v167h87v-167h119v-71zM167 -262h-65l50 176h93z" />
    <glyph glyph-name="ydieresis.ss04.ss07" horiz-adv-x="491" 
d="M125 -200l80 206l-190 464h96l103 -272q26 -67 36 -100q9 30 34 100l96 272h89l-253 -670h-91zM117.5 572.5q-16.5 16.5 -16.5 39.5t16.5 39.5t39.5 15.5q24 1 40 -15t16 -40q0 -23 -16 -39.5t-40 -15.5q-23 -1 -39.5 15.5zM303 572.5q-16 16.5 -16 39.5q0 24 16 40
t40 15q23 1 39.5 -15.5t16.5 -39.5t-16.5 -39.5t-39.5 -15.5q-24 -1 -40 15.5z" />
    <glyph glyph-name="y.ss07" horiz-adv-x="491" 
d="M125 -200l80 206l-190 464h96l103 -272q26 -67 36 -100q9 30 34 100l96 272h89l-253 -670h-91z" />
    <glyph glyph-name="yacute.ss07" horiz-adv-x="491" 
d="M125 -200l80 206l-190 464h96l103 -272q26 -67 36 -100q9 30 34 100l96 272h89l-253 -670h-91zM285 549h-72l63 126h99z" />
    <glyph glyph-name="ycircumflex.ss07" horiz-adv-x="491" 
d="M125 -200l80 206l-190 464h96l103 -272q26 -67 36 -100q9 30 34 100l96 272h89l-253 -670h-91zM93 550l107 123h101l107 -123h-86l-26 28q-24 26 -45 54q-21 -26 -45 -54l-27 -28h-86z" />
    <glyph glyph-name="ydieresis.ss07" horiz-adv-x="491" 
d="M125 -200l80 206l-190 464h96l103 -272q26 -67 36 -100q9 30 34 100l96 272h89l-253 -670h-91zM200 560h-88v103h88v-103zM389 560h-87v103h87v-103z" />
    <glyph glyph-name="ygrave.ss07" horiz-adv-x="491" 
d="M125 -200l80 206l-190 464h96l103 -272q26 -67 36 -100q9 30 34 100l96 272h89l-253 -670h-91zM288 549h-72l-90 126h98z" />
    <glyph glyph-name="f_i.ss04" horiz-adv-x="565" 
d="M256 627q-66 0 -66 -66v-91h119v-71h-119v-399h-86v399h-73v71h73v102q0 128 130 128h75v-73h-53zM489 0h-87v470h87v-470zM402 569.5q-18 17.5 -18 41.5q0 26 17.5 43.5t43.5 17.5t44 -17.5t18 -43.5q0 -24 -18 -41.5t-44 -18.5q-25 1 -43 18.5z" />
    <glyph glyph-name="fi.ss04" horiz-adv-x="565" 
d="M256 627q-66 0 -66 -66v-91h119v-71h-119v-399h-86v399h-73v71h73v102q0 128 130 128h75v-73h-53zM489 0h-87v470h87v-470zM402 569.5q-18 17.5 -18 41.5q0 26 17.5 43.5t43.5 17.5t44 -17.5t18 -43.5q0 -24 -18 -41.5t-44 -18.5q-25 1 -43 18.5z" />
    <glyph glyph-name="ordfeminine.case" horiz-adv-x="454" 
d="M311 324v42v13q-39 -65 -124 -65q-58 0 -94 31t-36 80q0 48 35 77.5t101 39.5l64 10q24 3 36.5 12t12.5 28q0 27 -20 43t-51 16q-35 0 -57 -16.5t-27 -45.5h-78q6 54 50.5 87.5t110.5 33.5q67 0 107.5 -36.5t40.5 -102.5v-183q0 -32 3 -64h-74zM305 518q-11 -13 -47 -20
l-50 -9q-69 -12 -69 -60q0 -26 19 -41.5t51 -15.5q42 0 69 27.5t27 70.5v48z" />
    <glyph glyph-name="ordmasculine.case" horiz-adv-x="480" 
d="M140.5 339q-43.5 25 -67.5 70.5t-24 102.5q0 58 24 103t67.5 70t99.5 25q57 0 100.5 -25t67.5 -70t24 -103t-24 -103t-67.5 -70t-100.5 -25q-56 0 -99.5 25zM320.5 415q30.5 37 30.5 97t-30.5 96.5t-80.5 36.5q-49 0 -79.5 -36.5t-30.5 -96.5t30.5 -97t79.5 -37
q50 0 80.5 37z" />
    <glyph glyph-name="ordfeminine.ss03.case" horiz-adv-x="501" 
d="M350 700h75v-376h-75v63q-18 -35 -50.5 -54t-74.5 -19q-49 0 -88 25t-61 70t-22 103t22 103t61 70t88 25q43 0 75.5 -19t49.5 -54v63zM321 415q29 37 29 97t-29 96.5t-78 36.5t-79 -36.5t-30 -96.5t30 -97t79 -37t78 37z" />
    <glyph glyph-name="ordfeminine.ss03" horiz-adv-x="489" 
d="M342 668h75v-376h-75v63q-18 -35 -50.5 -54t-74.5 -19q-49 0 -88 25t-61 70t-22 103t22 103t61 70t88 25q43 0 75.5 -19t49.5 -54v63zM313 383q29 37 29 97t-29 96.5t-78 36.5t-79 -36.5t-30 -96.5t30 -97t79 -37t78 37z" />
    <glyph glyph-name="zero.zero" horiz-adv-x="608" 
d="M487.5 589q65.5 -91 65.5 -256q0 -164 -65.5 -254.5t-183.5 -90.5t-183.5 90.5t-65.5 254.5q0 165 65.5 256t183.5 91t183.5 -91zM187 533.5q-41 -70.5 -41 -200.5q0 -70 12 -123l264 322q-41 72 -118 72q-76 0 -117 -70.5zM421 134q41 70 41 199q0 74 -13 125l-263 -322
q41 -72 118 -72q76 0 117 70z" />
    <glyph glyph-name="zero.zero.blackCircled" horiz-adv-x="941" 
d="M262 -4q-95 54 -150 147.5t-55 206.5q0 112 55 205.5t150 148t209 54.5t208.5 -54.5t149.5 -148t55 -205.5t-55 -205.5t-149.5 -148t-208.5 -54.5t-209 54zM598.5 182q45.5 60 45.5 168q0 109 -45.5 169t-127.5 60t-127.5 -60.5t-45.5 -168.5t45.5 -168t127.5 -60
t127.5 60zM383 288q-5 23 -5 62q0 78 24 120.5t69 42.5q42 0 65 -37zM405 225l153 189q6 -28 6 -64q0 -78 -24 -120t-69 -42q-41 0 -66 37z" />
    <glyph glyph-name="zero.case" horiz-adv-x="630" 
d="M123.5 83q-68.5 95 -68.5 266q0 172 68.5 267.5t191.5 95.5t191.5 -95.5t68.5 -267.5q0 -171 -68.5 -266t-191.5 -95t-191.5 95zM438.5 140.5q43.5 73.5 43.5 208.5q0 136 -43.5 210t-123.5 74t-123.5 -74t-43.5 -210q0 -135 43.5 -208.5t123.5 -73.5t123.5 73.5z" />
    <glyph glyph-name="one.case" horiz-adv-x="333" 
d="M7 528l142 172h90v-700h-90v589l-86 -107z" />
    <glyph glyph-name="two.case" horiz-adv-x="569" 
d="M520 78v-78h-478q4 73 45 136.5t130 127.5l81 58q65 47 94 91t29 92q0 57 -37.5 93t-97.5 36q-61 0 -102.5 -39.5t-45.5 -102.5h-92q3 64 34 114t84.5 78t121.5 28q67 0 119 -26.5t81 -74t29 -108.5q0 -63 -39.5 -121.5t-127.5 -124.5l-83 -61q-44 -33 -70.5 -61
t-39.5 -57h365z" />
    <glyph glyph-name="three.case" 
d="M511.5 305q35.5 -46 35.5 -109q0 -59 -31.5 -106.5t-88 -74.5t-127.5 -27q-115 0 -182.5 57.5t-72.5 158.5h93q7 -65 50 -101.5t112 -36.5q68 0 110.5 37t42.5 97q0 58 -41.5 92t-112.5 34h-60v78h59q64 0 101 31.5t37 83.5q0 51 -38.5 83t-98.5 32q-61 0 -103 -35
t-49 -91h-92q5 61 37.5 107t86 71.5t120.5 25.5q66 0 118.5 -24t82 -67t29.5 -98q0 -54 -31.5 -95t-86.5 -59q65 -18 100.5 -64z" />
    <glyph glyph-name="four.case" horiz-adv-x="623" 
d="M480 280h105v-77h-105v-203h-89v203h-353v82l331 415h111v-420zM391 280v332q-6 -9 -20 -27.5t-29 -37.5l-165 -207q-6 -9 -50 -60h264z" />
    <glyph glyph-name="five.case" horiz-adv-x="590" 
d="M436.5 435q51.5 -30 80.5 -84t29 -123q0 -70 -32 -124.5t-88.5 -85t-129.5 -30.5q-108 0 -172.5 53.5t-71.5 150.5h92q8 -59 48 -92.5t104 -33.5q70 0 113 44.5t43 117.5q0 74 -41.5 118.5t-109.5 44.5q-46 0 -84 -21t-56 -60h-88l4 390h428v-78h-345l-2 -227
q28 34 70 52t93 18q64 0 115.5 -30z" />
    <glyph glyph-name="six.case" horiz-adv-x="621" 
d="M458 425q52 -30 82 -83t30 -119q0 -67 -32 -120.5t-88.5 -84t-126.5 -30.5q-129 0 -199 94.5t-70 266.5q0 112 33.5 194t95.5 125.5t147 43.5q92 0 154 -49.5t74 -137.5h-94q-8 52 -43.5 80.5t-91.5 28.5q-87 0 -134.5 -74t-47.5 -210v-11q25 55 76 85.5t119 30.5
q64 0 116 -30zM432 110q44 44 44 112t-44 112.5t-112 44.5q-45 0 -80.5 -20.5t-55.5 -56t-20 -80.5q0 -68 44 -112t112 -44t112 44z" />
    <glyph glyph-name="seven.case" horiz-adv-x="506" 
d="M13 700h472v-80q-228 -230 -262 -620h-102q22 197 93 354t181 266h-382v80z" />
    <glyph glyph-name="eight.case" horiz-adv-x="616" 
d="M524 300q40 -46 40 -109q0 -58 -33 -104.5t-91.5 -72.5t-131.5 -26q-74 0 -132 26t-91 72.5t-33 104.5q0 63 39.5 108.5t110.5 63.5q-60 19 -95 62.5t-35 98.5q0 54 30.5 97t84 67t121.5 24t121.5 -24t84 -67t30.5 -97q0 -55 -35 -98.5t-95 -62.5q70 -17 110 -63z
M203 433q40 -32 105 -32t105 32t40 85q0 52 -40.5 84.5t-104.5 32.5q-65 0 -105 -32.5t-40 -84.5q0 -53 40 -85zM426 101.5q45 35.5 45 94.5t-44.5 95t-118.5 36t-118.5 -36t-44.5 -95t45 -94.5t118 -35.5t118 35.5z" />
    <glyph glyph-name="nine.case" horiz-adv-x="620" 
d="M496.5 617.5q69.5 -94.5 69.5 -266.5q0 -112 -33.5 -194t-95.5 -125.5t-146 -43.5q-93 0 -155 50t-72 137h92q10 -53 46 -81t90 -28q87 0 134.5 74t47.5 210v12q-25 -54 -75.5 -85.5t-120.5 -31.5q-63 0 -115 30t-82 83t-30 119q0 67 32 120.5t88.5 84t126.5 30.5
q129 0 198.5 -94.5zM381 341q36 20 56 56t20 81q0 44 -20 80t-56 56t-80 20q-69 0 -113 -44t-44 -112t44.5 -112.5t112.5 -44.5q44 0 80 20z" />
    <glyph glyph-name="zero.case.zero" horiz-adv-x="630" 
d="M506.5 616.5q68.5 -95.5 68.5 -267.5q0 -171 -68.5 -266t-191.5 -95t-191.5 95t-68.5 266q0 172 68.5 267.5t191.5 95.5t191.5 -95.5zM191.5 559q-43.5 -74 -43.5 -210q0 -70 13 -130l278 339q-43 75 -124 75q-80 0 -123.5 -74zM438.5 140.5q43.5 73.5 43.5 208.5
q0 74 -14 133l-278 -339q44 -76 125 -76q80 0 123.5 73.5z" />
    <glyph glyph-name="zero.zero.circled" horiz-adv-x="941" 
d="M679.5 703.5q94.5 -54.5 149.5 -148t55 -205.5t-55 -205.5t-149.5 -148t-208.5 -54.5t-209 54t-150 147.5t-55 206.5q0 112 55 205.5t150 148t209 54.5t208.5 -54.5zM643 57.5q77 44.5 121.5 121.5t44.5 171t-45 171t-122 121.5t-171 44.5t-171.5 -44.5t-122.5 -122
t-45 -170.5t45 -170.5t122.5 -122t171.5 -44.5q95 0 172 44.5zM598.5 519q45.5 -60 45.5 -169q0 -108 -45.5 -168t-127.5 -60t-127.5 60t-45.5 168t45.5 168.5t127.5 60.5t127.5 -60zM402 470.5q-24 -42.5 -24 -120.5q0 -32 5 -62l154 188q-25 37 -66 37q-45 0 -69 -42.5z
M540 230q24 42 24 120q0 32 -5 64l-154 -189q23 -37 66 -37q45 0 69 42z" />
    <glyph glyph-name="zero.osf" horiz-adv-x="616" 
d="M174 24q-57 36 -88 103t-31 158q0 92 31 159.5t88 104t134 36.5t134 -36.5t88 -104t31 -159.5q0 -91 -31 -158t-88 -103t-134 -36t-134 36zM427.5 122q42.5 58 42.5 163q0 106 -42.5 164.5t-119.5 58.5t-119.5 -58.5t-42.5 -164.5q0 -105 42.5 -163t119.5 -58t119.5 58z
" />
    <glyph glyph-name="one.osf" horiz-adv-x="336" 
d="M20 407l137 165h86v-572h-88v466l-83 -103z" />
    <glyph glyph-name="two.osf" horiz-adv-x="534" 
d="M482 76v-76h-438q4 72 45 127.5t129 110.5l68 43q50 32 73 62.5t23 67.5q0 43 -30.5 71.5t-79.5 28.5q-54 0 -88 -32t-39 -86h-88q5 88 62.5 139.5t152.5 51.5q90 0 144.5 -48t54.5 -126q0 -55 -33.5 -100t-108.5 -93l-69 -43q-42 -27 -66.5 -50t-36.5 -48h325z" />
    <glyph glyph-name="three.osf" horiz-adv-x="580" 
d="M492 195.5q34 -43.5 34 -104.5q0 -57 -30.5 -102.5t-84 -71t-121.5 -25.5q-110 0 -175 55t-70 152h91q6 -61 47 -96t107 -35q64 0 104.5 35t40.5 92q0 55 -39 87t-107 32h-57v76h56q60 0 95 30t35 79q0 48 -36 78.5t-93 30.5q-59 0 -98 -32.5t-46 -87.5h-90
q8 89 72 142.5t162 53.5q63 0 113.5 -23t78.5 -64t28 -94q0 -51 -30 -90.5t-82 -56.5q61 -17 95 -60.5z" />
    <glyph glyph-name="four.osf" horiz-adv-x="604" 
d="M463 172h100v-75h-100v-193h-87v193h-336v80l315 395h108v-400zM376 172v315q-30 -42 -46 -62l-156 -197l-47 -56h249z" />
    <glyph glyph-name="five.osf" horiz-adv-x="577" 
d="M424.5 319.5q48.5 -28.5 76 -80t27.5 -117.5q0 -67 -30 -119.5t-84.5 -81.5t-123.5 -29q-104 0 -165.5 51t-68.5 145h90q7 -57 45 -88.5t99 -31.5q66 0 106.5 42t40.5 112t-39 112t-104 42q-44 0 -79.5 -20t-52.5 -57h-86l4 373h410v-76h-330l-2 -215q26 33 66 50t90 17
q62 0 110.5 -28.5z" />
    <glyph glyph-name="six.osf" horiz-adv-x="601" 
d="M441 405.5q50 -28.5 78.5 -79t28.5 -113.5q0 -64 -30.5 -115.5t-84 -80.5t-121.5 -29q-124 0 -190.5 90t-66.5 255q0 107 32 185.5t91 120t140 41.5q90 0 149 -48t69 -132h-90q-9 51 -42.5 77.5t-85.5 26.5q-83 0 -128 -70t-45 -200v-10q24 52 72 81t113 29
q61 0 111 -28.5zM415.5 105.5q41.5 41.5 41.5 106.5t-41.5 106.5t-106.5 41.5q-64 0 -106 -41.5t-42 -106.5q0 -64 42 -106t106 -42q65 0 106.5 41.5z" />
    <glyph glyph-name="seven.osf" horiz-adv-x="510" 
d="M28 572h452v-78q-217 -216 -250 -590h-99q21 188 88.5 337.5t172.5 252.5h-364v78z" />
    <glyph glyph-name="eight.osf" horiz-adv-x="595" 
d="M505 286.5q38 -43.5 38 -104.5q0 -56 -31.5 -100t-87.5 -69t-126 -25q-71 0 -126.5 25t-87 69t-31.5 100q0 61 37.5 104.5t105.5 60.5q-57 17 -90.5 58.5t-33.5 94.5q0 52 29 93t80.5 64t116.5 23t116.5 -23t80.5 -64t29 -93q0 -53 -33.5 -94.5t-91.5 -58.5
q68 -17 106 -60.5zM198.5 413.5q37.5 -30.5 99.5 -30.5t99.5 30.5t37.5 80.5t-38 80.5t-99 30.5q-62 0 -99.5 -30.5t-37.5 -80.5t37.5 -80.5zM410 97q42 34 42 90t-42 90t-112 34t-112 -34t-42 -90t42 -90t112 -34t112 34z" />
    <glyph glyph-name="nine.osf" 
d="M478.5 494q66.5 -90 66.5 -255q0 -108 -32 -186t-91.5 -119.5t-140.5 -41.5q-90 0 -148.5 48t-68.5 132h90q9 -51 42.5 -77.5t85.5 -26.5q83 0 128 70t45 200v10q-24 -52 -72.5 -81t-113.5 -29q-61 0 -110.5 28.5t-78 79t-28.5 113.5q0 64 30.5 115.5t84 80.5t121.5 29
q124 0 190.5 -90zM397.5 254q41.5 42 41.5 106q0 65 -41.5 106.5t-106.5 41.5t-106.5 -41.5t-41.5 -106.5t41.5 -106.5t106.5 -41.5t106.5 42z" />
    <glyph glyph-name="zero.osf.zero" horiz-adv-x="616" 
d="M442 548.5q57 -36.5 88 -104t31 -159.5q0 -91 -31 -158t-88 -103t-134 -36t-134 36t-88 103t-31 158q0 92 31 159.5t88 104t134 36.5t134 -36.5zM188.5 449.5q-42.5 -58.5 -42.5 -164.5q0 -61 16 -112l258 285q-41 50 -112 50q-77 0 -119.5 -58.5zM427.5 122
q42.5 58 42.5 163q0 66 -16 111l-257 -284q42 -48 111 -48q77 0 119.5 58z" />
    <glyph glyph-name="zero.tf" 
d="M118.5 78.5q-64.5 90.5 -64.5 254.5q0 165 64.5 256t181.5 91q118 0 182 -91t64 -256q0 -164 -64 -254.5t-182 -90.5q-117 0 -181.5 90.5zM415 133.5q40 69.5 40 199.5q0 131 -40 201t-115 70t-115 -70t-40 -201q0 -130 40 -199.5t115 -69.5t115 69.5z" />
    <glyph glyph-name="one.tf" 
d="M358 668v-592h200v-76h-487v76h199v484l-126 -157l-54 45l180 220h88z" />
    <glyph glyph-name="two.tf" 
d="M525 76v-76h-458q4 71 44 131t123 121l76 56q61 45 90 87.5t29 86.5q0 54 -35.5 88t-92.5 34q-61 0 -99 -37t-41 -98h-90q2 63 31.5 111t80.5 74t117 26q65 0 115 -25t77.5 -70.5t27.5 -104.5q0 -61 -38.5 -116.5t-122.5 -118.5l-78 -58q-80 -59 -104 -111h348z" />
    <glyph glyph-name="three.tf" 
d="M502 291.5q34 -43.5 34 -104.5q0 -57 -30 -102.5t-83.5 -71t-121.5 -25.5q-110 0 -175 55t-70 152h91q6 -62 46.5 -96.5t106.5 -34.5q64 0 104.5 35t40.5 92q0 56 -39 87.5t-107 31.5h-57v76h56q60 0 95.5 30t35.5 79t-36.5 79t-93.5 30q-59 0 -98 -32.5t-46 -87.5h-90
q8 89 72 142.5t162 53.5q64 0 114 -22.5t78 -64t28 -94.5q0 -52 -29.5 -91t-81.5 -56q60 -17 94 -60.5z" />
    <glyph glyph-name="four.tf" 
d="M459 268h100v-75h-100v-193h-86v193h-334v80l312 395h108v-400zM373 268v315l-16 -22q-21 -29 -30 -40l-155 -197l-46 -56h247z" />
    <glyph glyph-name="five.tf" 
d="M435.5 415.5q48.5 -28.5 76 -80t27.5 -117.5q0 -67 -30 -119.5t-84.5 -81.5t-123.5 -29q-104 0 -165.5 51t-68.5 145h90q7 -57 45 -88.5t99 -31.5q66 0 106.5 42t40.5 112t-39 112t-104 42q-44 0 -79.5 -20t-52.5 -57h-86l4 373h410v-76h-330l-2 -215q26 33 66 50t90 17
q62 0 110.5 -28.5z" />
    <glyph glyph-name="six.tf" 
d="M440.5 405.5q49.5 -28.5 78 -79t28.5 -113.5q0 -64 -30.5 -115.5t-84 -80.5t-120.5 -29q-123 0 -189.5 90t-66.5 255q0 107 32 185.5t91 120t139 41.5q90 0 148.5 -48t68.5 -132h-90q-8 50 -42 77t-86 27q-81 0 -126 -70t-45 -200v-10q23 52 71.5 81t113.5 29
q60 0 109.5 -28.5zM414.5 105.5q41.5 41.5 41.5 106.5t-41.5 106.5t-105.5 41.5t-105.5 -41.5t-41.5 -106.5t41.5 -106.5t105.5 -41.5t105.5 41.5z" />
    <glyph glyph-name="seven.tf" 
d="M49 668h493v-78q-112 -104 -185 -250t-93 -340h-98q24 187 97.5 336t185.5 254h-400v78z" />
    <glyph glyph-name="eight.tf" 
d="M506.5 286.5q37.5 -43.5 37.5 -104.5q0 -56 -31.5 -100t-87 -69t-125.5 -25t-125.5 25t-87 69t-31.5 100q0 61 37.5 104.5t104.5 60.5q-57 17 -90 58.5t-33 94.5q0 52 29 93t80 64t116 23t116.5 -23t80 -64t28.5 -93q0 -53 -33 -94.5t-90 -58.5q67 -17 104.5 -60.5z
M201 413.5q37 -30.5 99 -30.5t99 30.5t37 80.5t-37.5 80.5t-98.5 30.5t-98.5 -30.5t-37.5 -80.5t37 -80.5zM411 97q42 34 42 90t-42 90t-111 34t-111 -34t-42 -90t42 -90t111 -34t111 34z" />
    <glyph glyph-name="nine.tf" 
d="M477.5 590q66.5 -90 66.5 -255q0 -108 -31.5 -186t-90.5 -119.5t-140 -41.5q-90 0 -148.5 48t-68.5 132h90q8 -50 42 -77t86 -27q81 0 126 70t45 200v10q-23 -52 -71.5 -81t-113.5 -29q-60 0 -109.5 28.5t-78 79t-28.5 113.5q0 64 30.5 115.5t84 80.5t120.5 29
q123 0 189.5 -90zM396.5 349.5q41.5 41.5 41.5 106.5t-41.5 106.5t-105.5 41.5t-105.5 -41.5t-41.5 -106.5t41.5 -106.5t105.5 -41.5t105.5 41.5z" />
    <glyph glyph-name="zero.tf.case" 
d="M112 83q-67 95 -67 266q0 172 67 267.5t188 95.5t188 -95.5t67 -267.5q0 -171 -67 -266t-188 -95t-188 95zM420 140q42 73 42 209q0 137 -42 210.5t-120 73.5t-120 -73.5t-42 -210.5q0 -136 42 -209t120 -73t120 73z" />
    <glyph glyph-name="one.tf.case" 
d="M359 700v-622h210v-78h-510v78h209v510l-133 -165l-56 46l189 231h91z" />
    <glyph glyph-name="two.tf.case" 
d="M536 78v-78h-478q4 73 45 136.5t130 127.5l81 58q65 47 94 91t29 92q0 57 -37.5 93t-97.5 36q-61 0 -102.5 -39.5t-45.5 -102.5h-92q3 65 34 114.5t84 77.5t122 28q67 0 118.5 -26.5t80.5 -74t29 -108.5q0 -64 -39 -122.5t-127 -123.5l-83 -61q-44 -33 -70.5 -61
t-39.5 -57h365z" />
    <glyph glyph-name="three.tf.case" 
d="M511.5 305q35.5 -46 35.5 -109q0 -59 -31.5 -106.5t-87.5 -74.5t-127 -27q-115 0 -183 57.5t-73 158.5h93q7 -65 50 -101.5t112 -36.5q68 0 110.5 37t42.5 97q0 59 -41 92.5t-113 33.5h-60v78h59q64 0 101.5 31.5t37.5 83.5q0 51 -39 83t-99 32q-61 0 -103 -35t-49 -91
h-92q5 61 37.5 107t86 71.5t120.5 25.5t119 -24t81.5 -67t29.5 -98q0 -54 -31.5 -95t-86.5 -59q65 -18 100.5 -64z" />
    <glyph glyph-name="four.tf.case" 
d="M467 280h103v-77h-103v-203h-89v203h-349v82l327 415h111v-420zM378 280v332q-31 -44 -48 -65l-163 -207l-21 -26l-27 -34h259z" />
    <glyph glyph-name="five.tf.case" 
d="M442 435q51 -30 80 -84t29 -123q0 -70 -31.5 -124.5t-88.5 -85t-129 -30.5q-108 0 -172.5 53.5t-72.5 150.5h93q8 -59 48 -92.5t103 -33.5q71 0 114 44.5t43 117.5q0 74 -42 118.5t-110 44.5q-46 0 -84 -21t-55 -60h-88l4 390h427v-78h-345l-2 -228q28 35 70 53t94 18
q64 0 115 -30z" />
    <glyph glyph-name="six.tf.case" 
d="M447 425q52 -30 82 -83t30 -119q0 -67 -32 -120.5t-88.5 -84t-126.5 -30.5q-128 0 -197.5 94.5t-69.5 266.5q0 112 33.5 194t95 125.5t145.5 43.5q93 0 155 -50t72 -137h-92q-9 52 -44.5 80.5t-91.5 28.5q-86 0 -133.5 -74t-47.5 -210v-12q24 55 75 86t120 31
q63 0 115 -30zM421 110q44 44 44 112t-44 112.5t-111 44.5q-45 0 -80.5 -20.5t-55.5 -56t-20 -80.5q0 -68 44 -112t112 -44q67 0 111 44z" />
    <glyph glyph-name="seven.tf.case" 
d="M36 700h516v-80q-253 -237 -292 -620h-101q25 190 101 347.5t197 272.5h-421v80z" />
    <glyph glyph-name="eight.tf.case" 
d="M515.5 299.5q39.5 -45.5 39.5 -108.5q0 -58 -33 -104.5t-91 -72.5t-131 -26t-131 26t-91 72.5t-33 104.5q0 63 39.5 108.5t109.5 63.5q-59 19 -94 62.5t-35 98.5q0 54 30 97t83.5 67t121.5 24t121.5 -24t83.5 -67t30 -97q0 -55 -34.5 -98.5t-94.5 -62.5
q70 -18 109.5 -63.5zM195.5 433q39.5 -32 104.5 -32t104.5 32t39.5 85q0 52 -39.5 84.5t-104.5 32.5q-64 0 -104 -32.5t-40 -84.5q0 -53 39.5 -85zM417.5 102q44.5 36 44.5 94q0 59 -44.5 95t-117.5 36t-117.5 -36t-44.5 -95q0 -58 44.5 -94t117.5 -36t117.5 36z" />
    <glyph glyph-name="nine.tf.case" 
d="M485.5 617.5q69.5 -94.5 69.5 -266.5q0 -112 -33 -194t-95 -125.5t-146 -43.5q-93 0 -155 50t-72 137h93q8 -52 43.5 -80.5t91.5 -28.5q86 0 133.5 74t47.5 210v12q-24 -55 -75 -86t-120 -31q-63 0 -115 30t-82 83t-30 119q0 67 32 120.5t88.5 84t126.5 30.5
q128 0 197.5 -94.5zM370.5 341.5q35.5 20.5 55.5 56t20 80.5q0 68 -44 112t-112 44q-67 0 -111 -44t-44 -112t44 -112.5t111 -44.5q45 0 80.5 20.5z" />
    <glyph glyph-name="zero.tf.zero" 
d="M482 589q64 -91 64 -256q0 -164 -64 -254.5t-182 -90.5q-117 0 -181.5 90.5t-64.5 254.5q0 165 64.5 256t181.5 91q118 0 182 -91zM185 534q-40 -70 -40 -201q0 -67 11 -120l261 318q-40 73 -117 73q-75 0 -115 -70zM415 133.5q40 69.5 40 199.5q0 71 -12 123l-260 -319
q40 -73 117 -73q75 0 115 69.5z" />
    <glyph glyph-name="zero.tf.zero.case" 
d="M488 616.5q67 -95.5 67 -267.5q0 -171 -67 -266t-188 -95t-188 95t-67 266q0 172 67 267.5t188 95.5t188 -95.5zM180 559.5q-42 -73.5 -42 -210.5q0 -73 12 -129l273 334q-41 79 -123 79q-78 0 -120 -73.5zM420 140q42 73 42 209q0 77 -13 132l-273 -334q43 -80 124 -80
q78 0 120 73z" />
    <glyph glyph-name="zero.tosf" 
d="M166.5 24q-56.5 36 -87 103t-30.5 159t30.5 159.5t87 103.5t133.5 36q76 0 133 -36t87.5 -103.5t30.5 -159.5t-30.5 -159t-87 -103t-133.5 -36t-133.5 36zM417.5 122q42.5 58 42.5 164q0 107 -42.5 165t-117.5 58q-76 0 -117.5 -58t-41.5 -165q0 -106 41.5 -164
t117.5 -58q75 0 117.5 58z" />
    <glyph glyph-name="one.tosf" 
d="M357 572v-496h200v-76h-487v76h199v388l-126 -157l-54 45l180 220h88z" />
    <glyph glyph-name="two.tosf" 
d="M515 76v-76h-438q4 72 45 127.5t129 110.5l68 43q50 32 73 62.5t23 67.5q0 43 -30.5 71.5t-79.5 28.5q-54 0 -88 -32t-39 -86h-88q5 88 62.5 139.5t152.5 51.5q90 0 144.5 -48t54.5 -126q0 -55 -33.5 -100t-108.5 -93l-69 -43q-42 -27 -66.5 -50t-36.5 -48h325z" />
    <glyph glyph-name="three.tosf" 
d="M502 195.5q34 -43.5 34 -104.5q0 -57 -30 -102.5t-83.5 -71t-121.5 -25.5q-110 0 -175 55t-70 152h91q6 -62 46.5 -96.5t106.5 -34.5q64 0 104.5 35t40.5 92q0 56 -39 87.5t-107 31.5h-57v76h56q60 0 95.5 30t35.5 79t-36.5 79t-93.5 30q-59 0 -98 -32.5t-46 -87.5h-90
q8 89 72 142.5t162 53.5q64 0 114 -22.5t78 -64t28 -94.5q0 -52 -29.5 -91t-81.5 -56q60 -17 94 -60.5z" />
    <glyph glyph-name="four.tosf" 
d="M460 172h100v-75h-100v-193h-86v193h-334v80l312 395h108v-400zM374 172v315l-16 -22q-21 -29 -30 -40l-155 -197l-46 -56h247z" />
    <glyph glyph-name="five.tosf" 
d="M435.5 319.5q48.5 -28.5 76 -80t27.5 -117.5q0 -67 -30 -119.5t-84.5 -81.5t-123.5 -29q-104 0 -165.5 51t-68.5 145h90q7 -57 45 -88.5t99 -31.5q66 0 106.5 42t40.5 112t-39 112t-104 42q-44 0 -79.5 -20t-52.5 -57h-86l4 373h410v-76h-330l-2 -215q26 33 66 50t90 17
q62 0 110.5 -28.5z" />
    <glyph glyph-name="six.tosf" 
d="M440.5 405.5q49.5 -28.5 78 -79t28.5 -113.5q0 -64 -30.5 -115.5t-84 -80.5t-120.5 -29q-123 0 -189.5 90t-66.5 255q0 107 32 185.5t91 120t139 41.5q90 0 148.5 -48t68.5 -132h-90q-8 50 -42 77t-86 27q-81 0 -126 -70t-45 -200v-10q23 52 71.5 81t113.5 29
q60 0 109.5 -28.5zM414.5 105.5q41.5 41.5 41.5 106.5t-41.5 106.5t-105.5 41.5t-105.5 -41.5t-41.5 -106.5t41.5 -106.5t105.5 -41.5t105.5 41.5z" />
    <glyph glyph-name="seven.tosf" 
d="M50 572h493v-78q-112 -104 -185 -250t-93 -340h-98q24 187 97.5 336t185.5 254h-400v78z" />
    <glyph glyph-name="eight.tosf" 
d="M506.5 286.5q37.5 -43.5 37.5 -104.5q0 -56 -31.5 -100t-87 -69t-125.5 -25t-125.5 25t-87 69t-31.5 100q0 61 37.5 104.5t104.5 60.5q-57 17 -90 58.5t-33 94.5q0 52 29 93t80 64t116 23t116.5 -23t80 -64t28.5 -93q0 -53 -33 -94.5t-90 -58.5q67 -17 104.5 -60.5z
M201 413.5q37 -30.5 99 -30.5t99 30.5t37 80.5t-37.5 80.5t-98.5 30.5t-98.5 -30.5t-37.5 -80.5t37 -80.5zM411 97q42 34 42 90t-42 90t-111 34t-111 -34t-42 -90t42 -90t111 -34t111 34z" />
    <glyph glyph-name="nine.tosf" 
d="M478.5 495q66.5 -90 66.5 -255q0 -107 -32 -185.5t-91 -120t-140 -41.5q-90 0 -149 48t-69 132h90q9 -51 42.5 -77.5t85.5 -26.5q83 0 128 70t45 200v10q-24 -52 -72.5 -81t-113.5 -29q-61 0 -110.5 28.5t-78 79t-28.5 113.5q0 64 30.5 115.5t84 80.5t121.5 29
q124 0 190.5 -90zM397.5 255q41.5 42 41.5 106q0 65 -41.5 106.5t-106.5 41.5t-106.5 -41.5t-41.5 -106.5t41.5 -106.5t106.5 -41.5t106.5 42z" />
    <glyph glyph-name="zero.tosf.zero" 
d="M433 549q57 -36 87.5 -103.5t30.5 -159.5t-30.5 -159t-87 -103t-133.5 -36t-133.5 36t-87 103t-30.5 159t30.5 159.5t87 103.5t133.5 36q76 0 133 -36zM182.5 451q-41.5 -58 -41.5 -165q0 -65 16 -112l256 284q-43 51 -113 51q-76 0 -117.5 -58zM417.5 122
q42.5 58 42.5 164q0 66 -16 111l-255 -283q41 -50 111 -50q75 0 117.5 58z" />
    <glyph glyph-name="zero.dnom" horiz-adv-x="383" 
d="M74 47.5q-41 54.5 -41 152.5q0 99 41 153.5t116 54.5q74 0 115 -54.5t41 -153.5t-41 -153t-115 -54q-75 0 -116 54.5zM253 90q22 38 22 110t-22 110.5t-63 38.5t-63.5 -38.5t-22.5 -110.5q0 -71 22.5 -109.5t63.5 -38.5t63 38z" />
    <glyph glyph-name="one.dnom" horiz-adv-x="218" 
d="M5 297l85 104h69v-401h-71v320l-44 -55z" />
    <glyph glyph-name="two.dnom" horiz-adv-x="349" 
d="M314 57v-57h-288q3 48 27.5 85.5t74.5 73.5l46 34q65 47 65 93q0 29 -18.5 47t-47.5 18q-32 0 -51.5 -20t-21.5 -52h-71q2 59 40.5 94t102.5 35q62 0 100.5 -33.5t38.5 -88.5q0 -38 -24 -71.5t-74 -70.5l-47 -34q-38 -28 -52 -53h200z" />
    <glyph glyph-name="three.dnom" horiz-adv-x="364" 
d="M307 175q20 -26 20 -61q0 -53 -41 -87t-106 -34q-69 0 -110 33t-43 94h71q4 -33 25.5 -51t56.5 -18q33 0 54 18t21 48q0 29 -20.5 45.5t-56.5 16.5h-34v58h33q31 0 50 15t19 41t-19 42t-49 16q-31 0 -51.5 -17.5t-23.5 -46.5h-71q4 55 44 88t102 33q61 0 99.5 -31
t38.5 -80q0 -30 -17 -52.5t-46 -33.5q34 -10 54 -36z" />
    <glyph glyph-name="four.dnom" horiz-adv-x="378" 
d="M291 166h57v-56h-57v-110h-68v110h-199v60l178 231h89v-235zM223 166v173q-17 -24 -23 -32l-86 -112l-24 -29h133z" />
    <glyph glyph-name="five.dnom" horiz-adv-x="358" 
d="M289 228.5q36 -37.5 36 -96.5q0 -62 -41.5 -100.5t-107.5 -38.5q-67 0 -105 31.5t-43 89.5h72q4 -31 24 -47t52 -16q34 0 55.5 22.5t21.5 58.5t-21 58.5t-55 22.5q-23 0 -41.5 -11t-27.5 -30h-68l3 229h259v-58h-196l-2 -115q35 38 93 38q56 0 92 -37.5z" />
    <glyph glyph-name="six.dnom" horiz-adv-x="376" 
d="M303 222.5q38 -37.5 38 -93.5q0 -59 -42.5 -97.5t-105.5 -38.5q-77 0 -119 54t-42 153q0 98 43.5 153t119.5 55q57 0 94.5 -30t43.5 -83h-71q-4 27 -22 41.5t-45 14.5q-44 0 -68.5 -38.5t-24.5 -110.5q15 28 42.5 43t64.5 15q56 0 94 -37.5zM246.5 72q21.5 22 21.5 56
t-21.5 56t-55.5 22q-35 0 -57 -22t-22 -56t22.5 -56t56.5 -22t55.5 22z" />
    <glyph glyph-name="seven.dnom" horiz-adv-x="313" 
d="M11 401h281v-62q-128 -115 -145 -339h-79q11 109 50 195t106 146h-213v60z" />
    <glyph glyph-name="eight.dnom" horiz-adv-x="371" 
d="M313 172q22 -26 22 -61q0 -52 -42.5 -85t-109.5 -33t-110 33t-43 85q0 35 22 61t61 37q-33 11 -52.5 35t-19.5 55q0 49 39 79t103 30q63 0 102.5 -30t39.5 -79q0 -32 -19.5 -56t-52.5 -34q38 -11 60 -37zM130.5 335q-20.5 -16 -20.5 -42t20 -42t53 -16q32 0 52.5 16
t20.5 42t-20.5 42t-52.5 16t-52.5 -16zM241.5 68q22.5 18 22.5 48q0 29 -22.5 47t-58.5 18q-37 0 -59.5 -18t-22.5 -47q0 -30 22.5 -48t59.5 -18q36 0 58.5 18z" />
    <glyph glyph-name="nine.dnom" horiz-adv-x="375" 
d="M298 354q42 -54 42 -153q0 -98 -43.5 -153t-120.5 -55q-58 0 -95 30t-43 82h71q5 -27 23 -41t45 -14q43 0 67.5 38t24.5 109q-15 -27 -42.5 -42t-63.5 -15q-56 0 -94 37.5t-38 94.5q0 59 42 97.5t106 38.5q77 0 119 -54zM237.5 217q22.5 22 22.5 55q0 35 -22 57t-57 22
q-34 0 -56 -22.5t-22 -56.5q0 -33 22 -55t56 -22t56.5 22z" />
    <glyph glyph-name="zero.numr" horiz-adv-x="381" 
d="M75 314.5q-41 54.5 -41 152.5q0 99 41 153.5t116 54.5q74 0 115 -54.5t41 -153.5t-41 -153t-115 -54q-75 0 -116 54.5zM254 357q22 38 22 110t-22 110.5t-63 38.5t-63.5 -38.5t-22.5 -110.5q0 -71 22.5 -109.5t63.5 -38.5t63 38z" />
    <glyph glyph-name="one.numr" horiz-adv-x="217" 
d="M7 564l85 104h69v-401h-71v320l-44 -55z" />
    <glyph glyph-name="two.numr" horiz-adv-x="348" 
d="M315 324v-57h-288q3 48 27.5 85.5t74.5 73.5l46 34q65 47 65 93q0 29 -18.5 47t-47.5 18q-32 0 -51.5 -20t-21.5 -52h-71q2 59 40.5 94t102.5 35q62 0 100.5 -33.5t38.5 -88.5q0 -38 -24 -71.5t-74 -70.5l-47 -34q-38 -28 -52 -53h200z" />
    <glyph glyph-name="three.numr" horiz-adv-x="362" 
d="M309 442q20 -26 20 -61q0 -53 -41 -87t-106 -34q-69 0 -110 33t-43 94h71q4 -33 25.5 -51t56.5 -18q33 0 54 18t21 48q0 29 -20.5 45.5t-56.5 16.5h-34v58h33q31 0 50 15t19 41t-19 42t-49 16q-31 0 -51.5 -17.5t-23.5 -46.5h-71q4 55 44 88t102 33q61 0 99.5 -31
t38.5 -80q0 -30 -17 -52.5t-46 -33.5q34 -10 54 -36z" />
    <glyph glyph-name="four.numr" horiz-adv-x="380" 
d="M295 433h57v-56h-57v-110h-68v110h-199v60l178 231h89v-235zM227 433v173q-17 -24 -23 -32l-86 -112l-24 -29h133z" />
    <glyph glyph-name="five.numr" horiz-adv-x="358" 
d="M293 495.5q36 -37.5 36 -96.5q0 -62 -41.5 -100.5t-107.5 -38.5q-67 0 -105 31.5t-43 89.5h72q4 -31 24 -47t52 -16q34 0 55.5 22.5t21.5 58.5t-21 58.5t-55 22.5q-23 0 -41.5 -11t-27.5 -30h-68l3 229h259v-58h-196l-2 -115q35 38 93 38q56 0 92 -37.5z" />
    </font>
</defs>
</svg>
