<?xml version="1.0" standalone="no"?>
<!DOCTYPE svg PUBLIC "-//W3C//DTD SVG 1.1//EN" "http://www.w3.org/Graphics/SVG/1.1/DTD/svg11.dtd" >
<svg xmlns="http://www.w3.org/2000/svg" xmlns:xlink="http://www.w3.org/1999/xlink" version="1.1">
<metadata>
Created by FontForge 20170731 at Tue Mar  7 13:19:53 2023
 By Aleksey,,,
Copyright (c) 2022 by Tom Baber. All rights reserved.
</metadata>
<defs>
<font id="FoldGrotesquePro-Medium" horiz-adv-x="600" >
  <font-face 
    font-family="Fold Grotesque Pro Medium"
    font-weight="500"
    font-stretch="normal"
    units-per-em="1000"
    panose-1="2 11 6 3 3 2 1 4 1 3"
    ascent="800"
    descent="-200"
    x-height="472"
    cap-height="700"
    bbox="-341 -305 1325 969"
    underline-thickness="50"
    underline-position="-150"
    unicode-range="U+000D-FB02"
  />
<missing-glyph horiz-adv-x="674" 
d="M592 0h-511v700h511v-700zM164 623v-546h345v546h-345zM337 299l-93 -94l-52 53l94 92l-94 94l52 51l93 -94l93 94l51 -51l-93 -94l92 -92l-51 -52z" />
    <glyph glyph-name="f_i" unicode="fi" horiz-adv-x="587" 
d="M269 611q-60 0 -60 -60v-79h113v-87h-113v-385h-110v385h-68v87h68v98q0 64 34 97t99 33h90v-89h-53zM517 0h-109v472h109v-472zM520 550h-116v124h116v-124z" />
    <glyph glyph-name="f_l" unicode="fl" horiz-adv-x="587" 
d="M269 611q-60 0 -60 -60v-79h113v-87h-113v-385h-110v385h-68v87h68v98q0 64 34 97t99 33h90v-89h-53zM517 0h-109v700h109v-700z" />
    <glyph glyph-name=".notdef" horiz-adv-x="674" 
d="M592 0h-511v700h511v-700zM164 623v-546h345v546h-345zM337 299l-93 -94l-52 53l94 92l-94 94l52 51l93 -94l93 94l51 -51l-93 -94l92 -92l-51 -52z" />
    <glyph glyph-name=".null" horiz-adv-x="0" 
 />
    <glyph glyph-name="nonmarkingreturn" unicode="&#xd;" horiz-adv-x="223" 
 />
    <glyph glyph-name="space" unicode=" " horiz-adv-x="223" 
 />
    <glyph glyph-name="exclam" unicode="!" horiz-adv-x="265" 
d="M173 208h-81l-20 492h120zM195 0h-125v134h125v-134z" />
    <glyph glyph-name="quotedbl" unicode="&#x22;" horiz-adv-x="394" 
d="M155 410h-81l-14 258h109zM327 410h-81l-14 258h109z" />
    <glyph glyph-name="numbersign" unicode="#" horiz-adv-x="655" 
d="M621 485l-14 -78h-109l-27 -146h109l-14 -79h-109l-34 -182h-89l34 182h-139l-34 -182h-89l34 182h-109l15 79h108l27 146h-107l15 78h106l34 183h89l-34 -183h139l34 183h89l-34 -183h109zM243 261h139l27 146h-139z" />
    <glyph glyph-name="dollar" unicode="$" horiz-adv-x="573" 
d="M476 67q-54 -52 -143 -63v-98h-86v99q-95 10 -150 65t-60 142h111q4 -44 30.5 -73.5t68.5 -40.5v205l-20 4q-175 35 -175 178q0 71 55.5 120.5t139.5 57.5v98h86v-100q86 -12 137 -63.5t55 -129.5h-111q-4 36 -25 62t-56 37v-181l14 -3q88 -18 135.5 -65t47.5 -120
q0 -79 -54 -131zM247 403v168q-39 -8 -62 -30.5t-23 -55.5q0 -63 85 -82zM333 97q41 9 65 34.5t24 61.5q0 67 -89 92v-188z" />
    <glyph glyph-name="percent" unicode="%" horiz-adv-x="864" 
d="M110.5 346q-40.5 23 -63 64t-22.5 92q0 50 22.5 90.5t63 63.5t90.5 23t91 -23t64 -63.5t23 -90.5q0 -51 -23 -92t-64 -64t-91 -23t-90.5 23zM717 628l-506 -639l-65 51l506 639zM265.5 429q24.5 28 24.5 73q0 44 -24.5 71.5t-64.5 27.5q-39 0 -63.5 -27t-24.5 -72
q0 -46 24.5 -73.5t63.5 -27.5q40 0 64.5 28zM571 11q-40 23 -62.5 64t-22.5 92q0 50 22.5 90.5t62.5 63.5t90 23q51 0 91.5 -23t63.5 -63.5t23 -90.5q0 -51 -23 -92t-63.5 -64t-91.5 -23q-50 0 -90 23zM726 94.5q25 28.5 25 72.5t-25 71.5t-64 27.5t-64 -27t-25 -72
q0 -44 24.5 -72.5t64.5 -28.5q39 0 64 28.5z" />
    <glyph glyph-name="ampersand" unicode="&#x26;" horiz-adv-x="645" 
d="M645 0h-129l-49 58q-37 -35 -86 -52.5t-105 -17.5q-70 0 -123.5 25.5t-83 71.5t-29.5 105q0 63 35.5 111t110.5 90l-11 13q-33 40 -49 74.5t-16 71.5q0 73 50.5 117.5t131.5 44.5q82 0 132 -43.5t50 -115.5q0 -54 -33.5 -98t-106.5 -86l137 -162q19 45 27 100h96
q-8 -103 -59 -176zM238.5 602.5q-20.5 -20.5 -20.5 -52.5q0 -25 10 -46.5t35 -50.5l12 -14l15 8q41 22 60 46t19 55q0 34 -21 54.5t-55 20.5t-54.5 -20.5zM407 130l-162 191q-44 -25 -67 -55.5t-23 -70.5q0 -49 35.5 -80t91.5 -31q73 0 125 46z" />
    <glyph glyph-name="quotesingle" unicode="'" horiz-adv-x="222" 
d="M151 410h-81l-14 258h109z" />
    <glyph glyph-name="parenleft" unicode="(" horiz-adv-x="338" 
d="M312 -105q-78 12 -139 68t-95.5 148.5t-34.5 208.5t34.5 208.5t95.5 148.5t139 68v-93q-76 -24 -121 -112.5t-45 -219.5t45 -219.5t121 -112.5v-93z" />
    <glyph glyph-name="parenright" unicode=")" horiz-adv-x="338" 
d="M26 -12q76 24 121 112.5t45 219.5t-45 219.5t-121 112.5v93q78 -12 139 -68t95.5 -148.5t34.5 -208.5t-34.5 -208.5t-95.5 -148.5t-139 -68v93z" />
    <glyph glyph-name="asterisk" unicode="*" horiz-adv-x="455" 
d="M228 455l-74 -117l-71 51l89 107l-134 34l26 83l130 -51l-10 138h88l-10 -139l129 53l27 -85l-135 -33l90 -107l-71 -51z" />
    <glyph glyph-name="plus" unicode="+" horiz-adv-x="576" 
d="M335 345h202v-92h-202v-202h-93v202h-203v92h203v202h93v-202z" />
    <glyph glyph-name="comma" unicode="," horiz-adv-x="250" 
d="M62 136h125v-152q0 -63 -33 -100.5t-94 -42.5v56q65 11 65 87v16h-63v136z" />
    <glyph glyph-name="hyphen" unicode="-" horiz-adv-x="369" 
d="M317 225h-265v98h265v-98z" />
    <glyph glyph-name="period" unicode="." horiz-adv-x="246" 
d="M185 0h-125v136h125v-136z" />
    <glyph glyph-name="slash" unicode="/" horiz-adv-x="529" 
d="M516 700l-415 -805l-88 44l416 805z" />
    <glyph glyph-name="zero" unicode="0" horiz-adv-x="619" 
d="M118.5 78.5q-67.5 90.5 -67.5 255.5t67.5 255.5t190.5 90.5t191 -90.5t68 -255.5t-68 -255.5t-191 -90.5t-190.5 90.5zM416.5 147q37.5 65 37.5 187q0 121 -37.5 186.5t-107.5 65.5q-69 0 -106.5 -65.5t-37.5 -186.5q0 -122 37.5 -187t106.5 -65q70 0 107.5 65z" />
    <glyph glyph-name="one" unicode="1" horiz-adv-x="343" 
d="M8 497l140 171h109v-668h-111v538l-75 -93z" />
    <glyph glyph-name="two" unicode="2" horiz-adv-x="562" 
d="M514 93v-93h-475q4 77 44.5 139.5t125.5 123.5l77 56q56 41 82.5 80t26.5 80q0 48 -31.5 78t-82.5 30q-54 0 -87.5 -32.5t-36.5 -88.5h-112q3 98 66.5 156t169.5 58q67 0 119 -25.5t80.5 -71.5t28.5 -106q0 -63 -39 -119t-124 -119l-77 -57q-65 -48 -90 -89h335z" />
    <glyph glyph-name="three" unicode="3" horiz-adv-x="587" 
d="M504 291.5q33 -42.5 33 -101.5t-31 -105t-86 -71.5t-125 -25.5q-115 0 -181.5 55.5t-71.5 156.5h114q5 -56 41.5 -87.5t96.5 -31.5q57 0 93 31t36 82q0 50 -35 78.5t-96 28.5h-57v93h54q55 0 87 26t32 70q0 43 -32.5 70t-83.5 27q-53 0 -88 -29t-41 -78h-112
q7 93 72.5 146.5t168.5 53.5q66 0 118 -23t81 -65t29 -96q0 -49 -28.5 -88t-78.5 -57q58 -17 91 -59.5z" />
    <glyph glyph-name="four" unicode="4" horiz-adv-x="613" 
d="M478 276h96v-91h-96v-185h-108v185h-333v97l302 386h139v-392zM370 276v291q-16 -22 -23 -33l-14 -19l-150 -192q-23 -28 -39 -47h226z" />
    <glyph glyph-name="five" unicode="5" horiz-adv-x="583" 
d="M436 415.5q49 -28.5 76 -80t27 -117.5q0 -67 -31.5 -119t-87.5 -81.5t-127 -29.5q-109 0 -172.5 52.5t-71.5 148.5h114q7 -52 41 -80t88 -28q60 0 96.5 37.5t36.5 99.5q0 63 -35.5 101t-94.5 38q-40 0 -71.5 -18t-46.5 -50h-107l4 379h427v-93h-327l-2 -194q55 63 152 63
q63 0 112 -28.5z" />
    <glyph glyph-name="six" unicode="6" horiz-adv-x="607" 
d="M452 405.5q50 -28.5 79 -78.5t29 -112q0 -65 -31.5 -116.5t-87 -81t-124.5 -29.5q-128 0 -197.5 90t-69.5 256q0 108 32.5 186t93.5 119t145 41q94 0 155.5 -49t71.5 -137h-114q-7 46 -37 69.5t-77 23.5q-75 0 -116 -64t-42 -187q25 47 71 72.5t108 25.5q61 0 111 -28.5z
M407.5 118q37.5 37 37.5 95t-37.5 95t-95.5 37q-59 0 -96.5 -37t-37.5 -95t37.5 -95t96.5 -37q58 0 95.5 37z" />
    <glyph glyph-name="seven" unicode="7" horiz-adv-x="508" 
d="M19 668h464v-97q-214 -199 -242 -571h-126q19 184 85 328.5t176 244.5h-357v95z" />
    <glyph glyph-name="eight" unicode="8" horiz-adv-x="602" 
d="M516.5 286.5q36.5 -43.5 36.5 -102.5q0 -57 -32.5 -101.5t-89.5 -69.5t-130 -25t-130.5 25t-90 69.5t-32.5 101.5q0 60 36.5 103t103.5 61q-56 17 -88.5 57.5t-32.5 94.5q0 53 29.5 94t83 63.5t121.5 22.5t121.5 -22.5t83 -63.5t29.5 -94q0 -54 -32.5 -94.5t-89.5 -57.5
q67 -18 103.5 -61.5zM211 561.5q-34 -27.5 -34 -72.5t34 -72.5t90 -27.5t90 27.5t34 72.5t-34 72.5t-90 27.5t-90 -27.5zM401 110q38 31 38 82q0 50 -38 80.5t-100 30.5t-100 -30.5t-38 -80.5q0 -51 38 -82t100 -31t100 31z" />
    <glyph glyph-name="nine" unicode="9" horiz-adv-x="607" 
d="M487.5 590q69.5 -90 69.5 -256q0 -108 -32.5 -186t-93.5 -119t-145 -41q-94 0 -155.5 49t-71.5 137h114q7 -46 37 -69.5t77 -23.5q75 0 116 64t42 187q-25 -47 -71 -72.5t-108 -25.5q-61 0 -111 28.5t-79 78.5t-29 112q0 65 31.5 116.5t87 81t124.5 29.5q128 0 197.5 -90
zM391.5 360q37.5 37 37.5 95t-37.5 95t-96.5 37q-58 0 -95.5 -37t-37.5 -95t37.5 -95t95.5 -37q59 0 96.5 37z" />
    <glyph glyph-name="colon" unicode=":" horiz-adv-x="247" 
d="M186 325h-125v136h125v-136zM186 0h-125v136h125v-136z" />
    <glyph glyph-name="semicolon" unicode=";" horiz-adv-x="252" 
d="M64 325v136h125v-136h-125zM64 0v136h125v-152q0 -63 -33.5 -100.5t-94.5 -42.5v56q65 11 65 87v16h-62z" />
    <glyph glyph-name="less" unicode="&#x3c;" horiz-adv-x="584" 
d="M512 56l-454 191v107l454 191v-101l-259 -106l-75 -28l-26 -10q45 -14 101 -37l259 -106v-101z" />
    <glyph glyph-name="equal" unicode="=" horiz-adv-x="587" 
d="M530 367h-473v92h473v-92zM530 140h-473v91h473v-91z" />
    <glyph glyph-name="greater" unicode="&#x3e;" horiz-adv-x="583" 
d="M72 55v101l259 106q30 12 78 30q3 1 22 8q-50 17 -100 37l-259 106v101l454 -191v-107z" />
    <glyph glyph-name="question" unicode="?" horiz-adv-x="498" 
d="M178 212q-1 55 16 92.5t57 71.5l41 35q29 25 43 52t14 60q0 43 -28.5 69.5t-74.5 26.5q-53 0 -84 -31t-33 -83h-110q2 94 63.5 150.5t163.5 56.5q97 0 156.5 -51t59.5 -137q0 -52 -23 -95t-71 -81l-31 -25q-31 -24 -44.5 -48t-14.5 -63h-100zM293 0h-125v134h125v-134z
" />
    <glyph glyph-name="at" unicode="@" horiz-adv-x="883" 
d="M649 588.5q88 -47.5 138.5 -130.5t50.5 -186q0 -69 -22.5 -122.5t-63.5 -83t-94 -29.5q-46 0 -78 21.5t-45 61.5q-21 -40 -58 -61.5t-81 -21.5q-48 0 -85.5 24.5t-58 68t-20.5 100.5q0 62 23 111t64.5 76.5t94.5 27.5q40 0 72 -19t49 -56l8 66h88l-24 -221q-2 -18 -2 -25
q0 -37 15.5 -56.5t43.5 -19.5q39 0 61.5 42t22.5 115q0 79 -39 143.5t-107 101.5t-152 37q-91 0 -164 -41t-114.5 -112.5t-41.5 -159.5t40 -158t110 -110t157 -40q52 0 96 11.5t92 37.5l33 -76q-103 -57 -221 -57q-113 0 -203.5 51t-142 140t-51.5 201t53.5 202.5t147.5 142
t211 51.5q109 0 197 -47.5zM493.5 151.5q28.5 38.5 28.5 100.5q0 54 -24 85.5t-66 31.5q-47 0 -76 -38.5t-29 -100.5q0 -53 25 -85t66 -32q47 0 75.5 38.5z" />
    <glyph glyph-name="A" unicode="A" horiz-adv-x="698" 
d="M687 0h-122l-64 171h-308l-62 -171h-120l272 700h132zM229 269h236l-87 232q-13 35 -32 98q-13 -47 -32 -98z" />
    <glyph glyph-name="B" unicode="B" horiz-adv-x="660" 
d="M574 311q39 -44 39 -111q0 -93 -66.5 -146.5t-184.5 -53.5h-276v700h282q103 0 163 -49t60 -134q0 -56 -35.5 -96.5t-93.5 -52.5q73 -13 112 -57zM441 577q-32 26 -86 26h-154v-191h154q54 0 86 26t32 70q0 43 -32 69zM358 97q64 0 100 29t36 80t-36 80t-100 29h-157
v-218h157z" />
    <glyph glyph-name="C" unicode="C" horiz-adv-x="739" 
d="M212 33.5q-78 45.5 -122 128t-44 188.5t45 188.5t124.5 128t178.5 45.5q83 0 149 -29t107.5 -81.5t52.5 -123.5h-119q-16 60 -66.5 97t-123.5 37q-67 0 -119 -33t-81 -92.5t-29 -136.5t28.5 -136.5t79.5 -92.5t116 -33q70 0 120 36.5t73 98.5h120q-15 -70 -59.5 -123
t-111 -82.5t-143.5 -29.5q-98 0 -176 45.5z" />
    <glyph glyph-name="D" unicode="D" horiz-adv-x="750" 
d="M534.5 658q81.5 -42 125.5 -121t44 -187t-44 -187t-125.5 -121t-193.5 -42h-255v700h255q112 0 193.5 -42zM336 100q119 0 183.5 65.5t64.5 184.5t-64.5 184.5t-183.5 65.5h-135v-500h135z" />
    <glyph glyph-name="E" unicode="E" horiz-adv-x="598" 
d="M201 316v-216h349v-100h-464v700h460v-100h-345v-184h301v-100h-301z" />
    <glyph glyph-name="F" unicode="F" horiz-adv-x="576" 
d="M546 700v-100h-345v-191h302v-100h-302v-309h-115v700h460z" />
    <glyph glyph-name="G" unicode="G" horiz-adv-x="766" 
d="M461 333h241v-333h-100l1 111q-31 -60 -91 -91.5t-138 -31.5q-93 0 -168 46.5t-117.5 129t-42.5 186.5q0 105 45 187.5t125 128.5t181 46q80 0 145 -29t105.5 -81t51.5 -120h-119q-16 59 -65 94.5t-120 35.5q-67 0 -119.5 -33t-81.5 -92.5t-29 -136.5q0 -75 29.5 -135
t82 -93.5t119.5 -33.5q76 0 129 38t72 107h-136v100z" />
    <glyph glyph-name="H" unicode="H" horiz-adv-x="732" 
d="M531 416v284h115v-700h-115v316h-330v-316h-115v700h115v-284h330z" />
    <glyph glyph-name="I" unicode="I" horiz-adv-x="287" 
d="M201 0h-115v700h115v-700z" />
    <glyph glyph-name="J" unicode="J" horiz-adv-x="535" 
d="M79.5 46q-55.5 58 -55.5 165h111q1 -60 27 -93t76 -33q49 0 75.5 33.5t26.5 96.5v485h114v-485q0 -109 -58 -168t-158 -59q-103 0 -158.5 58z" />
    <glyph glyph-name="K" unicode="K" horiz-adv-x="671" 
d="M677 0h-146l-263 339l-67 -65v-274h-115v700h115v-299l306 299h150l-302 -290z" />
    <glyph glyph-name="L" unicode="L" horiz-adv-x="551" 
d="M201 700v-599l321 -1v-102l-436 2v700h115z" />
    <glyph glyph-name="M" unicode="M" horiz-adv-x="909" 
d="M86 0v700h173l165 -462q15 -41 31 -100l7 24q16 54 24 76l165 462h172v-700h-109v505q0 50 3 98l-213 -603h-104l-213 603q3 -48 3 -98v-505h-104z" />
    <glyph glyph-name="N" unicode="N" horiz-adv-x="751" 
d="M86 0v700h158l316 -562q-2 88 -2 118v444h107v-700h-145l-330 586q3 -69 3 -126v-460h-107z" />
    <glyph glyph-name="O" unicode="O" horiz-adv-x="794" 
d="M214.5 33.5q-79.5 45.5 -124 127.5t-44.5 189q0 106 45 188.5t124.5 128t180.5 45.5q102 0 182 -45.5t125 -128t45 -188.5t-45 -188.5t-125 -128t-182 -45.5t-181.5 45.5zM517.5 121.5q52.5 33.5 82 93t29.5 135.5t-29.5 135.5t-82 93t-121.5 33.5q-68 0 -120.5 -33
t-81.5 -92.5t-29 -136.5t29 -136.5t81.5 -92.5t120.5 -33q69 0 121.5 33.5z" />
    <glyph glyph-name="P" unicode="P" horiz-adv-x="628" 
d="M534 644.5q65 -55.5 65 -154.5q0 -98 -65.5 -153.5t-182.5 -55.5h-150v-281h-115v700h265q118 0 183 -55.5zM344 379q65 0 100.5 29t35.5 82q0 54 -35.5 83t-100.5 29h-143v-223h143z" />
    <glyph glyph-name="Q" unicode="Q" horiz-adv-x="794" 
d="M710.5 174.5q-37.5 -77.5 -105.5 -125t-158 -58.5v-39q0 -23 11.5 -33.5t36.5 -10.5h49v-97h-76q-64 0 -93.5 26.5t-29.5 85.5v68q-89 11 -156.5 58.5t-105 124.5t-37.5 174q0 107 44.5 189.5t124 128.5t181.5 46q103 0 183 -45.5t124.5 -127.5t44.5 -189
q0 -98 -37.5 -175.5zM194 213.5q29 -59.5 81.5 -92.5t120.5 -33q69 0 121.5 33t82 92.5t29.5 136.5t-29.5 136.5t-82 92.5t-121.5 33q-68 0 -120.5 -33t-81.5 -92.5t-29 -136.5t29 -136.5z" />
    <glyph glyph-name="R" unicode="R" horiz-adv-x="660" 
d="M580 120q0 -41 3.5 -66.5t12.5 -53.5h-118q-6 22 -8.5 48t-2.5 70v82q0 54 -22.5 77t-79.5 23h-164v-300h-115v700h290q105 0 165.5 -52t60.5 -138q0 -60 -35 -102t-98 -56q58 -10 84.5 -45t26.5 -103v-84zM357 397q59 0 92.5 27.5t33.5 75.5q0 47 -33.5 74.5t-92.5 27.5
h-156v-205h156z" />
    <glyph glyph-name="S" unicode="S" horiz-adv-x="633" 
d="M118.5 47q-73.5 59 -80.5 169h118q8 -62 51.5 -96.5t115.5 -34.5q66 0 106.5 30.5t40.5 80.5q0 39 -27.5 63t-83.5 37l-109 23q-94 21 -143 70.5t-49 124.5q0 57 32.5 102t89.5 70.5t130 25.5q118 0 191 -56t80 -153h-117q-6 53 -47.5 83.5t-105.5 30.5q-59 0 -97 -28
t-38 -72q0 -37 25.5 -60.5t78.5 -34.5l116 -25q94 -20 143 -70.5t49 -126.5q0 -63 -33.5 -111t-94 -74.5t-138.5 -26.5q-130 0 -203.5 59z" />
    <glyph glyph-name="T" unicode="T" horiz-adv-x="590" 
d="M25 700h540v-101h-213v-600h-114v600h-213v101z" />
    <glyph glyph-name="U" unicode="U" horiz-adv-x="733" 
d="M214 21.5q-65 33.5 -100 97.5t-35 152v429h115v-423q0 -90 45.5 -139.5t127.5 -49.5q81 0 127 49.5t46 139.5v423h114v-425q0 -89 -35.5 -154t-100 -99t-151.5 -34q-88 0 -153 33.5z" />
    <glyph glyph-name="V" unicode="V" horiz-adv-x="688" 
d="M280 0l-268 700h123l172 -463q20 -55 40 -120q20 65 40 120l169 463h120l-268 -700h-128z" />
    <glyph glyph-name="W" unicode="W" horiz-adv-x="976" 
d="M205 0l-181 700h117l109 -452q9 -35 22 -98l7 -32q17 77 30 130l117 452h130l117 -452q13 -53 30 -130l29 130l110 452h110l-182 -700h-137l-123 475l-5 21q-11 45 -17 76q-17 -75 -23 -97l-123 -475h-137z" />
    <glyph glyph-name="X" unicode="X" horiz-adv-x="673" 
d="M5 0l260 359l-246 341h139l139 -203q18 -24 40 -60q22 36 40 60l140 203h134l-244 -337l262 -363h-143l-147 215q-16 22 -44 66q-21 -36 -42 -66l-149 -215h-139z" />
    <glyph glyph-name="Y" unicode="Y" horiz-adv-x="670" 
d="M658 700l-265 -417v-283h-115v281l-265 419h130l150 -242q23 -36 45 -78q23 42 45 78l149 242h126z" />
    <glyph glyph-name="Z" unicode="Z" horiz-adv-x="628" 
d="M579 603l-403 -503h415v-100h-551v97l403 503h-396v100h532v-97z" />
    <glyph glyph-name="bracketleft" unicode="[" horiz-adv-x="353" 
d="M324 -93h-244v825h244v-90h-142v-644h142v-91z" />
    <glyph glyph-name="backslash" unicode="\" horiz-adv-x="529" 
d="M516 -62l-87 -44l-416 807l87 44z" />
    <glyph glyph-name="bracketright" unicode="]" horiz-adv-x="353" 
d="M273 -93h-244v91h142v644h-142v90h244v-825z" />
    <glyph glyph-name="asciicircum" unicode="^" horiz-adv-x="552" 
d="M32 373l190 327h108l190 -327h-110l-90 161q-25 46 -43 85l-9 -18q-23 -46 -34 -66l-92 -162h-110z" />
    <glyph glyph-name="underscore" unicode="_" horiz-adv-x="558" 
d="M514 -157h-470v92h470v-92z" />
    <glyph glyph-name="grave" unicode="`" horiz-adv-x="299" 
d="M240 546h-86l-96 132h119z" />
    <glyph glyph-name="a" unicode="a" horiz-adv-x="517" 
d="M453 84q0 -42 3 -84h-102q-1 17 -1 53v13q-47 -78 -151 -78q-73 0 -118.5 39t-45.5 101t45 99.5t130 48.5l75 10q28 4 43.5 15t15.5 34q0 30 -24 49.5t-60 19.5q-40 0 -66 -19.5t-31 -54.5h-110q8 70 64.5 112t140.5 42q89 0 140.5 -47t51.5 -131v-222zM346 239
q-14 -16 -57 -25l-57 -10q-81 -16 -81 -71q0 -29 22 -47t59 -18q50 0 82 31.5t32 82.5v57z" />
    <glyph glyph-name="b" unicode="b" horiz-adv-x="584" 
d="M439.5 452q48.5 -32 76 -88.5t27.5 -127.5q0 -73 -27 -129.5t-76 -87.5t-112 -31q-52 0 -91 22t-61 64v-74h-106v700h109v-301q22 41 61 63t90 22q61 0 109.5 -32zM394.5 121q35.5 44 35.5 115t-35.5 114.5t-93.5 43.5t-92.5 -43.5t-34.5 -114.5q0 -72 34.5 -115.5
t92.5 -43.5t93.5 44z" />
    <glyph glyph-name="c" unicode="c" horiz-adv-x="537" 
d="M154.5 19.5q-54.5 31.5 -85 88t-30.5 128.5t30.5 128.5t85.5 88t126 31.5q92 0 152 -46.5t69 -124.5h-110q-8 38 -37 59.5t-72 21.5q-59 0 -95 -43.5t-36 -114.5t36 -115t94 -44q42 0 71 21.5t40 59.5h110q-13 -77 -73.5 -123.5t-150.5 -46.5q-70 0 -124.5 31.5z" />
    <glyph glyph-name="d" unicode="d" horiz-adv-x="584" 
d="M405 700h109v-700h-106v74q-22 -42 -61 -64t-92 -22q-62 0 -111 31t-76.5 87.5t-27.5 129.5q0 71 28 127.5t76.5 88.5t109.5 32q51 0 90 -22.5t61 -63.5v302zM374.5 120.5q34.5 43.5 34.5 115.5q0 71 -34.5 114.5t-92.5 43.5t-93 -43.5t-35 -114.5t35 -115t93 -44
t92.5 43.5z" />
    <glyph glyph-name="e" unicode="e" horiz-adv-x="540" 
d="M500 208h-349q4 -63 37 -97.5t88 -34.5q39 0 68 18.5t41 50.5h109q-14 -71 -74.5 -114t-144.5 -43q-70 0 -123 31t-82.5 87t-29.5 130q0 73 30.5 129.5t83.5 87.5t120 31q107 0 166.5 -65.5t59.5 -177.5v-33zM193.5 370.5q-35.5 -29.5 -41.5 -84.5h240q-1 53 -34 83.5
t-81 30.5t-83.5 -29.5z" />
    <glyph glyph-name="f" unicode="f" horiz-adv-x="338" 
d="M269 611q-60 0 -60 -60v-79h113v-87h-113v-385h-110v385h-68v87h68v98q0 64 34 97t99 33h90v-89h-53z" />
    <glyph glyph-name="g" unicode="g" horiz-adv-x="577" 
d="M402 472h106v-481q0 -96 -62.5 -149.5t-167.5 -53.5q-97 0 -155 44t-65 121h111q8 -38 36.5 -58t75.5 -20q55 0 86.5 30t31.5 84v95q-21 -41 -59 -62.5t-89 -21.5q-61 0 -109 31t-75 86t-27 124q0 71 28.5 126t78 86t110.5 31q50 0 87 -21.5t58 -63.5v73zM369 129.5
q34 42.5 34 111.5q0 68 -34.5 110.5t-89.5 42.5q-56 0 -90.5 -42.5t-34.5 -110.5q0 -69 34.5 -111.5t90.5 -42.5t90 42.5z" />
    <glyph glyph-name="h" unicode="h" horiz-adv-x="553" 
d="M442.5 433q46.5 -51 46.5 -140v-293h-109v276q0 56 -25 87t-69 31q-49 0 -78 -37t-29 -99v-258h-109v700h109v-297q22 40 58 60.5t83 20.5q76 0 122.5 -51z" />
    <glyph glyph-name="i" unicode="i" horiz-adv-x="248" 
d="M179 0h-109v472h109v-472zM182 550h-116v124h116v-124z" />
    <glyph glyph-name="j" unicode="j" horiz-adv-x="248" 
d="M-11 -200v91h32q49 0 49 50v531h109v-548q0 -61 -29.5 -92.5t-97.5 -31.5h-63zM182 550h-116v124h116v-124z" />
    <glyph glyph-name="k" unicode="k" horiz-adv-x="511" 
d="M510 0h-134l-159 209l-38 -36v-173h-109v700h109v-413l183 185h139l-203 -194z" />
    <glyph glyph-name="l" unicode="l" horiz-adv-x="248" 
d="M179 0h-109v700h109v-700z" />
    <glyph glyph-name="m" unicode="m" horiz-adv-x="824" 
d="M715.5 432.5q43.5 -51.5 43.5 -138.5v-294h-109v283q0 53 -22.5 82t-61.5 29q-45 0 -71 -33t-26 -91v-270h-109v283q0 53 -23 82t-62 29q-45 0 -70.5 -33t-25.5 -91v-270h-109v472h106v-76q20 43 54.5 65.5t80.5 22.5q49 0 85.5 -25.5t55.5 -72.5q23 48 60.5 73t86.5 25
q73 0 116.5 -51.5z" />
    <glyph glyph-name="n" unicode="n" horiz-adv-x="553" 
d="M442.5 432.5q46.5 -51.5 46.5 -140.5v-292h-109v274q0 56 -25 88t-71 32q-48 0 -76.5 -35t-28.5 -94v-265h-109v472h106v-77q21 43 58 66t86 23q76 0 122.5 -51.5z" />
    <glyph glyph-name="o" unicode="o" horiz-adv-x="565" 
d="M156 19.5q-55 31.5 -85.5 87.5t-30.5 129t30.5 129t85.5 87.5t127 31.5t127 -31.5t85.5 -87.5t30.5 -129t-30.5 -129t-85.5 -87.5t-127 -31.5t-127 31.5zM376.5 120.5q35.5 43.5 35.5 115.5q0 71 -35.5 114.5t-93.5 43.5q-59 0 -94.5 -43.5t-35.5 -114.5
q0 -72 35.5 -115.5t94.5 -43.5q58 0 93.5 43.5z" />
    <glyph glyph-name="p" unicode="p" horiz-adv-x="584" 
d="M440 452.5q49 -31.5 76 -87.5t27 -129q0 -71 -27.5 -127.5t-76 -88.5t-109.5 -32q-51 0 -90 22t-61 62v-272h-109v672h106v-75q22 42 61 64.5t91 22.5q63 0 112 -31.5zM394.5 121q35.5 44 35.5 115t-35.5 114.5t-93.5 43.5t-92.5 -43.5t-34.5 -114.5q0 -72 34.5 -115.5
t92.5 -43.5t93.5 44z" />
    <glyph glyph-name="q" unicode="q" horiz-adv-x="583" 
d="M408 472h106v-672h-109v273q-22 -41 -61 -63t-90 -22q-61 0 -109.5 32t-76.5 88.5t-28 127.5q0 73 27.5 129t76.5 87.5t111 31.5q53 0 92 -22.5t61 -64.5v75zM374.5 120.5q34.5 43.5 34.5 115.5q0 71 -34.5 114.5t-92.5 43.5t-93 -43.5t-35 -114.5t35 -115t93 -44
t92.5 43.5z" />
    <glyph glyph-name="r" unicode="r" horiz-adv-x="362" 
d="M174 380q19 58 63 83t103 20v-105q-84 5 -122.5 -32.5t-38.5 -124.5v-221h-109v472h104v-92z" />
    <glyph glyph-name="s" unicode="s" horiz-adv-x="481" 
d="M94 32q-55 44 -60 116h106q5 -37 33 -57.5t72 -20.5q40 0 63.5 17.5t23.5 46.5q0 43 -68 57l-78 15q-137 26 -137 137q0 41 24 73t66.5 50t96.5 18q86 0 138.5 -38t59.5 -106h-105q-6 30 -30.5 47t-62.5 17q-37 0 -59 -15.5t-22 -40.5q0 -42 57 -53l84 -16
q72 -14 109.5 -49t37.5 -91q0 -68 -54.5 -109.5t-143.5 -41.5q-96 0 -151 44z" />
    <glyph glyph-name="t" unicode="t" horiz-adv-x="357" 
d="M320 385h-115v-239q0 -27 13.5 -41t45.5 -14h56v-91h-91q-66 0 -99.5 31t-33.5 97v257h-67v87h67v165h109v-165h115v-87z" />
    <glyph glyph-name="u" unicode="u" horiz-adv-x="553" 
d="M375 472h109v-472h-106v78q-21 -45 -58 -67.5t-87 -22.5q-75 0 -122 51t-47 141v292h109v-275q0 -56 25.5 -88t70.5 -32q49 0 77.5 35.5t28.5 94.5v265z" />
    <glyph glyph-name="v" unicode="v" horiz-adv-x="503" 
d="M192 0l-176 472h118l93 -278q13 -36 27 -86q11 43 26 86l95 278h111l-175 -472h-119z" />
    <glyph glyph-name="w" unicode="w" horiz-adv-x="737" 
d="M152 0l-127 472h111l65 -281l12 -62q2 -7 3 -14t2 -13l22 89l76 281h114l75 -281q16 -62 22 -89l17 89l65 281h103l-126 -472h-122l-77 288q-7 26 -18 77q-11 -51 -18 -77l-78 -288h-121z" />
    <glyph glyph-name="x" unicode="x" horiz-adv-x="504" 
d="M11 0l174 240l-168 232h131l76 -115l30 -46l29 46l76 115h124l-164 -228l177 -244h-135l-81 123q-20 30 -29 46l-30 -46l-82 -123h-128z" />
    <glyph glyph-name="y" unicode="y" horiz-adv-x="502" 
d="M59 -200v92h34q33 0 54 14t32 44l21 55l-189 467h121l93 -258q16 -45 30 -91l29 91l87 258h112l-208 -559q-22 -58 -62 -85.5t-102 -27.5h-52z" />
    <glyph glyph-name="z" unicode="z" horiz-adv-x="472" 
d="M424 387l-256 -300h265v-87h-392v84l258 300h-255v88h380v-85z" />
    <glyph glyph-name="braceleft" unicode="{" horiz-adv-x="375" 
d="M207 424q0 -45 -16.5 -70.5t-51.5 -33.5q35 -8 51.5 -33.5t16.5 -70.5v-151q0 -67 71 -67h69v-91h-103q-71 0 -105.5 33t-34.5 101v177q0 32 -12 45t-40 13h-19v88h19q28 0 40 13t12 45v177q0 68 34.5 101t105.5 33h103v-91h-69q-71 0 -71 -67v-151z" />
    <glyph glyph-name="bar" unicode="|" horiz-adv-x="272" 
d="M185 -124h-98v906h98v-906z" />
    <glyph glyph-name="braceright" unicode="}" horiz-adv-x="376" 
d="M343 363v-87h-19q-28 0 -40 -13.5t-12 -44.5v-178q0 -134 -140 -134h-103v91h69q71 0 71 68v151q0 86 66 104q-66 16 -66 103v151q0 68 -71 68h-69v90h103q71 0 105.5 -33t34.5 -100v-178q0 -31 12 -44.5t40 -13.5h19z" />
    <glyph glyph-name="asciitilde" unicode="~" horiz-adv-x="631" 
d="M370.5 227.5q-29.5 11.5 -68.5 32.5q-30 16 -49.5 24t-38.5 8q-27 0 -42 -18t-16 -49h-97q0 76 36.5 117t104.5 41q35 0 64 -11t68 -32q31 -17 50 -25t39 -8q27 0 42 17.5t16 49.5h97q0 -77 -36 -117.5t-104 -40.5q-36 0 -65.5 11.5z" />
    <glyph glyph-name="uni00A0" unicode="&#xa0;" horiz-adv-x="223" 
 />
    <glyph glyph-name="exclamdown" unicode="&#xa1;" horiz-adv-x="262" 
d="M194 436h-126v134h126v-134zM191 -130h-120l19 492h82z" />
    <glyph glyph-name="cent" unicode="&#xa2;" horiz-adv-x="562" 
d="M519 158q-12 -68 -60 -112.5t-121 -54.5v-83h-86v83q-89 14 -143 81t-54 164q0 96 54 163t143 81v83h86v-82q75 -10 123 -54.5t56 -113.5h-109q-7 29 -25 48.5t-45 26.5v-305q26 8 44.5 27.5t26.5 47.5h110zM190.5 140q22.5 -40 61.5 -55v301q-39 -15 -61.5 -54.5
t-22.5 -95.5t22.5 -96z" />
    <glyph glyph-name="sterling" unicode="&#xa3;" horiz-adv-x="582" 
d="M242.5 152q-21.5 -37 -56.5 -58h347v-94h-475v98q97 47 97 136q0 11 -2 33h-107v87h83q-11 34 -16.5 62t-5.5 62q0 61 28.5 106.5t78.5 70.5t112 25q95 0 152.5 -50.5t62.5 -138.5h-112q-6 45 -33.5 70.5t-69.5 25.5q-49 0 -78 -30t-29 -80q0 -32 5.5 -57.5t17.5 -65.5
h193v-87h-173q2 -20 2 -32q0 -46 -21.5 -83z" />
    <glyph glyph-name="currency" unicode="&#xa4;" horiz-adv-x="638" 
d="M516 173l69 -68l-66 -66l-66 65q-58 -39 -134 -39q-78 0 -135 40l-66 -66l-66 66l69 69q-31 54 -31 125t31 125l-69 69l66 66l66 -66q57 40 135 40q76 0 134 -39l66 65l66 -66l-69 -68q32 -53 32 -126t-32 -126zM227 193q35 -41 92 -41q56 0 91.5 41t35.5 106t-35.5 106
t-91.5 41q-57 0 -92 -41t-35 -106t35 -106z" />
    <glyph glyph-name="yen" unicode="&#xa5;" horiz-adv-x="615" 
d="M591 668l-199 -341h146v-77h-175v-62h175v-77h-175v-111h-111v111h-175v77h175v62h-175v77h144l-198 341h124l117 -212l46 -88q17 37 45 88l117 212h119z" />
    <glyph glyph-name="brokenbar" unicode="&#xa6;" horiz-adv-x="272" 
d="M185 388h-98v394h98v-394zM185 -124h-98v394h98v-394z" />
    <glyph glyph-name="section" unicode="&#xa7;" horiz-adv-x="525" 
d="M458 71q0 -45 -25 -81t-69.5 -56.5t-101.5 -20.5q-96 0 -150.5 44.5t-57.5 123.5h110q3 -39 29 -61t69 -22q39 0 63.5 19.5t24.5 50.5q0 24 -15 40t-49 28l-107 37q-66 23 -96.5 59.5t-30.5 88.5q0 75 87 121q-71 42 -71 120q0 43 24.5 77.5t68 53.5t98.5 19
q89 0 143.5 -43.5t58.5 -115.5h-110q-4 34 -29.5 54.5t-63.5 20.5q-36 0 -59.5 -18t-23.5 -45q0 -42 55 -60l125 -43q124 -41 124 -143q0 -37 -24 -70.5t-66 -55.5q69 -44 69 -122zM173 291q15 -18 49 -31l92 -33q59 31 59 77q0 26 -16 44t-50 29l-97 33q-52 -31 -52 -74
q0 -27 15 -45z" />
    <glyph glyph-name="dieresis" unicode="&#xa8;" horiz-adv-x="415" 
d="M161 556h-103v112h103v-112zM356 556h-102v112h102v-112z" />
    <glyph glyph-name="copyright" unicode="&#xa9;" horiz-adv-x="861" 
d="M240 23.5q-86 49.5 -135.5 136t-49.5 190.5t49.5 190t135.5 135.5t190 49.5t190 -49.5t136 -135.5t50 -190t-50 -190.5t-136 -136t-190 -49.5t-190 49.5zM579.5 89.5q67.5 39.5 107 108.5t39.5 152t-39.5 151.5t-107 108t-149.5 39.5t-149.5 -39.5t-106.5 -108
t-39 -151.5t39 -152t106.5 -108.5t149.5 -39.5t149.5 39.5zM327 169.5q-45 26.5 -70 73.5t-25 107t26.5 107t72.5 73.5t103 26.5q74 0 123 -40t57 -105h-82q-8 31 -34.5 50.5t-64.5 19.5q-50 0 -82.5 -37t-32.5 -95t31.5 -95t79.5 -37q37 0 63 18.5t39 51.5h82
q-12 -64 -64 -104.5t-121 -40.5q-56 0 -101 26.5z" />
    <glyph glyph-name="ordfeminine" unicode="&#xaa;" horiz-adv-x="444" 
d="M381 358q0 -35 3 -68h-88q-1 14 -1 42v10q-36 -62 -121 -62q-59 0 -95 32t-36 82t36 79.5t105 38.5l60 8q45 5 45 37q0 24 -18 38.5t-45 14.5q-31 0 -51 -15t-24 -41h-93q6 56 52 89.5t114 33.5q73 0 115 -37.5t42 -105.5v-176zM289 478q-7 -7 -16.5 -11t-27.5 -7l-43 -9
q-62 -11 -62 -53q0 -22 17 -36t45 -14q38 0 62.5 24t24.5 63v43z" />
    <glyph glyph-name="guillemotleft" unicode="&#xab;" horiz-adv-x="515" 
d="M479 50h-102l-106 194l106 194h102l-105 -194zM261 50h-102l-106 194l106 194h102l-105 -194z" />
    <glyph glyph-name="logicalnot" unicode="&#xac;" horiz-adv-x="551" 
d="M483 151h-93v202h-352v92h445v-294z" />
    <glyph glyph-name="uni00AD" unicode="&#xad;" horiz-adv-x="369" 
d="M317 225h-265v98h265v-98z" />
    <glyph glyph-name="registered" unicode="&#xae;" horiz-adv-x="645" 
d="M458.5 681.5q61.5 -35.5 97 -97t35.5 -135.5t-35.5 -135t-97 -96.5t-135.5 -35.5t-135.5 35.5t-97 96.5t-35.5 135t35.5 135.5t97 97t135.5 35.5t135.5 -35.5zM425 272q46 27 72.5 73.5t26.5 103.5t-26.5 104t-72.5 74t-102 27t-102 -27t-73 -74t-27 -104t27 -103.5
t73 -73.5t102 -27t102 27zM421.5 473q-14.5 -17 -40.5 -23q24 -4 35 -17.5t11 -39.5v-36q0 -28 5 -47h-61q-4 19 -4 47v34q0 18 -8.5 26t-26.5 8h-50v-115h-60v280h119q43 0 69 -21t26 -55q0 -24 -14.5 -41zM282 475h52q19 0 30 8.5t11 24.5q0 15 -11 24t-30 9h-52v-66z" />
    <glyph glyph-name="macron" unicode="&#xaf;" horiz-adv-x="404" 
d="M346 573h-287v77h287v-77z" />
    <glyph glyph-name="degree" unicode="&#xb0;" horiz-adv-x="444" 
d="M134.5 367.5q-39.5 21.5 -62 60t-22.5 85.5t23 85t62 60t87 22t87 -22t62 -60t23 -85t-23 -85.5t-62 -60t-87 -21.5t-87.5 21.5zM284.5 447.5q24.5 25.5 24.5 65.5q0 39 -25 65t-62 26t-62 -26t-25 -65q0 -40 24.5 -65.5t62.5 -25.5t62.5 25.5z" />
    <glyph glyph-name="plusminus" unicode="&#xb1;" horiz-adv-x="576" 
d="M334 591v-164h198v-92h-198v-165h-93v165h-197v92h197v164h93zM532 10h-488v91h488v-91z" />
    <glyph glyph-name="uni00B2" unicode="&#xb2;" horiz-adv-x="448" 
d="M401 369v-79h-362q3 61 33.5 109t93.5 93l57 40q39 28 57.5 55t18.5 55q0 32 -21 52t-54 20q-36 0 -59 -22t-24 -60h-98q3 74 51.5 117.5t128.5 43.5q79 0 127 -41.5t48 -109.5q0 -47 -29 -89.5t-92 -87.5l-58 -41q-42 -31 -56 -55h238z" />
    <glyph glyph-name="uni00B3" unicode="&#xb3;" horiz-adv-x="464" 
d="M394.5 505q23.5 -31 23.5 -73q0 -44 -23.5 -78.5t-65.5 -53.5t-95 -19q-88 0 -139 42.5t-54 117.5h99q4 -39 28 -60t65 -21q39 0 63 21t24 55q0 33 -23.5 52t-64.5 19h-44v78h41q37 0 58.5 17.5t21.5 46.5t-21.5 47t-55.5 18q-37 0 -60 -20t-27 -52h-98q6 71 56.5 111
t128.5 40q77 0 125.5 -38.5t48.5 -99.5q0 -36 -20.5 -64t-55.5 -41q41 -14 64.5 -45z" />
    <glyph glyph-name="acute" unicode="&#xb4;" horiz-adv-x="299" 
d="M144 546h-86l63 132h119z" />
    <glyph glyph-name="uni00B5" unicode="&#xb5;" horiz-adv-x="577" 
d="M389 472h109v-472h-106v78q-20 -45 -57 -67.5t-87 -22.5q-31 0 -60 13v-201h-109v672h109v-275q0 -56 25.5 -88t70.5 -32q48 0 76.5 35.5t28.5 94.5v265z" />
    <glyph glyph-name="paragraph" unicode="&#xb6;" horiz-adv-x="562" 
d="M47.5 613q26.5 41 75 64t111.5 23h76v-700h-82v336q-62 1 -109 24t-72.5 64t-25.5 94q0 54 26.5 95zM392 0v700h82v-700h-82z" />
    <glyph glyph-name="periodcentered" unicode="&#xb7;" horiz-adv-x="248" 
d="M186 281h-125v136h125v-136z" />
    <glyph glyph-name="cedilla" unicode="&#xb8;" horiz-adv-x="342" 
d="M182 -43q43 2 72 -19t29 -61t-31.5 -64.5t-81.5 -24.5q-33 0 -62.5 10.5t-49.5 28.5l35 49q34 -28 75 -28q22 0 34.5 9.5t12.5 24.5q0 14 -13 22t-31 8q-22 0 -38 -8l-33 30l67 76h55v-10z" />
    <glyph glyph-name="uni00B9" unicode="&#xb9;" horiz-adv-x="301" 
d="M15 654l107 130h95v-494h-96v388l-54 -68z" />
    <glyph glyph-name="ordmasculine" unicode="&#xba;" horiz-adv-x="471" 
d="M133 305q-45 25 -69.5 70.5t-24.5 103.5t24.5 103t69.5 70t103 25q88 0 142 -54.5t54 -143.5q0 -59 -24.5 -104t-69 -70t-102.5 -25t-103 25zM307.5 390q27.5 34 27.5 89t-27.5 89t-71.5 34q-45 0 -72.5 -34t-27.5 -89t27.5 -89t72.5 -34q44 0 71.5 34z" />
    <glyph glyph-name="guillemotright" unicode="&#xbb;" horiz-adv-x="515" 
d="M138 50h-102l105 194l-105 194h102l106 -194zM356 50h-102l105 194l-105 194h102l106 -194z" />
    <glyph glyph-name="onequarter" unicode="&#xbc;" horiz-adv-x="810" 
d="M21 561l87 107h81v-401h-82v310l-42 -53zM629 632l-475 -644l-64 48l475 644zM729 171h56v-66h-56v-105h-79v105h-198v70l170 226h107v-230zM650 171v161q-11 -16 -20 -29l-80 -106q-7 -11 -22 -26h122z" />
    <glyph glyph-name="onehalf" unicode="&#xbd;" horiz-adv-x="825" 
d="M22 561l87 107h81v-401h-82v310l-42 -53zM631 632l-475 -644l-64 48l475 644zM784 66v-66h-297q3 52 28 90.5t76 74.5l46 34q60 42 60 85q0 26 -16 42t-42 16q-29 0 -46 -18t-18 -47h-84q2 60 41.5 95.5t105.5 35.5q65 0 104 -34t39 -89q0 -39 -23.5 -73t-74.5 -71
l-46 -33q-31 -22 -44 -42h191z" />
    <glyph glyph-name="threequarters" unicode="&#xbe;" horiz-adv-x="931" 
d="M326 442q19 -26 19 -60q0 -54 -42.5 -88t-108.5 -34q-72 0 -114 34t-44 96h85q3 -30 22 -46.5t51 -16.5q29 0 47.5 16t18.5 43q0 26 -18.5 40.5t-50.5 14.5h-34v66h33q28 0 45 13.5t17 36.5t-17 37.5t-44 14.5q-28 0 -46 -16.5t-20 -41.5h-84q4 58 44.5 91t105.5 33
q64 0 104 -31t40 -81q0 -29 -16.5 -51.5t-45.5 -33.5q34 -10 53 -36zM752 632l-475 -644l-64 48l475 644zM851 171h56v-66h-56v-105h-79v105h-198v70l170 226h107v-230zM772 171v161q-11 -16 -20 -29l-80 -106q-7 -11 -22 -26h122z" />
    <glyph glyph-name="questiondown" unicode="&#xbf;" horiz-adv-x="500" 
d="M331 436h-125v134h125v-134zM96.5 -91q-59.5 51 -59.5 137q0 52 23 95t71 81l32 25q30 24 43.5 48t14.5 63h101q0 -55 -17 -92.5t-57 -71.5l-41 -35q-29 -25 -42.5 -52t-13.5 -60q0 -43 28 -69.5t74 -26.5q53 0 84 30.5t33 83.5h110q-2 -94 -63.5 -150.5t-163.5 -56.5
q-97 0 -156.5 51z" />
    <glyph glyph-name="Agrave" unicode="&#xc0;" horiz-adv-x="698" 
d="M687 0h-122l-64 171h-308l-62 -171h-120l272 700h132zM229 269h236l-87 232q-13 35 -32 98q-13 -47 -32 -98zM393 774h-86l-96 132h119z" />
    <glyph glyph-name="Aacute" unicode="&#xc1;" horiz-adv-x="698" 
d="M687 0h-122l-64 171h-308l-62 -171h-120l272 700h132zM229 269h236l-87 232q-13 35 -32 98q-13 -47 -32 -98zM391 774h-86l63 132h119z" />
    <glyph glyph-name="Acircumflex" unicode="&#xc2;" horiz-adv-x="698" 
d="M687 0h-122l-64 171h-308l-62 -171h-120l272 700h132zM229 269h236l-87 232q-13 35 -32 98q-13 -47 -32 -98zM178 773l110 133h121l110 -133h-101l-26 30q-25 31 -43 56q-22 -29 -44 -56l-26 -30h-101z" />
    <glyph glyph-name="Atilde" unicode="&#xc3;" horiz-adv-x="698" 
d="M687 0h-122l-64 171h-308l-62 -171h-120l272 700h132zM229 269h236l-87 232q-13 35 -32 98q-13 -47 -32 -98zM385.5 787q-17.5 6 -41.5 17q-18 9 -30 13t-24 4q-15 0 -23 -9.5t-8 -25.5h-79q-1 53 23 82.5t70 29.5q21 0 38.5 -6t41.5 -17q18 -9 30 -13t24 -4q15 0 23 9.5
t8 25.5h79q1 -53 -23 -82.5t-70 -29.5q-21 0 -38.5 6z" />
    <glyph glyph-name="Adieresis" unicode="&#xc4;" horiz-adv-x="698" 
d="M687 0h-122l-64 171h-308l-62 -171h-120l272 700h132zM229 269h236l-87 232q-13 35 -32 98q-13 -47 -32 -98zM303 784h-103v112h103v-112zM498 784h-102v112h102v-112z" />
    <glyph glyph-name="Aring" unicode="&#xc5;" horiz-adv-x="698" 
d="M687 0h-122l-64 171h-308l-62 -171h-120l272 700h132zM229 269h236l-87 232q-13 35 -32 98q-13 -47 -32 -98zM263 786.5q-33 29.5 -33 76.5t33 76.5t86 29.5q51 0 84.5 -29.5t33.5 -76.5t-33.5 -76.5t-84.5 -29.5q-53 0 -86 29.5zM383 828.5q14 13.5 14 34.5t-14 34.5
t-34 13.5q-22 0 -35.5 -13.5t-13.5 -34.5t13.5 -34.5t35.5 -13.5q20 0 34 13.5z" />
    <glyph glyph-name="AE" unicode="&#xc6;" horiz-adv-x="931" 
d="M533 316v-216h349v-100h-463v169h-225l-89 -169h-121l374 700h520v-100h-345v-184h301v-100h-301zM245 267h174v344q-19 -47 -48 -104z" />
    <glyph glyph-name="Ccedilla" unicode="&#xc7;" horiz-adv-x="739" 
d="M509 124.5q50 36.5 73 98.5h120q-21 -99 -100 -162.5t-188 -71.5l-34 -37q43 2 72 -19t29 -61t-31 -64.5t-82 -24.5q-33 0 -62.5 10.5t-49.5 28.5l35 49q34 -28 76 -28q21 0 33.5 9.5t12.5 24.5q0 14 -12.5 22.5t-31.5 8.5q-20 0 -38 -9l-33 30l54 61q-89 8 -158.5 55
t-108.5 126t-39 179q0 106 45 188.5t124.5 128t178.5 45.5q83 0 149 -29t107.5 -81.5t52.5 -123.5h-119q-16 60 -66.5 97t-123.5 37q-67 0 -119 -33t-81 -92.5t-29 -136.5t28.5 -136.5t79.5 -92.5t116 -33q70 0 120 36.5z" />
    <glyph glyph-name="Egrave" unicode="&#xc8;" horiz-adv-x="598" 
d="M201 316v-216h349v-100h-464v700h460v-100h-345v-184h301v-100h-301zM366 774h-86l-96 132h119z" />
    <glyph glyph-name="Eacute" unicode="&#xc9;" horiz-adv-x="598" 
d="M201 316v-216h349v-100h-464v700h460v-100h-345v-184h301v-100h-301zM364 774h-86l63 132h119z" />
    <glyph glyph-name="Ecircumflex" unicode="&#xca;" horiz-adv-x="598" 
d="M201 316v-216h349v-100h-464v700h460v-100h-345v-184h301v-100h-301zM152 773l110 133h121l110 -133h-101l-26 30q-25 31 -43 56q-22 -29 -44 -56l-26 -30h-101z" />
    <glyph glyph-name="Edieresis" unicode="&#xcb;" horiz-adv-x="598" 
d="M201 316v-216h349v-100h-464v700h460v-100h-345v-184h301v-100h-301zM276 784h-103v112h103v-112zM471 784h-102v112h102v-112z" />
    <glyph glyph-name="Igrave" unicode="&#xcc;" horiz-adv-x="287" 
d="M201 0h-115v700h115v-700zM188 774h-86l-96 132h119z" />
    <glyph glyph-name="Iacute" unicode="&#xcd;" horiz-adv-x="287" 
d="M201 0h-115v700h115v-700zM186 774h-86l63 132h119z" />
    <glyph glyph-name="Icircumflex" unicode="&#xce;" horiz-adv-x="287" 
d="M201 0h-115v700h115v-700zM-27 773l110 133h121l110 -133h-101l-26 30q-25 31 -43 56q-22 -29 -44 -56l-26 -30h-101z" />
    <glyph glyph-name="Idieresis" unicode="&#xcf;" horiz-adv-x="287" 
d="M201 0h-115v700h115v-700zM97 784h-103v112h103v-112zM292 784h-102v112h102v-112z" />
    <glyph glyph-name="Eth" unicode="&#xd0;" horiz-adv-x="770" 
d="M554 658q82 -42 126 -121t44 -187t-44 -187t-126 -121t-193 -42h-255v318h-87v85h87v297h255q111 0 193 -42zM356 100q119 0 183.5 65.5t64.5 184.5t-64.5 184.5t-183.5 65.5h-136v-197h178v-85h-178v-218h136z" />
    <glyph glyph-name="Ntilde" unicode="&#xd1;" horiz-adv-x="751" 
d="M86 0v700h158l316 -562q-2 88 -2 118v444h107v-700h-145l-330 586q3 -69 3 -126v-460h-107zM413.5 787q-17.5 6 -41.5 17q-18 9 -30 13t-24 4q-15 0 -23 -9.5t-8 -25.5h-79q-1 53 23 82.5t70 29.5q21 0 38.5 -6t41.5 -17q18 -9 30 -13t24 -4q15 0 23 9.5t8 25.5h79
q1 -53 -23 -82.5t-70 -29.5q-21 0 -38.5 6z" />
    <glyph glyph-name="Ograve" unicode="&#xd2;" horiz-adv-x="794" 
d="M214.5 33.5q-79.5 45.5 -124 127.5t-44.5 189q0 106 45 188.5t124.5 128t180.5 45.5q102 0 182 -45.5t125 -128t45 -188.5t-45 -188.5t-125 -128t-182 -45.5t-181.5 45.5zM517.5 121.5q52.5 33.5 82 93t29.5 135.5t-29.5 135.5t-82 93t-121.5 33.5q-68 0 -120.5 -33
t-81.5 -92.5t-29 -136.5t29 -136.5t81.5 -92.5t120.5 -33q69 0 121.5 33.5zM441 774h-86l-96 132h119z" />
    <glyph glyph-name="Oacute" unicode="&#xd3;" horiz-adv-x="794" 
d="M214.5 33.5q-79.5 45.5 -124 127.5t-44.5 189q0 106 45 188.5t124.5 128t180.5 45.5q102 0 182 -45.5t125 -128t45 -188.5t-45 -188.5t-125 -128t-182 -45.5t-181.5 45.5zM517.5 121.5q52.5 33.5 82 93t29.5 135.5t-29.5 135.5t-82 93t-121.5 33.5q-68 0 -120.5 -33
t-81.5 -92.5t-29 -136.5t29 -136.5t81.5 -92.5t120.5 -33q69 0 121.5 33.5zM439 774h-86l63 132h119z" />
    <glyph glyph-name="Ocircumflex" unicode="&#xd4;" horiz-adv-x="794" 
d="M214.5 33.5q-79.5 45.5 -124 127.5t-44.5 189q0 106 45 188.5t124.5 128t180.5 45.5q102 0 182 -45.5t125 -128t45 -188.5t-45 -188.5t-125 -128t-182 -45.5t-181.5 45.5zM517.5 121.5q52.5 33.5 82 93t29.5 135.5t-29.5 135.5t-82 93t-121.5 33.5q-68 0 -120.5 -33
t-81.5 -92.5t-29 -136.5t29 -136.5t81.5 -92.5t120.5 -33q69 0 121.5 33.5zM226 773l110 133h121l110 -133h-101l-26 30q-25 31 -43 56q-22 -29 -44 -56l-26 -30h-101z" />
    <glyph glyph-name="Otilde" unicode="&#xd5;" horiz-adv-x="794" 
d="M214.5 33.5q-79.5 45.5 -124 127.5t-44.5 189q0 106 45 188.5t124.5 128t180.5 45.5q102 0 182 -45.5t125 -128t45 -188.5t-45 -188.5t-125 -128t-182 -45.5t-181.5 45.5zM517.5 121.5q52.5 33.5 82 93t29.5 135.5t-29.5 135.5t-82 93t-121.5 33.5q-68 0 -120.5 -33
t-81.5 -92.5t-29 -136.5t29 -136.5t81.5 -92.5t120.5 -33q69 0 121.5 33.5zM433.5 787q-17.5 6 -41.5 17q-18 9 -30 13t-24 4q-15 0 -23 -9.5t-8 -25.5h-79q-1 53 23 82.5t70 29.5q21 0 38.5 -6t41.5 -17q18 -9 30 -13t24 -4q15 0 23 9.5t8 25.5h79q1 -53 -23 -82.5
t-70 -29.5q-21 0 -38.5 6z" />
    <glyph glyph-name="Odieresis" unicode="&#xd6;" horiz-adv-x="794" 
d="M214.5 33.5q-79.5 45.5 -124 127.5t-44.5 189q0 106 45 188.5t124.5 128t180.5 45.5q102 0 182 -45.5t125 -128t45 -188.5t-45 -188.5t-125 -128t-182 -45.5t-181.5 45.5zM517.5 121.5q52.5 33.5 82 93t29.5 135.5t-29.5 135.5t-82 93t-121.5 33.5q-68 0 -120.5 -33
t-81.5 -92.5t-29 -136.5t29 -136.5t81.5 -92.5t120.5 -33q69 0 121.5 33.5zM351 784h-103v112h103v-112zM546 784h-102v112h102v-112z" />
    <glyph glyph-name="multiply" unicode="&#xd7;" horiz-adv-x="531" 
d="M266 236l-157 -157l-64 64l157 157l-157 158l63 63l157 -158l157 157l64 -64l-157 -156l156 -157l-63 -63z" />
    <glyph glyph-name="Oslash" unicode="&#xd8;" horiz-adv-x="794" 
d="M657 604q44 -48 67.5 -112.5t23.5 -141.5q0 -106 -45 -188.5t-125 -128t-182 -45.5q-106 0 -187 49l-62 -78l-72 56l63 80q-44 48 -68 113t-24 142q0 106 45 188.5t124.5 128t180.5 45.5q106 0 190 -50l61 78l72 -57zM210 186l309 392q-54 34 -123 34q-68 0 -120.5 -33
t-81.5 -92.5t-29 -136.5q0 -96 45 -164zM517.5 121.5q52.5 33.5 82 93t29.5 135.5q0 95 -45 163l-309 -392q55 -33 121 -33q69 0 121.5 33.5z" />
    <glyph glyph-name="Ugrave" unicode="&#xd9;" horiz-adv-x="733" 
d="M214 21.5q-65 33.5 -100 97.5t-35 152v429h115v-423q0 -90 45.5 -139.5t127.5 -49.5q81 0 127 49.5t46 139.5v423h114v-425q0 -89 -35.5 -154t-100 -99t-151.5 -34q-88 0 -153 33.5zM411 774h-86l-96 132h119z" />
    <glyph glyph-name="Uacute" unicode="&#xda;" horiz-adv-x="733" 
d="M214 21.5q-65 33.5 -100 97.5t-35 152v429h115v-423q0 -90 45.5 -139.5t127.5 -49.5q81 0 127 49.5t46 139.5v423h114v-425q0 -89 -35.5 -154t-100 -99t-151.5 -34q-88 0 -153 33.5zM409 774h-86l63 132h119z" />
    <glyph glyph-name="Ucircumflex" unicode="&#xdb;" horiz-adv-x="733" 
d="M214 21.5q-65 33.5 -100 97.5t-35 152v429h115v-423q0 -90 45.5 -139.5t127.5 -49.5q81 0 127 49.5t46 139.5v423h114v-425q0 -89 -35.5 -154t-100 -99t-151.5 -34q-88 0 -153 33.5zM196 773l110 133h121l110 -133h-101l-26 30q-25 31 -43 56q-22 -29 -44 -56l-26 -30
h-101z" />
    <glyph glyph-name="Udieresis" unicode="&#xdc;" horiz-adv-x="733" 
d="M214 21.5q-65 33.5 -100 97.5t-35 152v429h115v-423q0 -90 45.5 -139.5t127.5 -49.5q81 0 127 49.5t46 139.5v423h114v-425q0 -89 -35.5 -154t-100 -99t-151.5 -34q-88 0 -153 33.5zM321 784h-103v112h103v-112zM516 784h-102v112h102v-112z" />
    <glyph glyph-name="Yacute" unicode="&#xdd;" horiz-adv-x="670" 
d="M658 700l-265 -417v-283h-115v281l-265 419h130l150 -242q23 -36 45 -78q23 42 45 78l149 242h126zM379 774h-86l63 132h119z" />
    <glyph glyph-name="Thorn" unicode="&#xde;" horiz-adv-x="638" 
d="M351 573q119 0 183.5 -55.5t64.5 -154.5t-64.5 -154.5t-183.5 -55.5h-150v-153h-115v700h115v-127h150zM344 252q66 0 101 29t35 82t-35 82.5t-101 29.5h-143v-223h143z" />
    <glyph glyph-name="germandbls" unicode="&#xdf;" horiz-adv-x="560" 
d="M485 319q36 -48 36 -113q0 -94 -62.5 -150t-167.5 -56h-53v91h41q61 0 95.5 32.5t34.5 88.5t-34.5 88.5t-95.5 32.5h-41v90h42q45 0 74.5 28t29.5 72t-28 72t-71 28q-49 0 -77.5 -29.5t-28.5 -81.5v-512h-109v510q0 93 58.5 147.5t156.5 54.5q61 0 108.5 -23t74 -64.5
t26.5 -96.5q0 -50 -29 -90.5t-79 -55.5q63 -15 99 -63z" />
    <glyph glyph-name="agrave" unicode="&#xe0;" horiz-adv-x="517" 
d="M453 84q0 -42 3 -84h-102q-1 17 -1 53v13q-47 -78 -151 -78q-73 0 -118.5 39t-45.5 101t45 99.5t130 48.5l75 10q28 4 43.5 15t15.5 34q0 30 -24 49.5t-60 19.5q-40 0 -66 -19.5t-31 -54.5h-110q8 70 64.5 112t140.5 42q89 0 140.5 -47t51.5 -131v-222zM346 239
q-14 -16 -57 -25l-57 -10q-81 -16 -81 -71q0 -29 22 -47t59 -18q50 0 82 31.5t32 82.5v57zM307 546h-86l-96 132h119z" />
    <glyph glyph-name="aacute" unicode="&#xe1;" horiz-adv-x="517" 
d="M453 84q0 -42 3 -84h-102q-1 17 -1 53v13q-47 -78 -151 -78q-73 0 -118.5 39t-45.5 101t45 99.5t130 48.5l75 10q28 4 43.5 15t15.5 34q0 30 -24 49.5t-60 19.5q-40 0 -66 -19.5t-31 -54.5h-110q8 70 64.5 112t140.5 42q89 0 140.5 -47t51.5 -131v-222zM346 239
q-14 -16 -57 -25l-57 -10q-81 -16 -81 -71q0 -29 22 -47t59 -18q50 0 82 31.5t32 82.5v57zM305 546h-86l63 132h119z" />
    <glyph glyph-name="acircumflex" unicode="&#xe2;" horiz-adv-x="517" 
d="M453 84q0 -42 3 -84h-102q-1 17 -1 53v13q-47 -78 -151 -78q-73 0 -118.5 39t-45.5 101t45 99.5t130 48.5l75 10q28 4 43.5 15t15.5 34q0 30 -24 49.5t-60 19.5q-40 0 -66 -19.5t-31 -54.5h-110q8 70 64.5 112t140.5 42q89 0 140.5 -47t51.5 -131v-222zM346 239
q-14 -16 -57 -25l-57 -10q-81 -16 -81 -71q0 -29 22 -47t59 -18q50 0 82 31.5t32 82.5v57zM92 545l110 133h121l110 -133h-101l-26 30q-25 31 -43 56q-22 -29 -44 -56l-26 -30h-101z" />
    <glyph glyph-name="atilde" unicode="&#xe3;" horiz-adv-x="517" 
d="M453 84q0 -42 3 -84h-102q-1 17 -1 53v13q-47 -78 -151 -78q-73 0 -118.5 39t-45.5 101t45 99.5t130 48.5l75 10q28 4 43.5 15t15.5 34q0 30 -24 49.5t-60 19.5q-40 0 -66 -19.5t-31 -54.5h-110q8 70 64.5 112t140.5 42q89 0 140.5 -47t51.5 -131v-222zM346 239
q-14 -16 -57 -25l-57 -10q-81 -16 -81 -71q0 -29 22 -47t59 -18q50 0 82 31.5t32 82.5v57zM299.5 559q-17.5 6 -41.5 17q-18 9 -30 13t-24 4q-15 0 -23 -9.5t-8 -25.5h-79q-1 53 23 82.5t70 29.5q21 0 38.5 -6t41.5 -17q18 -9 30 -13t24 -4q15 0 23 9.5t8 25.5h79
q1 -53 -23 -82.5t-70 -29.5q-21 0 -38.5 6z" />
    <glyph glyph-name="adieresis" unicode="&#xe4;" horiz-adv-x="517" 
d="M453 84q0 -42 3 -84h-102q-1 17 -1 53v13q-47 -78 -151 -78q-73 0 -118.5 39t-45.5 101t45 99.5t130 48.5l75 10q28 4 43.5 15t15.5 34q0 30 -24 49.5t-60 19.5q-40 0 -66 -19.5t-31 -54.5h-110q8 70 64.5 112t140.5 42q89 0 140.5 -47t51.5 -131v-222zM346 239
q-14 -16 -57 -25l-57 -10q-81 -16 -81 -71q0 -29 22 -47t59 -18q50 0 82 31.5t32 82.5v57zM216 556h-103v112h103v-112zM411 556h-102v112h102v-112z" />
    <glyph glyph-name="aring" unicode="&#xe5;" horiz-adv-x="517" 
d="M453 84q0 -42 3 -84h-102q-1 17 -1 53v13q-47 -78 -151 -78q-73 0 -118.5 39t-45.5 101t45 99.5t130 48.5l75 10q28 4 43.5 15t15.5 34q0 30 -24 49.5t-60 19.5q-40 0 -66 -19.5t-31 -54.5h-110q8 70 64.5 112t140.5 42q89 0 140.5 -47t51.5 -131v-222zM346 239
q-14 -16 -57 -25l-57 -10q-81 -16 -81 -71q0 -29 22 -47t59 -18q50 0 82 31.5t32 82.5v57zM176 558.5q-33 29.5 -33 76.5t33 76.5t86 29.5q51 0 84.5 -29.5t33.5 -76.5t-33.5 -76.5t-84.5 -29.5q-53 0 -86 29.5zM296 600.5q14 13.5 14 34.5t-14 34.5t-34 13.5
q-22 0 -35.5 -13.5t-13.5 -34.5t13.5 -34.5t35.5 -13.5q20 0 34 13.5z" />
    <glyph glyph-name="ae" unicode="&#xe6;" horiz-adv-x="843" 
d="M802 208h-349q4 -63 37 -97.5t89 -34.5q39 0 67.5 18.5t40.5 50.5h109q-14 -71 -74.5 -114t-144.5 -43q-61 0 -109.5 24.5t-77.5 69.5q-28 -46 -74 -70t-106 -24q-78 0 -125 39t-47 102q0 61 45.5 98.5t129.5 48.5l75 10q28 4 43.5 15t15.5 34q0 30 -24 49.5t-60 19.5
q-40 0 -66 -19.5t-31 -54.5h-110q8 70 64.5 112t139.5 42q53 0 93 -17.5t62 -50.5q29 33 70.5 50.5t90.5 17.5q107 0 166.5 -65.5t59.5 -177.5v-33zM694 286q-1 53 -34 83.5t-81 30.5t-83.5 -29.5t-41.5 -84.5h240zM346 238q-14 -16 -57 -24l-57 -10q-81 -16 -81 -71
q0 -29 22 -47t59 -18q50 0 82 31.5t32 82.5v56z" />
    <glyph glyph-name="ccedilla" unicode="&#xe7;" horiz-adv-x="537" 
d="M503 158q-12 -72 -66 -117.5t-135 -51.5l-30 -32q43 2 72 -19t29 -61t-31.5 -64.5t-81.5 -24.5q-33 0 -62.5 10.5t-49.5 28.5l35 49q34 -28 76 -28q21 0 33.5 9.5t12.5 24.5q0 14 -12.5 22t-31.5 8q-22 0 -38 -8l-33 30l51 57q-60 8 -106 41t-71 86t-25 118
q0 72 30.5 128.5t85.5 88t126 31.5q92 0 152 -46.5t69 -124.5h-110q-8 38 -37 59.5t-72 21.5q-59 0 -95 -43.5t-36 -114.5t36 -115t94 -44q42 0 71 21.5t40 59.5h110z" />
    <glyph glyph-name="egrave" unicode="&#xe8;" horiz-adv-x="540" 
d="M500 208h-349q4 -63 37 -97.5t88 -34.5q39 0 68 18.5t41 50.5h109q-14 -71 -74.5 -114t-144.5 -43q-70 0 -123 31t-82.5 87t-29.5 130q0 73 30.5 129.5t83.5 87.5t120 31q107 0 166.5 -65.5t59.5 -177.5v-33zM193.5 370.5q-35.5 -29.5 -41.5 -84.5h240q-1 53 -34 83.5
t-81 30.5t-83.5 -29.5zM321 546h-86l-96 132h119z" />
    <glyph glyph-name="eacute" unicode="&#xe9;" horiz-adv-x="540" 
d="M500 208h-349q4 -63 37 -97.5t88 -34.5q39 0 68 18.5t41 50.5h109q-14 -71 -74.5 -114t-144.5 -43q-70 0 -123 31t-82.5 87t-29.5 130q0 73 30.5 129.5t83.5 87.5t120 31q107 0 166.5 -65.5t59.5 -177.5v-33zM193.5 370.5q-35.5 -29.5 -41.5 -84.5h240q-1 53 -34 83.5
t-81 30.5t-83.5 -29.5zM318 546h-86l63 132h119z" />
    <glyph glyph-name="ecircumflex" unicode="&#xea;" horiz-adv-x="540" 
d="M500 208h-349q4 -63 37 -97.5t88 -34.5q39 0 68 18.5t41 50.5h109q-14 -71 -74.5 -114t-144.5 -43q-70 0 -123 31t-82.5 87t-29.5 130q0 73 30.5 129.5t83.5 87.5t120 31q107 0 166.5 -65.5t59.5 -177.5v-33zM193.5 370.5q-35.5 -29.5 -41.5 -84.5h240q-1 53 -34 83.5
t-81 30.5t-83.5 -29.5zM106 545l110 133h121l110 -133h-101l-26 30q-25 31 -43 56q-22 -29 -44 -56l-26 -30h-101z" />
    <glyph glyph-name="edieresis" unicode="&#xeb;" horiz-adv-x="540" 
d="M500 208h-349q4 -63 37 -97.5t88 -34.5q39 0 68 18.5t41 50.5h109q-14 -71 -74.5 -114t-144.5 -43q-70 0 -123 31t-82.5 87t-29.5 130q0 73 30.5 129.5t83.5 87.5t120 31q107 0 166.5 -65.5t59.5 -177.5v-33zM193.5 370.5q-35.5 -29.5 -41.5 -84.5h240q-1 53 -34 83.5
t-81 30.5t-83.5 -29.5zM230 556h-103v112h103v-112zM425 556h-102v112h102v-112z" />
    <glyph glyph-name="igrave" unicode="&#xec;" horiz-adv-x="248" 
d="M179 0h-109v472h109v-472zM169 546h-86l-96 132h119z" />
    <glyph glyph-name="iacute" unicode="&#xed;" horiz-adv-x="248" 
d="M179 0h-109v472h109v-472zM167 546h-86l63 132h119z" />
    <glyph glyph-name="icircumflex" unicode="&#xee;" horiz-adv-x="248" 
d="M179 0h-109v472h109v-472zM-46 545l110 133h121l110 -133h-101l-26 30q-25 31 -43 56q-22 -29 -44 -56l-26 -30h-101z" />
    <glyph glyph-name="idieresis" unicode="&#xef;" horiz-adv-x="248" 
d="M179 0h-109v472h109v-472zM78 556h-103v112h103v-112zM273 556h-102v112h102v-112z" />
    <glyph glyph-name="eth" unicode="&#xf0;" horiz-adv-x="550" 
d="M372 585q64 -69 99 -152.5t35 -177.5q0 -83 -29 -143t-82 -92t-123 -32q-68 0 -120.5 30t-81.5 84.5t-29 125.5q0 69 27 122t76 82.5t111 29.5q82 0 131 -57q-38 74 -108 140l-132 -57l-27 65l99 42q-43 32 -87 56l75 63q58 -32 111 -77l118 50l27 -64zM364.5 118.5
q33.5 41.5 33.5 108.5t-33.5 108t-88.5 41t-88.5 -41t-33.5 -108t33.5 -108.5t88.5 -41.5t88.5 41.5z" />
    <glyph glyph-name="ntilde" unicode="&#xf1;" horiz-adv-x="553" 
d="M442.5 432.5q46.5 -51.5 46.5 -140.5v-292h-109v274q0 56 -25 88t-71 32q-48 0 -76.5 -35t-28.5 -94v-265h-109v472h106v-77q21 43 58 66t86 23q76 0 122.5 -51.5zM314.5 559q-17.5 6 -41.5 17q-18 9 -30 13t-24 4q-15 0 -23 -9.5t-8 -25.5h-79q-1 53 23 82.5t70 29.5
q21 0 38.5 -6t41.5 -17q18 -9 30 -13t24 -4q15 0 23 9.5t8 25.5h79q1 -53 -23 -82.5t-70 -29.5q-21 0 -38.5 6z" />
    <glyph glyph-name="ograve" unicode="&#xf2;" horiz-adv-x="565" 
d="M156 19.5q-55 31.5 -85.5 87.5t-30.5 129t30.5 129t85.5 87.5t127 31.5t127 -31.5t85.5 -87.5t30.5 -129t-30.5 -129t-85.5 -87.5t-127 -31.5t-127 31.5zM376.5 120.5q35.5 43.5 35.5 115.5q0 71 -35.5 114.5t-93.5 43.5q-59 0 -94.5 -43.5t-35.5 -114.5
q0 -72 35.5 -115.5t94.5 -43.5q58 0 93.5 43.5zM327 545h-86l-96 132h119z" />
    <glyph glyph-name="oacute" unicode="&#xf3;" horiz-adv-x="565" 
d="M156 19.5q-55 31.5 -85.5 87.5t-30.5 129t30.5 129t85.5 87.5t127 31.5t127 -31.5t85.5 -87.5t30.5 -129t-30.5 -129t-85.5 -87.5t-127 -31.5t-127 31.5zM376.5 120.5q35.5 43.5 35.5 115.5q0 71 -35.5 114.5t-93.5 43.5q-59 0 -94.5 -43.5t-35.5 -114.5
q0 -72 35.5 -115.5t94.5 -43.5q58 0 93.5 43.5zM325 545h-86l63 132h119z" />
    <glyph glyph-name="ocircumflex" unicode="&#xf4;" horiz-adv-x="565" 
d="M156 19.5q-55 31.5 -85.5 87.5t-30.5 129t30.5 129t85.5 87.5t127 31.5t127 -31.5t85.5 -87.5t30.5 -129t-30.5 -129t-85.5 -87.5t-127 -31.5t-127 31.5zM376.5 120.5q35.5 43.5 35.5 115.5q0 71 -35.5 114.5t-93.5 43.5q-59 0 -94.5 -43.5t-35.5 -114.5
q0 -72 35.5 -115.5t94.5 -43.5q58 0 93.5 43.5zM112 544l110 133h121l110 -133h-101l-26 30q-25 31 -43 56q-22 -29 -44 -56l-26 -30h-101z" />
    <glyph glyph-name="otilde" unicode="&#xf5;" horiz-adv-x="565" 
d="M156 19.5q-55 31.5 -85.5 87.5t-30.5 129t30.5 129t85.5 87.5t127 31.5t127 -31.5t85.5 -87.5t30.5 -129t-30.5 -129t-85.5 -87.5t-127 -31.5t-127 31.5zM376.5 120.5q35.5 43.5 35.5 115.5q0 71 -35.5 114.5t-93.5 43.5q-59 0 -94.5 -43.5t-35.5 -114.5
q0 -72 35.5 -115.5t94.5 -43.5q58 0 93.5 43.5zM319.5 558q-17.5 6 -41.5 17q-18 9 -30 13t-24 4q-15 0 -23 -9.5t-8 -25.5h-79q-1 53 23 82.5t70 29.5q21 0 38.5 -6t41.5 -17q18 -9 30 -13t24 -4q15 0 23 9.5t8 25.5h79q1 -53 -23 -82.5t-70 -29.5q-21 0 -38.5 6z" />
    <glyph glyph-name="odieresis" unicode="&#xf6;" horiz-adv-x="565" 
d="M156 19.5q-55 31.5 -85.5 87.5t-30.5 129t30.5 129t85.5 87.5t127 31.5t127 -31.5t85.5 -87.5t30.5 -129t-30.5 -129t-85.5 -87.5t-127 -31.5t-127 31.5zM376.5 120.5q35.5 43.5 35.5 115.5q0 71 -35.5 114.5t-93.5 43.5q-59 0 -94.5 -43.5t-35.5 -114.5
q0 -72 35.5 -115.5t94.5 -43.5q58 0 93.5 43.5zM237 555h-103v112h103v-112zM432 555h-102v112h102v-112z" />
    <glyph glyph-name="divide" unicode="&#xf7;" horiz-adv-x="576" 
d="M342 432h-108v118h108v-118zM537 254h-498v91h498v-91zM342 49h-108v118h108v-118z" />
    <glyph glyph-name="oslash" unicode="&#xf8;" horiz-adv-x="568" 
d="M471 401q56 -65 56 -165q0 -73 -31 -129t-86 -87.5t-126 -31.5q-72 0 -127 32l-41 -50l-60 48l42 51q-57 68 -57 167q0 72 31 128.5t86.5 88t125.5 31.5q72 0 129 -33l42 50l58 -49zM170 156l181 219q-30 19 -67 19q-58 0 -93.5 -43.5t-35.5 -114.5q0 -45 15 -80z
M378 121q36 44 36 115q0 44 -14 78l-181 -219q27 -18 65 -18q58 0 94 44z" />
    <glyph glyph-name="ugrave" unicode="&#xf9;" horiz-adv-x="553" 
d="M375 472h109v-472h-106v78q-21 -45 -58 -67.5t-87 -22.5q-75 0 -122 51t-47 141v292h109v-275q0 -56 25.5 -88t70.5 -32q49 0 77.5 35.5t28.5 94.5v265zM320 546h-86l-96 132h119z" />
    <glyph glyph-name="uacute" unicode="&#xfa;" horiz-adv-x="553" 
d="M375 472h109v-472h-106v78q-21 -45 -58 -67.5t-87 -22.5q-75 0 -122 51t-47 141v292h109v-275q0 -56 25.5 -88t70.5 -32q49 0 77.5 35.5t28.5 94.5v265zM318 546h-86l63 132h119z" />
    <glyph glyph-name="ucircumflex" unicode="&#xfb;" horiz-adv-x="553" 
d="M375 472h109v-472h-106v78q-21 -45 -58 -67.5t-87 -22.5q-75 0 -122 51t-47 141v292h109v-275q0 -56 25.5 -88t70.5 -32q49 0 77.5 35.5t28.5 94.5v265zM105 545l110 133h121l110 -133h-101l-26 30q-25 31 -43 56q-22 -29 -44 -56l-26 -30h-101z" />
    <glyph glyph-name="udieresis" unicode="&#xfc;" horiz-adv-x="553" 
d="M375 472h109v-472h-106v78q-21 -45 -58 -67.5t-87 -22.5q-75 0 -122 51t-47 141v292h109v-275q0 -56 25.5 -88t70.5 -32q49 0 77.5 35.5t28.5 94.5v265zM230 556h-103v112h103v-112zM425 556h-102v112h102v-112z" />
    <glyph glyph-name="yacute" unicode="&#xfd;" horiz-adv-x="502" 
d="M59 -200v92h34q33 0 54 14t32 44l21 55l-189 467h121l93 -258q16 -45 30 -91l29 91l87 258h112l-208 -559q-22 -58 -62 -85.5t-102 -27.5h-52zM298 546h-86l63 132h119z" />
    <glyph glyph-name="thorn" unicode="&#xfe;" horiz-adv-x="584" 
d="M439.5 452q48.5 -32 76 -88.5t27.5 -127.5t-27.5 -127.5t-76 -88.5t-109.5 -32q-51 0 -90 22t-61 62v-272h-109v900h109v-301q22 41 61 63t90 22q61 0 109.5 -32zM394.5 121q35.5 44 35.5 115t-35.5 114.5t-93.5 43.5t-92.5 -43.5t-34.5 -114.5q0 -72 34.5 -115.5
t92.5 -43.5t93.5 44z" />
    <glyph glyph-name="ydieresis" unicode="&#xff;" horiz-adv-x="502" 
d="M59 -200v92h34q33 0 54 14t32 44l21 55l-189 467h121l93 -258q16 -45 30 -91l29 91l87 258h112l-208 -559q-22 -58 -62 -85.5t-102 -27.5h-52zM209 556h-103v112h103v-112zM404 556h-102v112h102v-112z" />
    <glyph glyph-name="Amacron" unicode="&#x100;" horiz-adv-x="698" 
d="M687 0h-122l-64 171h-308l-62 -171h-120l272 700h132zM229 269h236l-87 232q-13 35 -32 98q-13 -47 -32 -98zM492 799h-287v77h287v-77z" />
    <glyph glyph-name="amacron" unicode="&#x101;" horiz-adv-x="517" 
d="M453 84q0 -42 3 -84h-102q-1 17 -1 53v13q-47 -78 -151 -78q-73 0 -118.5 39t-45.5 101t45 99.5t130 48.5l75 10q28 4 43.5 15t15.5 34q0 30 -24 49.5t-60 19.5q-40 0 -66 -19.5t-31 -54.5h-110q8 70 64.5 112t140.5 42q89 0 140.5 -47t51.5 -131v-222zM346 239
q-14 -16 -57 -25l-57 -10q-81 -16 -81 -71q0 -29 22 -47t59 -18q50 0 82 31.5t32 82.5v57zM406 571h-287v77h287v-77z" />
    <glyph glyph-name="Abreve" unicode="&#x102;" horiz-adv-x="698" 
d="M687 0h-122l-64 171h-308l-62 -171h-120l272 700h132zM229 269h236l-87 232q-13 35 -32 98q-13 -47 -32 -98zM241.5 808.5q-41.5 36.5 -43.5 99.5h83q1 -30 20 -47.5t49 -17.5q29 0 48 17.5t20 47.5h83q-2 -63 -43.5 -99.5t-107.5 -36.5q-67 0 -108.5 36.5z" />
    <glyph glyph-name="abreve" unicode="&#x103;" horiz-adv-x="517" 
d="M453 84q0 -42 3 -84h-102q-1 17 -1 53v13q-47 -78 -151 -78q-73 0 -118.5 39t-45.5 101t45 99.5t130 48.5l75 10q28 4 43.5 15t15.5 34q0 30 -24 49.5t-60 19.5q-40 0 -66 -19.5t-31 -54.5h-110q8 70 64.5 112t140.5 42q89 0 140.5 -47t51.5 -131v-222zM346 239
q-14 -16 -57 -25l-57 -10q-81 -16 -81 -71q0 -29 22 -47t59 -18q50 0 82 31.5t32 82.5v57zM155.5 580.5q-41.5 36.5 -43.5 99.5h83q1 -30 20 -47.5t49 -17.5q29 0 48 17.5t20 47.5h83q-2 -63 -43.5 -99.5t-107.5 -36.5q-67 0 -108.5 36.5z" />
    <glyph glyph-name="Aogonek" unicode="&#x104;" horiz-adv-x="698" 
d="M690 -136v-71q-19 -5 -44 -5q-58 0 -90 27.5t-32 73.5q0 34 22.5 63t61.5 48h-43l-64 171h-308l-62 -171h-120l272 700h132l272 -700q-41 -15 -61.5 -38t-20.5 -49q0 -25 15.5 -38t43.5 -13q16 0 26 2zM229 269h236l-87 232q-13 35 -32 98q-13 -47 -32 -98z" />
    <glyph glyph-name="aogonek" unicode="&#x105;" horiz-adv-x="517" 
d="M461 -136v-71q-19 -5 -44 -5q-57 0 -89.5 27.5t-32.5 73.5q0 34 22.5 63t61.5 48h-25q-1 17 -1 53v13q-47 -78 -151 -78q-73 0 -118.5 39t-45.5 101t45 99.5t130 48.5l75 10q28 4 43.5 15t15.5 34q0 30 -24 49.5t-60 19.5q-40 0 -66 -19.5t-31 -54.5h-110q8 70 64.5 112
t140.5 42q89 0 140.5 -47t51.5 -131v-222q0 -41 3 -83l3 -1q-41 -15 -62 -38t-21 -49q0 -25 15.5 -38t43.5 -13q16 0 26 2zM346 239q-14 -16 -57 -25l-57 -10q-81 -16 -81 -71q0 -29 22 -47t59 -18q50 0 82 31.5t32 82.5v57z" />
    <glyph glyph-name="Cacute" unicode="&#x106;" horiz-adv-x="739" 
d="M212 33.5q-78 45.5 -122 128t-44 188.5t45 188.5t124.5 128t178.5 45.5q83 0 149 -29t107.5 -81.5t52.5 -123.5h-119q-16 60 -66.5 97t-123.5 37q-67 0 -119 -33t-81 -92.5t-29 -136.5t28.5 -136.5t79.5 -92.5t116 -33q70 0 120 36.5t73 98.5h120q-15 -70 -59.5 -123
t-111 -82.5t-143.5 -29.5q-98 0 -176 45.5zM436 774h-86l63 132h119z" />
    <glyph glyph-name="cacute" unicode="&#x107;" horiz-adv-x="537" 
d="M154.5 19.5q-54.5 31.5 -85 88t-30.5 128.5t30.5 128.5t85.5 88t126 31.5q92 0 152 -46.5t69 -124.5h-110q-8 38 -37 59.5t-72 21.5q-59 0 -95 -43.5t-36 -114.5t36 -115t94 -44q42 0 71 21.5t40 59.5h110q-13 -77 -73.5 -123.5t-150.5 -46.5q-70 0 -124.5 31.5zM325 546
h-86l63 132h119z" />
    <glyph glyph-name="Ccircumflex" unicode="&#x108;" horiz-adv-x="739" 
d="M212 33.5q-78 45.5 -122 128t-44 188.5t45 188.5t124.5 128t178.5 45.5q83 0 149 -29t107.5 -81.5t52.5 -123.5h-119q-16 60 -66.5 97t-123.5 37q-67 0 -119 -33t-81 -92.5t-29 -136.5t28.5 -136.5t79.5 -92.5t116 -33q70 0 120 36.5t73 98.5h120q-15 -70 -59.5 -123
t-111 -82.5t-143.5 -29.5q-98 0 -176 45.5zM223 773l110 133h121l110 -133h-101l-26 30q-25 31 -43 56q-22 -29 -44 -56l-26 -30h-101z" />
    <glyph glyph-name="ccircumflex" unicode="&#x109;" horiz-adv-x="537" 
d="M154.5 19.5q-54.5 31.5 -85 88t-30.5 128.5t30.5 128.5t85.5 88t126 31.5q92 0 152 -46.5t69 -124.5h-110q-8 38 -37 59.5t-72 21.5q-59 0 -95 -43.5t-36 -114.5t36 -115t94 -44q42 0 71 21.5t40 59.5h110q-13 -77 -73.5 -123.5t-150.5 -46.5q-70 0 -124.5 31.5zM112 545
l110 133h121l110 -133h-101l-26 30q-25 31 -43 56q-22 -29 -44 -56l-26 -30h-101z" />
    <glyph glyph-name="Cdotaccent" unicode="&#x10a;" horiz-adv-x="739" 
d="M212 33.5q-78 45.5 -122 128t-44 188.5t45 188.5t124.5 128t178.5 45.5q83 0 149 -29t107.5 -81.5t52.5 -123.5h-119q-16 60 -66.5 97t-123.5 37q-67 0 -119 -33t-81 -92.5t-29 -136.5t28.5 -136.5t79.5 -92.5t116 -33q70 0 120 36.5t73 98.5h120q-15 -70 -59.5 -123
t-111 -82.5t-143.5 -29.5q-98 0 -176 45.5zM452 778h-116v124h116v-124z" />
    <glyph glyph-name="cdotaccent" unicode="&#x10b;" horiz-adv-x="537" 
d="M154.5 19.5q-54.5 31.5 -85 88t-30.5 128.5t30.5 128.5t85.5 88t126 31.5q92 0 152 -46.5t69 -124.5h-110q-8 38 -37 59.5t-72 21.5q-59 0 -95 -43.5t-36 -114.5t36 -115t94 -44q42 0 71 21.5t40 59.5h110q-13 -77 -73.5 -123.5t-150.5 -46.5q-70 0 -124.5 31.5zM341 550
h-116v124h116v-124z" />
    <glyph glyph-name="Ccaron" unicode="&#x10c;" horiz-adv-x="739" 
d="M212 33.5q-78 45.5 -122 128t-44 188.5t45 188.5t124.5 128t178.5 45.5q83 0 149 -29t107.5 -81.5t52.5 -123.5h-119q-16 60 -66.5 97t-123.5 37q-67 0 -119 -33t-81 -92.5t-29 -136.5t28.5 -136.5t79.5 -92.5t116 -33q70 0 120 36.5t73 98.5h120q-15 -70 -59.5 -123
t-111 -82.5t-143.5 -29.5q-98 0 -176 45.5zM333 773l-110 133h101l26 -30q22 -27 44 -56q18 25 43 56l26 30h101l-110 -133h-121z" />
    <glyph glyph-name="ccaron" unicode="&#x10d;" horiz-adv-x="537" 
d="M154.5 19.5q-54.5 31.5 -85 88t-30.5 128.5t30.5 128.5t85.5 88t126 31.5q92 0 152 -46.5t69 -124.5h-110q-8 38 -37 59.5t-72 21.5q-59 0 -95 -43.5t-36 -114.5t36 -115t94 -44q42 0 71 21.5t40 59.5h110q-13 -77 -73.5 -123.5t-150.5 -46.5q-70 0 -124.5 31.5zM222 545
l-110 133h101l26 -30q22 -27 44 -56q18 25 43 56l26 30h101l-110 -133h-121z" />
    <glyph glyph-name="Dcaron" unicode="&#x10e;" horiz-adv-x="750" 
d="M534.5 658q81.5 -42 125.5 -121t44 -187t-44 -187t-125.5 -121t-193.5 -42h-255v700h255q112 0 193.5 -42zM336 100q119 0 183.5 65.5t64.5 184.5t-64.5 184.5t-183.5 65.5h-135v-500h135zM281 773l-110 133h101l26 -30q22 -27 44 -56q18 25 43 56l26 30h101l-110 -133
h-121z" />
    <glyph glyph-name="dcaron" unicode="&#x10f;" horiz-adv-x="621" 
d="M405 700h109v-700h-106v74q-22 -42 -61 -64t-92 -22q-62 0 -111 31t-76.5 87.5t-27.5 129.5q0 71 28 127.5t76.5 88.5t109.5 32q51 0 90 -22.5t61 -63.5v302zM374.5 120.5q34.5 43.5 34.5 115.5q0 71 -34.5 114.5t-92.5 43.5t-93 -43.5t-35 -114.5t35 -115t93 -44
t92.5 43.5zM581 700h106v-118q0 -52 -27.5 -81.5t-79.5 -32.5v49q27 4 40.5 19.5t13.5 45.5v4h-53v114z" />
    <glyph glyph-name="Dcroat" unicode="&#x110;" horiz-adv-x="770" 
d="M554 658q82 -42 126 -121t44 -187t-44 -187t-126 -121t-193 -42h-255v318h-87v85h87v297h255q111 0 193 -42zM356 100q119 0 183.5 65.5t64.5 184.5t-64.5 184.5t-183.5 65.5h-136v-197h178v-85h-178v-218h136z" />
    <glyph glyph-name="dcroat" unicode="&#x111;" horiz-adv-x="583" 
d="M581 616v-72h-67v-544h-106v74q-22 -42 -61 -64t-92 -22q-62 0 -111 31t-76.5 87.5t-27.5 129.5q0 71 28 127.5t76.5 88.5t109.5 32q51 0 90 -22.5t61 -63.5v146h-172v72h172v84h109v-84h67zM374.5 120.5q34.5 43.5 34.5 115.5q0 71 -34.5 114.5t-92.5 43.5t-93 -43.5
t-35 -114.5t35 -115t93 -44t92.5 43.5z" />
    <glyph glyph-name="Emacron" unicode="&#x112;" horiz-adv-x="598" 
d="M201 316v-216h349v-100h-464v700h460v-100h-345v-184h301v-100h-301zM465 799h-287v77h287v-77z" />
    <glyph glyph-name="emacron" unicode="&#x113;" horiz-adv-x="540" 
d="M500 208h-349q4 -63 37 -97.5t88 -34.5q39 0 68 18.5t41 50.5h109q-14 -71 -74.5 -114t-144.5 -43q-70 0 -123 31t-82.5 87t-29.5 130q0 73 30.5 129.5t83.5 87.5t120 31q107 0 166.5 -65.5t59.5 -177.5v-33zM193.5 370.5q-35.5 -29.5 -41.5 -84.5h240q-1 53 -34 83.5
t-81 30.5t-83.5 -29.5zM420 571h-287v77h287v-77z" />
    <glyph glyph-name="Ebreve" unicode="&#x114;" horiz-adv-x="598" 
d="M201 316v-216h349v-100h-464v700h460v-100h-345v-184h301v-100h-301zM214.5 808.5q-41.5 36.5 -43.5 99.5h83q1 -30 20 -47.5t49 -17.5q29 0 48 17.5t20 47.5h83q-2 -63 -43.5 -99.5t-107.5 -36.5q-67 0 -108.5 36.5z" />
    <glyph glyph-name="ebreve" unicode="&#x115;" horiz-adv-x="540" 
d="M500 208h-349q4 -63 37 -97.5t88 -34.5q39 0 68 18.5t41 50.5h109q-14 -71 -74.5 -114t-144.5 -43q-70 0 -123 31t-82.5 87t-29.5 130q0 73 30.5 129.5t83.5 87.5t120 31q107 0 166.5 -65.5t59.5 -177.5v-33zM193.5 370.5q-35.5 -29.5 -41.5 -84.5h240q-1 53 -34 83.5
t-81 30.5t-83.5 -29.5zM168.5 580.5q-41.5 36.5 -43.5 99.5h83q1 -30 20 -47.5t49 -17.5q29 0 48 17.5t20 47.5h83q-2 -63 -43.5 -99.5t-107.5 -36.5q-67 0 -108.5 36.5z" />
    <glyph glyph-name="Edotaccent" unicode="&#x116;" horiz-adv-x="598" 
d="M201 316v-216h349v-100h-464v700h460v-100h-345v-184h301v-100h-301zM380 778h-116v124h116v-124z" />
    <glyph glyph-name="edotaccent" unicode="&#x117;" horiz-adv-x="540" 
d="M500 208h-349q4 -63 37 -97.5t88 -34.5q39 0 68 18.5t41 50.5h109q-14 -71 -74.5 -114t-144.5 -43q-70 0 -123 31t-82.5 87t-29.5 130q0 73 30.5 129.5t83.5 87.5t120 31q107 0 166.5 -65.5t59.5 -177.5v-33zM193.5 370.5q-35.5 -29.5 -41.5 -84.5h240q-1 53 -34 83.5
t-81 30.5t-83.5 -29.5zM334 550h-116v124h116v-124z" />
    <glyph glyph-name="Eogonek" unicode="&#x118;" horiz-adv-x="598" 
d="M552 -136v-71q-19 -5 -44 -5q-58 0 -90 27.5t-32 73.5q0 34 22.5 63t61.5 48h-384v700h460v-100h-345v-184h301v-100h-301v-216h349v-100q-41 -15 -62 -38t-21 -49q0 -25 15.5 -38t43.5 -13q16 0 26 2z" />
    <glyph glyph-name="eogonek" unicode="&#x119;" horiz-adv-x="540" 
d="M500 208h-349q4 -63 37 -97.5t88 -34.5q39 0 68 18.5t41 50.5h109q-10 -50 -46.5 -88t-91.5 -59q-80 -31 -80 -85q0 -25 15.5 -38t42.5 -13q16 0 26 2v-71q-19 -5 -43 -5q-58 0 -90 27.5t-32 73.5q0 30 17.5 55.5t49.5 44.5q-66 3 -116.5 34.5t-78 86t-27.5 126.5
q0 73 30.5 129.5t83.5 87.5t120 31q107 0 166.5 -65.5t59.5 -177.5v-33zM392 286q-1 53 -34 83.5t-81 30.5t-83.5 -29.5t-41.5 -84.5h240z" />
    <glyph glyph-name="Ecaron" unicode="&#x11a;" horiz-adv-x="598" 
d="M201 316v-216h349v-100h-464v700h460v-100h-345v-184h301v-100h-301zM262 773l-110 133h101l26 -30q22 -27 44 -56q18 25 43 56l26 30h101l-110 -133h-121z" />
    <glyph glyph-name="ecaron" unicode="&#x11b;" horiz-adv-x="540" 
d="M500 208h-349q4 -63 37 -97.5t88 -34.5q39 0 68 18.5t41 50.5h109q-14 -71 -74.5 -114t-144.5 -43q-70 0 -123 31t-82.5 87t-29.5 130q0 73 30.5 129.5t83.5 87.5t120 31q107 0 166.5 -65.5t59.5 -177.5v-33zM193.5 370.5q-35.5 -29.5 -41.5 -84.5h240q-1 53 -34 83.5
t-81 30.5t-83.5 -29.5zM216 545l-110 133h101l26 -30q22 -27 44 -56q18 25 43 56l26 30h101l-110 -133h-121z" />
    <glyph glyph-name="Gcircumflex" unicode="&#x11c;" horiz-adv-x="766" 
d="M461 333h241v-333h-100l1 111q-31 -60 -91 -91.5t-138 -31.5q-93 0 -168 46.5t-117.5 129t-42.5 186.5q0 105 45 187.5t125 128.5t181 46q80 0 145 -29t105.5 -81t51.5 -120h-119q-16 59 -65 94.5t-120 35.5q-67 0 -119.5 -33t-81.5 -92.5t-29 -136.5q0 -75 29.5 -135
t82 -93.5t119.5 -33.5q76 0 129 38t72 107h-136v100zM225 773l110 133h121l110 -133h-101l-26 30q-25 31 -43 56q-22 -29 -44 -56l-26 -30h-101z" />
    <glyph glyph-name="gcircumflex" unicode="&#x11d;" horiz-adv-x="577" 
d="M402 472h106v-481q0 -96 -62.5 -149.5t-167.5 -53.5q-97 0 -155 44t-65 121h111q8 -38 36.5 -58t75.5 -20q55 0 86.5 30t31.5 84v95q-21 -41 -59 -62.5t-89 -21.5q-61 0 -109 31t-75 86t-27 124q0 71 28.5 126t78 86t110.5 31q50 0 87 -21.5t58 -63.5v73zM369 129.5
q34 42.5 34 111.5q0 68 -34.5 110.5t-89.5 42.5q-56 0 -90.5 -42.5t-34.5 -110.5q0 -69 34.5 -111.5t90.5 -42.5t90 42.5zM120 545l110 133h121l110 -133h-101l-26 30q-25 31 -43 56q-22 -29 -44 -56l-26 -30h-101z" />
    <glyph glyph-name="Gbreve" unicode="&#x11e;" horiz-adv-x="766" 
d="M461 333h241v-333h-100l1 111q-31 -60 -91 -91.5t-138 -31.5q-93 0 -168 46.5t-117.5 129t-42.5 186.5q0 105 45 187.5t125 128.5t181 46q80 0 145 -29t105.5 -81t51.5 -120h-119q-16 59 -65 94.5t-120 35.5q-67 0 -119.5 -33t-81.5 -92.5t-29 -136.5q0 -75 29.5 -135
t82 -93.5t119.5 -33.5q76 0 129 38t72 107h-136v100zM287.5 808.5q-41.5 36.5 -43.5 99.5h83q1 -30 20 -47.5t49 -17.5q29 0 48 17.5t20 47.5h83q-2 -63 -43.5 -99.5t-107.5 -36.5q-67 0 -108.5 36.5z" />
    <glyph glyph-name="gbreve" unicode="&#x11f;" horiz-adv-x="577" 
d="M402 472h106v-481q0 -96 -62.5 -149.5t-167.5 -53.5q-97 0 -155 44t-65 121h111q8 -38 36.5 -58t75.5 -20q55 0 86.5 30t31.5 84v95q-21 -41 -59 -62.5t-89 -21.5q-61 0 -109 31t-75 86t-27 124q0 71 28.5 126t78 86t110.5 31q50 0 87 -21.5t58 -63.5v73zM369 129.5
q34 42.5 34 111.5q0 68 -34.5 110.5t-89.5 42.5q-56 0 -90.5 -42.5t-34.5 -110.5q0 -69 34.5 -111.5t90.5 -42.5t90 42.5zM183.5 580.5q-41.5 36.5 -43.5 99.5h83q1 -30 20 -47.5t49 -17.5q29 0 48 17.5t20 47.5h83q-2 -63 -43.5 -99.5t-107.5 -36.5q-67 0 -108.5 36.5z" />
    <glyph glyph-name="Gdotaccent" unicode="&#x120;" horiz-adv-x="766" 
d="M461 333h241v-333h-100l1 111q-31 -60 -91 -91.5t-138 -31.5q-93 0 -168 46.5t-117.5 129t-42.5 186.5q0 105 45 187.5t125 128.5t181 46q80 0 145 -29t105.5 -81t51.5 -120h-119q-16 59 -65 94.5t-120 35.5q-67 0 -119.5 -33t-81.5 -92.5t-29 -136.5q0 -75 29.5 -135
t82 -93.5t119.5 -33.5q76 0 129 38t72 107h-136v100zM454 778h-116v124h116v-124z" />
    <glyph glyph-name="gdotaccent" unicode="&#x121;" horiz-adv-x="577" 
d="M402 472h106v-481q0 -96 -62.5 -149.5t-167.5 -53.5q-97 0 -155 44t-65 121h111q8 -38 36.5 -58t75.5 -20q55 0 86.5 30t31.5 84v95q-21 -41 -59 -62.5t-89 -21.5q-61 0 -109 31t-75 86t-27 124q0 71 28.5 126t78 86t110.5 31q50 0 87 -21.5t58 -63.5v73zM369 129.5
q34 42.5 34 111.5q0 68 -34.5 110.5t-89.5 42.5q-56 0 -90.5 -42.5t-34.5 -110.5q0 -69 34.5 -111.5t90.5 -42.5t90 42.5zM349 550h-116v124h116v-124z" />
    <glyph glyph-name="uni0122" unicode="&#x122;" horiz-adv-x="766" 
d="M461 333h241v-333h-100l1 111q-31 -60 -91 -91.5t-138 -31.5q-93 0 -168 46.5t-117.5 129t-42.5 186.5q0 105 45 187.5t125 128.5t181 46q80 0 145 -29t105.5 -81t51.5 -120h-119q-16 59 -65 94.5t-120 35.5q-67 0 -119.5 -33t-81.5 -92.5t-29 -136.5q0 -75 29.5 -135
t82 -93.5t119.5 -33.5q76 0 129 38t72 107h-136v100zM342 -72h106v-117q0 -53 -27.5 -82.5t-79.5 -32.5v49q28 5 41 20t13 46v3h-53v114z" />
    <glyph glyph-name="uni0123" unicode="&#x123;" horiz-adv-x="577" 
d="M402 472h106v-481q0 -96 -62.5 -149.5t-167.5 -53.5q-97 0 -155 44t-65 121h111q8 -38 36.5 -58t75.5 -20q55 0 86.5 30t31.5 84v95q-21 -41 -59 -62.5t-89 -21.5q-61 0 -109 31t-75 86t-27 124q0 71 28.5 126t78 86t110.5 31q50 0 87 -21.5t58 -63.5v73zM369 129.5
q34 42.5 34 111.5q0 68 -34.5 110.5t-89.5 42.5q-56 0 -90.5 -42.5t-34.5 -110.5q0 -69 34.5 -111.5t90.5 -42.5t90 42.5zM346 733q-28 -5 -41.5 -20t-13.5 -46v-3h53v-114h-106v117q0 53 28 82.5t80 32.5v-49z" />
    <glyph glyph-name="Hcircumflex" unicode="&#x124;" horiz-adv-x="732" 
d="M531 416v284h115v-700h-115v316h-330v-316h-115v700h115v-284h330zM195 773l110 133h121l110 -133h-101l-26 30q-25 31 -43 56q-22 -29 -44 -56l-26 -30h-101z" />
    <glyph glyph-name="hcircumflex" unicode="&#x125;" horiz-adv-x="553" 
d="M442.5 433q46.5 -51 46.5 -140v-293h-109v276q0 56 -25 87t-69 31q-49 0 -78 -37t-29 -99v-258h-109v700h109v-297q22 40 58 60.5t83 20.5q76 0 122.5 -51zM117 765l110 133h121l110 -133h-101l-26 30q-25 31 -43 56q-22 -29 -44 -56l-26 -30h-101z" />
    <glyph glyph-name="Hbar" unicode="&#x126;" horiz-adv-x="771" 
d="M665 602h82v-85h-82v-517h-114v316h-331v-316h-114v517h-82v85h82v98h114v-98h331v98h114v-98zM220 416h331v101h-331v-101z" />
    <glyph glyph-name="hbar" unicode="&#x127;" horiz-adv-x="553" 
d="M442.5 433q46.5 -51 46.5 -140v-293h-109v276q0 56 -25 87t-69 31q-49 0 -78 -37t-29 -99v-258h-109v544h-71v72h71v84h109v-84h168v-72h-168v-141q22 40 58 60.5t83 20.5q76 0 122.5 -51z" />
    <glyph glyph-name="Itilde" unicode="&#x128;" horiz-adv-x="287" 
d="M201 0h-115v700h115v-700zM180.5 787q-17.5 6 -41.5 17q-18 9 -30 13t-24 4q-15 0 -23 -9.5t-8 -25.5h-79q-1 53 23 82.5t70 29.5q21 0 38.5 -6t41.5 -17q18 -9 30 -13t24 -4q15 0 23 9.5t8 25.5h79q1 -53 -23 -82.5t-70 -29.5q-21 0 -38.5 6z" />
    <glyph glyph-name="itilde" unicode="&#x129;" horiz-adv-x="248" 
d="M179 0h-109v472h109v-472zM161.5 559q-17.5 6 -41.5 17q-18 9 -30 13t-24 4q-15 0 -23 -9.5t-8 -25.5h-79q-1 53 23 82.5t70 29.5q21 0 38.5 -6t41.5 -17q18 -9 30 -13t24 -4q15 0 23 9.5t8 25.5h79q1 -53 -23 -82.5t-70 -29.5q-21 0 -38.5 6z" />
    <glyph glyph-name="Imacron" unicode="&#x12a;" horiz-adv-x="287" 
d="M201 0h-115v700h115v-700zM287 799h-287v77h287v-77z" />
    <glyph glyph-name="imacron" unicode="&#x12b;" horiz-adv-x="248" 
d="M179 0h-109v472h109v-472zM268 571h-287v77h287v-77z" />
    <glyph glyph-name="Ibreve" unicode="&#x12c;" horiz-adv-x="287" 
d="M201 0h-115v700h115v-700zM36.5 808.5q-41.5 36.5 -43.5 99.5h83q1 -30 20 -47.5t49 -17.5q29 0 48 17.5t20 47.5h83q-2 -63 -43.5 -99.5t-107.5 -36.5q-67 0 -108.5 36.5z" />
    <glyph glyph-name="ibreve" unicode="&#x12d;" horiz-adv-x="248" 
d="M179 0h-109v472h109v-472zM16.5 580.5q-41.5 36.5 -43.5 99.5h83q1 -30 20 -47.5t49 -17.5q29 0 48 17.5t20 47.5h83q-2 -63 -43.5 -99.5t-107.5 -36.5q-67 0 -108.5 36.5z" />
    <glyph glyph-name="Iogonek" unicode="&#x12e;" horiz-adv-x="287" 
d="M203 -136v-71q-19 -5 -44 -5q-58 0 -90 27.5t-32 73.5q0 34 22.5 63t61.5 48h-35v700h115v-700q-41 -15 -62 -38t-21 -49q0 -25 15.5 -38t43.5 -13q16 0 26 2z" />
    <glyph glyph-name="iogonek" unicode="&#x12f;" horiz-adv-x="248" 
d="M66 550v124h116v-124h-116zM111.5 -125q15.5 -13 43.5 -13q16 0 26 2v-71q-19 -5 -44 -5q-57 0 -89.5 27.5t-32.5 73.5q0 34 22.5 63t61.5 48h-29v472h109v-472q-41 -15 -62 -38t-21 -49q0 -25 15.5 -38z" />
    <glyph glyph-name="Idotaccent" unicode="&#x130;" horiz-adv-x="287" 
d="M201 0h-115v700h115v-700zM202 778h-116v124h116v-124z" />
    <glyph glyph-name="dotlessi" unicode="&#x131;" horiz-adv-x="248" 
d="M179 0h-109v472h109v-472z" />
    <glyph glyph-name="IJ" unicode="&#x132;" horiz-adv-x="822" 
d="M201 0h-115v700h115v-700zM366.5 46q-55.5 58 -55.5 165h111q1 -60 27 -93t76 -33q49 0 75.5 33.5t26.5 96.5v485h114v-485q0 -109 -58 -168t-158 -59q-103 0 -158.5 58z" />
    <glyph glyph-name="ij" unicode="&#x133;" horiz-adv-x="497" 
d="M179 0h-109v472h109v-472zM182 550h-116v124h116v-124zM237 -200v91h32q49 0 49 50v531h109v-548q0 -61 -29.5 -92.5t-97.5 -31.5h-63zM430 550h-116v124h116v-124z" />
    <glyph glyph-name="Jcircumflex" unicode="&#x134;" horiz-adv-x="535" 
d="M79.5 46q-55.5 58 -55.5 165h111q1 -60 27 -93t76 -33q49 0 75.5 33.5t26.5 96.5v485h114v-485q0 -109 -58 -168t-158 -59q-103 0 -158.5 58zM226 773l110 133h121l110 -133h-101l-26 30q-25 31 -43 56q-22 -29 -44 -56l-26 -30h-101z" />
    <glyph glyph-name="jcircumflex" unicode="&#x135;" horiz-adv-x="248" 
d="M-11 -200v91h32q49 0 49 50v531h109v-548q0 -61 -29.5 -92.5t-97.5 -31.5h-63zM-46 545l110 133h121l110 -133h-101l-26 30q-25 31 -43 56q-22 -29 -44 -56l-26 -30h-101z" />
    <glyph glyph-name="uni0136" unicode="&#x136;" horiz-adv-x="671" 
d="M677 0h-146l-263 339l-67 -65v-274h-115v700h115v-299l306 299h150l-302 -290zM287 -72h106v-117q0 -53 -27.5 -82.5t-79.5 -32.5v49q28 5 41 20t13 46v3h-53v114z" />
    <glyph glyph-name="uni0137" unicode="&#x137;" horiz-adv-x="511" 
d="M510 0h-134l-159 209l-38 -36v-173h-109v700h109v-413l183 185h139l-203 -194zM206 -72h106v-117q0 -53 -27.5 -82.5t-79.5 -32.5v49q28 5 41 20t13 46v3h-53v114z" />
    <glyph glyph-name="kgreenlandic" unicode="&#x138;" horiz-adv-x="510" 
d="M508 0h-132l-159 209l-38 -36v-173h-109v472h109v-185l183 185h139l-203 -194z" />
    <glyph glyph-name="Lacute" unicode="&#x139;" horiz-adv-x="551" 
d="M201 700v-599l321 -1v-102l-436 2v700h115zM186 774h-86l63 132h119z" />
    <glyph glyph-name="lacute" unicode="&#x13a;" horiz-adv-x="248" 
d="M179 0h-109v700h109v-700zM167 774h-86l63 132h119z" />
    <glyph glyph-name="uni013B" unicode="&#x13b;" horiz-adv-x="551" 
d="M201 700v-599l321 -1v-102l-436 2v700h115zM256 -72h106v-117q0 -53 -27.5 -82.5t-79.5 -32.5v49q28 5 41 20t13 46v3h-53v114z" />
    <glyph glyph-name="uni013C" unicode="&#x13c;" horiz-adv-x="248" 
d="M179 0h-109v700h109v-700zM71 -72h106v-117q0 -53 -27.5 -82.5t-79.5 -32.5v49q28 5 41 20t13 46v3h-53v114z" />
    <glyph glyph-name="Lcaron" unicode="&#x13d;" horiz-adv-x="553" 
d="M201 700v-599l321 -1v-102l-436 2v700h115zM314 700h106v-118q0 -52 -27.5 -81.5t-79.5 -32.5v49q27 4 40.5 19.5t13.5 45.5v4h-53v114z" />
    <glyph glyph-name="lcaron" unicode="&#x13e;" horiz-adv-x="286" 
d="M179 0h-109v700h109v-700zM246 700h106v-118q0 -52 -27.5 -81.5t-79.5 -32.5v49q27 4 40.5 19.5t13.5 45.5v4h-53v114z" />
    <glyph glyph-name="Ldot" unicode="&#x13f;" horiz-adv-x="551" 
d="M201 700v-599l321 -1v-102l-436 2v700h115zM360 436h119v-128h-119v128z" />
    <glyph glyph-name="ldot" unicode="&#x140;" horiz-adv-x="383" 
d="M179 0h-109v700h109v-700zM378 281h-125v135h125v-135z" />
    <glyph glyph-name="Lslash" unicode="&#x141;" horiz-adv-x="597" 
d="M245 305v-204l321 -1v-102l-436 2v240l-93 -53v98l93 53v362h115v-297l203 115v-98z" />
    <glyph glyph-name="lslash" unicode="&#x142;" horiz-adv-x="348" 
d="M231 389l89 51v-89l-89 -51v-300h-110v237l-90 -52v89l90 52v374h110v-311z" />
    <glyph glyph-name="Nacute" unicode="&#x143;" horiz-adv-x="751" 
d="M86 0v700h158l316 -562q-2 88 -2 118v444h107v-700h-145l-330 586q3 -69 3 -126v-460h-107zM418 774h-86l63 132h119z" />
    <glyph glyph-name="nacute" unicode="&#x144;" horiz-adv-x="553" 
d="M442.5 432.5q46.5 -51.5 46.5 -140.5v-292h-109v274q0 56 -25 88t-71 32q-48 0 -76.5 -35t-28.5 -94v-265h-109v472h106v-77q21 43 58 66t86 23q76 0 122.5 -51.5zM320 546h-86l63 132h119z" />
    <glyph glyph-name="uni0145" unicode="&#x145;" horiz-adv-x="751" 
d="M86 0v700h158l316 -562q-2 88 -2 118v444h107v-700h-145l-330 586q3 -69 3 -126v-460h-107zM323 -72h106v-117q0 -53 -27.5 -82.5t-79.5 -32.5v49q28 5 41 20t13 46v3h-53v114z" />
    <glyph glyph-name="uni0146" unicode="&#x146;" horiz-adv-x="553" 
d="M442.5 432.5q46.5 -51.5 46.5 -140.5v-292h-109v274q0 56 -25 88t-71 32q-48 0 -76.5 -35t-28.5 -94v-265h-109v472h106v-77q21 43 58 66t86 23q76 0 122.5 -51.5zM225 -72h106v-117q0 -53 -27.5 -82.5t-79.5 -32.5v49q28 5 41 20t13 46v3h-53v114z" />
    <glyph glyph-name="Ncaron" unicode="&#x147;" horiz-adv-x="751" 
d="M86 0v700h158l316 -562q-2 88 -2 118v444h107v-700h-145l-330 586q3 -69 3 -126v-460h-107zM316 773l-110 133h101l26 -30q22 -27 44 -56q18 25 43 56l26 30h101l-110 -133h-121z" />
    <glyph glyph-name="ncaron" unicode="&#x148;" horiz-adv-x="553" 
d="M442.5 432.5q46.5 -51.5 46.5 -140.5v-292h-109v274q0 56 -25 88t-71 32q-48 0 -76.5 -35t-28.5 -94v-265h-109v472h106v-77q21 43 58 66t86 23q76 0 122.5 -51.5zM217 545l-110 133h101l26 -30q22 -27 44 -56q18 25 43 56l26 30h101l-110 -133h-121z" />
    <glyph glyph-name="Eng" unicode="&#x14a;" horiz-adv-x="751" 
d="M431 -200v97h65q32 0 47 15t15 47v54l-367 570q2 -38 2 -96v-487h-107v700h152l322 -500q-2 37 -2 97v403h107v-765q0 -72 -33.5 -103.5t-109.5 -31.5h-91z" />
    <glyph glyph-name="eng" unicode="&#x14b;" horiz-adv-x="553" 
d="M442.5 432.5q46.5 -51.5 46.5 -140.5v-368q0 -61 -29.5 -92.5t-97.5 -31.5h-63v91h32q49 0 49 50v333q0 56 -25 88t-71 32q-48 0 -76.5 -35t-28.5 -94v-265h-109v472h106v-78q21 44 57.5 67t86.5 23q76 0 122.5 -51.5z" />
    <glyph glyph-name="Omacron" unicode="&#x14c;" horiz-adv-x="794" 
d="M214.5 33.5q-79.5 45.5 -124 127.5t-44.5 189q0 106 45 188.5t124.5 128t180.5 45.5q102 0 182 -45.5t125 -128t45 -188.5t-45 -188.5t-125 -128t-182 -45.5t-181.5 45.5zM517.5 121.5q52.5 33.5 82 93t29.5 135.5t-29.5 135.5t-82 93t-121.5 33.5q-68 0 -120.5 -33
t-81.5 -92.5t-29 -136.5t29 -136.5t81.5 -92.5t120.5 -33q69 0 121.5 33.5zM540 799h-287v77h287v-77z" />
    <glyph glyph-name="omacron" unicode="&#x14d;" horiz-adv-x="565" 
d="M156 19.5q-55 31.5 -85.5 87.5t-30.5 129t30.5 129t85.5 87.5t127 31.5t127 -31.5t85.5 -87.5t30.5 -129t-30.5 -129t-85.5 -87.5t-127 -31.5t-127 31.5zM376.5 120.5q35.5 43.5 35.5 115.5q0 71 -35.5 114.5t-93.5 43.5q-59 0 -94.5 -43.5t-35.5 -114.5
q0 -72 35.5 -115.5t94.5 -43.5q58 0 93.5 43.5zM426 570h-287v77h287v-77z" />
    <glyph glyph-name="Obreve" unicode="&#x14e;" horiz-adv-x="794" 
d="M214.5 33.5q-79.5 45.5 -124 127.5t-44.5 189q0 106 45 188.5t124.5 128t180.5 45.5q102 0 182 -45.5t125 -128t45 -188.5t-45 -188.5t-125 -128t-182 -45.5t-181.5 45.5zM517.5 121.5q52.5 33.5 82 93t29.5 135.5t-29.5 135.5t-82 93t-121.5 33.5q-68 0 -120.5 -33
t-81.5 -92.5t-29 -136.5t29 -136.5t81.5 -92.5t120.5 -33q69 0 121.5 33.5zM289.5 808.5q-41.5 36.5 -43.5 99.5h83q1 -30 20 -47.5t49 -17.5q29 0 48 17.5t20 47.5h83q-2 -63 -43.5 -99.5t-107.5 -36.5q-67 0 -108.5 36.5z" />
    <glyph glyph-name="obreve" unicode="&#x14f;" horiz-adv-x="565" 
d="M156 19.5q-55 31.5 -85.5 87.5t-30.5 129t30.5 129t85.5 87.5t127 31.5t127 -31.5t85.5 -87.5t30.5 -129t-30.5 -129t-85.5 -87.5t-127 -31.5t-127 31.5zM376.5 120.5q35.5 43.5 35.5 115.5q0 71 -35.5 114.5t-93.5 43.5q-59 0 -94.5 -43.5t-35.5 -114.5
q0 -72 35.5 -115.5t94.5 -43.5q58 0 93.5 43.5zM175.5 579.5q-41.5 36.5 -43.5 99.5h83q1 -30 20 -47.5t49 -17.5q29 0 48 17.5t20 47.5h83q-2 -63 -43.5 -99.5t-107.5 -36.5q-67 0 -108.5 36.5z" />
    <glyph glyph-name="Ohungarumlaut" unicode="&#x150;" horiz-adv-x="794" 
d="M214.5 33.5q-79.5 45.5 -124 127.5t-44.5 189q0 106 45 188.5t124.5 128t180.5 45.5q102 0 182 -45.5t125 -128t45 -188.5t-45 -188.5t-125 -128t-182 -45.5t-181.5 45.5zM517.5 121.5q52.5 33.5 82 93t29.5 135.5t-29.5 135.5t-82 93t-121.5 33.5q-68 0 -120.5 -33
t-81.5 -92.5t-29 -136.5t29 -136.5t81.5 -92.5t120.5 -33q69 0 121.5 33.5zM353 774h-79l65 132h101zM521 774h-80l64 132h102z" />
    <glyph glyph-name="ohungarumlaut" unicode="&#x151;" horiz-adv-x="565" 
d="M156 19.5q-55 31.5 -85.5 87.5t-30.5 129t30.5 129t85.5 87.5t127 31.5t127 -31.5t85.5 -87.5t30.5 -129t-30.5 -129t-85.5 -87.5t-127 -31.5t-127 31.5zM376.5 120.5q35.5 43.5 35.5 115.5q0 71 -35.5 114.5t-93.5 43.5q-59 0 -94.5 -43.5t-35.5 -114.5
q0 -72 35.5 -115.5t94.5 -43.5q58 0 93.5 43.5zM239 545h-79l65 132h101zM407 545h-80l64 132h102z" />
    <glyph glyph-name="OE" unicode="&#x152;" horiz-adv-x="1140" 
d="M213 34.5q-79 46.5 -123.5 129t-44.5 186.5t45.5 186.5t124 129t176.5 46.5q77 0 139 -31t98 -90v109h459v-100h-345v-184h302v-100h-302v-216h349v-100h-463v108q-36 -58 -98 -89t-139 -31q-99 0 -178 46.5zM517.5 121.5q52.5 33.5 81.5 93t29 135.5t-29 135.5t-81.5 93
t-121.5 33.5q-68 0 -120.5 -33t-81.5 -92.5t-29 -136.5t29 -136.5t81.5 -92.5t120.5 -33q69 0 121.5 33.5z" />
    <glyph glyph-name="oe" unicode="&#x153;" horiz-adv-x="913" 
d="M156 19.5q-55 31.5 -85.5 87.5t-30.5 129t30.5 129t85.5 87.5t127 31.5q59 0 106.5 -22.5t79.5 -65.5q31 43 76.5 65.5t100.5 22.5q107 0 166.5 -65.5t59.5 -177.5v-33h-349q2 -62 36 -97t90 -35q39 0 68 18.5t40 50.5h109q-15 -72 -74.5 -114.5t-144.5 -42.5
q-57 0 -103 22t-76 64q-32 -41 -79.5 -63.5t-105.5 -22.5q-72 0 -127 31.5zM765 286q-1 53 -34.5 83.5t-81.5 30.5t-83.5 -29.5t-41.5 -84.5h241zM376.5 120.5q35.5 43.5 35.5 115.5q0 71 -35.5 114.5t-93.5 43.5q-59 0 -94.5 -43.5t-35.5 -114.5q0 -72 35.5 -115.5
t94.5 -43.5q58 0 93.5 43.5z" />
    <glyph glyph-name="Racute" unicode="&#x154;" horiz-adv-x="660" 
d="M580 120q0 -41 3.5 -66.5t12.5 -53.5h-118q-6 22 -8.5 48t-2.5 70v82q0 54 -22.5 77t-79.5 23h-164v-300h-115v700h290q105 0 165.5 -52t60.5 -138q0 -60 -35 -102t-98 -56q58 -10 84.5 -45t26.5 -103v-84zM357 397q59 0 92.5 27.5t33.5 75.5q0 47 -33.5 74.5t-92.5 27.5
h-156v-205h156zM359 774h-86l63 132h119z" />
    <glyph glyph-name="racute" unicode="&#x155;" horiz-adv-x="362" 
d="M174 380q19 58 63 83t103 20v-105q-84 5 -122.5 -32.5t-38.5 -124.5v-221h-109v472h104v-92zM248 546h-86l63 132h119z" />
    <glyph glyph-name="uni0156" unicode="&#x156;" horiz-adv-x="660" 
d="M580 120q0 -41 3.5 -66.5t12.5 -53.5h-118q-6 22 -8.5 48t-2.5 70v82q0 54 -22.5 77t-79.5 23h-164v-300h-115v700h290q105 0 165.5 -52t60.5 -138q0 -60 -35 -102t-98 -56q58 -10 84.5 -45t26.5 -103v-84zM357 397q59 0 92.5 27.5t33.5 75.5q0 47 -33.5 74.5t-92.5 27.5
h-156v-205h156zM280 -72h106v-117q0 -53 -27.5 -82.5t-79.5 -32.5v49q28 5 41 20t13 46v3h-53v114z" />
    <glyph glyph-name="uni0157" unicode="&#x157;" horiz-adv-x="362" 
d="M174 380q19 58 63 83t103 20v-105q-84 5 -122.5 -32.5t-38.5 -124.5v-221h-109v472h104v-92zM71 -72h106v-117q0 -53 -27.5 -82.5t-79.5 -32.5v49q28 5 41 20t13 46v3h-53v114z" />
    <glyph glyph-name="Rcaron" unicode="&#x158;" horiz-adv-x="660" 
d="M580 120q0 -41 3.5 -66.5t12.5 -53.5h-118q-6 22 -8.5 48t-2.5 70v82q0 54 -22.5 77t-79.5 23h-164v-300h-115v700h290q105 0 165.5 -52t60.5 -138q0 -60 -35 -102t-98 -56q58 -10 84.5 -45t26.5 -103v-84zM357 397q59 0 92.5 27.5t33.5 75.5q0 47 -33.5 74.5t-92.5 27.5
h-156v-205h156zM256 773l-110 133h101l26 -30q22 -27 44 -56q18 25 43 56l26 30h101l-110 -133h-121z" />
    <glyph glyph-name="rcaron" unicode="&#x159;" horiz-adv-x="362" 
d="M174 380q19 58 63 83t103 20v-105q-84 5 -122.5 -32.5t-38.5 -124.5v-221h-109v472h104v-92zM146 545l-110 133h101l26 -30q22 -27 44 -56q18 25 43 56l26 30h101l-110 -133h-121z" />
    <glyph glyph-name="Sacute" unicode="&#x15a;" horiz-adv-x="633" 
d="M118.5 47q-73.5 59 -80.5 169h118q8 -62 51.5 -96.5t115.5 -34.5q66 0 106.5 30.5t40.5 80.5q0 39 -27.5 63t-83.5 37l-109 23q-94 21 -143 70.5t-49 124.5q0 57 32.5 102t89.5 70.5t130 25.5q118 0 191 -56t80 -153h-117q-6 53 -47.5 83.5t-105.5 30.5q-59 0 -97 -28
t-38 -72q0 -37 25.5 -60.5t78.5 -34.5l116 -25q94 -20 143 -70.5t49 -126.5q0 -63 -33.5 -111t-94 -74.5t-138.5 -26.5q-130 0 -203.5 59zM356 774h-86l63 132h119z" />
    <glyph glyph-name="sacute" unicode="&#x15b;" horiz-adv-x="481" 
d="M94 32q-55 44 -60 116h106q5 -37 33 -57.5t72 -20.5q40 0 63.5 17.5t23.5 46.5q0 43 -68 57l-78 15q-137 26 -137 137q0 41 24 73t66.5 50t96.5 18q86 0 138.5 -38t59.5 -106h-105q-6 30 -30.5 47t-62.5 17q-37 0 -59 -15.5t-22 -40.5q0 -42 57 -53l84 -16
q72 -14 109.5 -49t37.5 -91q0 -68 -54.5 -109.5t-143.5 -41.5q-96 0 -151 44zM279 546h-86l63 132h119z" />
    <glyph glyph-name="Scircumflex" unicode="&#x15c;" horiz-adv-x="633" 
d="M118.5 47q-73.5 59 -80.5 169h118q8 -62 51.5 -96.5t115.5 -34.5q66 0 106.5 30.5t40.5 80.5q0 39 -27.5 63t-83.5 37l-109 23q-94 21 -143 70.5t-49 124.5q0 57 32.5 102t89.5 70.5t130 25.5q118 0 191 -56t80 -153h-117q-6 53 -47.5 83.5t-105.5 30.5q-59 0 -97 -28
t-38 -72q0 -37 25.5 -60.5t78.5 -34.5l116 -25q94 -20 143 -70.5t49 -126.5q0 -63 -33.5 -111t-94 -74.5t-138.5 -26.5q-130 0 -203.5 59zM143 773l110 133h121l110 -133h-101l-26 30q-25 31 -43 56q-22 -29 -44 -56l-26 -30h-101z" />
    <glyph glyph-name="scircumflex" unicode="&#x15d;" horiz-adv-x="481" 
d="M94 32q-55 44 -60 116h106q5 -37 33 -57.5t72 -20.5q40 0 63.5 17.5t23.5 46.5q0 43 -68 57l-78 15q-137 26 -137 137q0 41 24 73t66.5 50t96.5 18q86 0 138.5 -38t59.5 -106h-105q-6 30 -30.5 47t-62.5 17q-37 0 -59 -15.5t-22 -40.5q0 -42 57 -53l84 -16
q72 -14 109.5 -49t37.5 -91q0 -68 -54.5 -109.5t-143.5 -41.5q-96 0 -151 44zM67 545l110 133h121l110 -133h-101l-26 30q-25 31 -43 56q-22 -29 -44 -56l-26 -30h-101z" />
    <glyph glyph-name="Scedilla" unicode="&#x15e;" horiz-adv-x="633" 
d="M557.5 93.5q-30.5 -46.5 -86.5 -74t-128 -30.5l-29 -32q43 2 72 -19t29 -61t-31.5 -64.5t-81.5 -24.5q-33 0 -62.5 10.5t-50.5 28.5l35 49q34 -28 76 -28q21 0 33.5 9.5t12.5 24.5q0 14 -12.5 22t-31.5 8q-21 0 -37 -8l-34 30l50 56q-111 9 -174 67.5t-69 158.5h118
q8 -62 51.5 -96.5t115.5 -34.5q66 0 106.5 30.5t40.5 80.5q0 39 -27.5 63t-83.5 37l-109 23q-94 21 -143 70.5t-49 124.5q0 57 32.5 102t89.5 70.5t130 25.5q118 0 191 -56t80 -153h-117q-6 53 -47.5 83.5t-105.5 30.5q-59 0 -97 -28t-38 -72q0 -37 25.5 -60.5t78.5 -34.5
l116 -25q94 -20 143 -70.5t49 -126.5q0 -60 -30.5 -106.5z" />
    <glyph glyph-name="scedilla" unicode="&#x15f;" horiz-adv-x="481" 
d="M394 34.5q-49 -40.5 -130 -45.5l-30 -34q42 3 71.5 -18t29.5 -61t-31.5 -64.5t-81.5 -24.5q-33 0 -62.5 10.5t-50.5 27.5l35 49q35 -27 76 -27q22 0 34 9t12 24t-12.5 23t-31.5 8t-38 -8l-33 29l52 58q-77 10 -121 52t-48 106h106q5 -37 33 -57.5t72 -20.5
q40 0 63.5 17.5t23.5 46.5q0 43 -68 57l-78 15q-137 26 -137 137q0 41 24 73t66.5 50t96.5 18q86 0 138.5 -38t59.5 -106h-105q-6 30 -30.5 47t-62.5 17q-37 0 -59 -15.5t-22 -40.5q0 -42 57 -53l84 -16q72 -14 109.5 -49t37.5 -91q0 -64 -49 -104.5z" />
    <glyph glyph-name="Scaron" unicode="&#x160;" horiz-adv-x="633" 
d="M118.5 47q-73.5 59 -80.5 169h118q8 -62 51.5 -96.5t115.5 -34.5q66 0 106.5 30.5t40.5 80.5q0 39 -27.5 63t-83.5 37l-109 23q-94 21 -143 70.5t-49 124.5q0 57 32.5 102t89.5 70.5t130 25.5q118 0 191 -56t80 -153h-117q-6 53 -47.5 83.5t-105.5 30.5q-59 0 -97 -28
t-38 -72q0 -37 25.5 -60.5t78.5 -34.5l116 -25q94 -20 143 -70.5t49 -126.5q0 -63 -33.5 -111t-94 -74.5t-138.5 -26.5q-130 0 -203.5 59zM253 773l-110 133h101l26 -30q22 -27 44 -56q18 25 43 56l26 30h101l-110 -133h-121z" />
    <glyph glyph-name="scaron" unicode="&#x161;" horiz-adv-x="481" 
d="M94 32q-55 44 -60 116h106q5 -37 33 -57.5t72 -20.5q40 0 63.5 17.5t23.5 46.5q0 43 -68 57l-78 15q-137 26 -137 137q0 41 24 73t66.5 50t96.5 18q86 0 138.5 -38t59.5 -106h-105q-6 30 -30.5 47t-62.5 17q-37 0 -59 -15.5t-22 -40.5q0 -42 57 -53l84 -16
q72 -14 109.5 -49t37.5 -91q0 -68 -54.5 -109.5t-143.5 -41.5q-96 0 -151 44zM177 545l-110 133h101l26 -30q22 -27 44 -56q18 25 43 56l26 30h101l-110 -133h-121z" />
    <glyph glyph-name="uni0162" unicode="&#x162;" horiz-adv-x="590" 
d="M352 -1h-25l-40 -43q42 3 71.5 -18t29.5 -61q0 -41 -31.5 -65.5t-81.5 -24.5q-33 0 -62.5 10.5t-50.5 28.5l35 49q36 -28 76 -28q21 0 33.5 9.5t12.5 24.5t-12.5 23t-30.5 8q-21 0 -39 -9l-33 30l59 66h-25v600h-213v101h540v-101h-213v-600z" />
    <glyph glyph-name="uni0163" unicode="&#x163;" horiz-adv-x="357" 
d="M320 385h-115v-239q0 -27 13.5 -41t45.5 -14h56v-91h-85l-40 -43q43 2 72 -19t29 -61t-31.5 -64.5t-81.5 -24.5q-33 0 -62.5 10.5t-49.5 28.5l35 49q34 -28 75 -28q22 0 34.5 9.5t12.5 24.5q0 14 -13 22t-31 8q-22 0 -38 -8l-33 30l64 72q-81 21 -81 122v257h-67v87h67
v165h109v-165h115v-87z" />
    <glyph glyph-name="Tcaron" unicode="&#x164;" horiz-adv-x="590" 
d="M25 700h540v-101h-213v-600h-114v600h-213v101zM235 773l-110 133h101l26 -30q22 -27 44 -56q18 25 43 56l26 30h101l-110 -133h-121z" />
    <glyph glyph-name="tcaron" unicode="&#x165;" horiz-adv-x="357" 
d="M320 385h-115v-239q0 -27 13.5 -41t45.5 -14h56v-91h-91q-66 0 -99.5 31t-33.5 97v257h-67v87h67v165h109v-165h115v-87zM264 762h106v-118q0 -52 -27.5 -81.5t-79.5 -32.5v49q27 4 40.5 19.5t13.5 45.5v4h-53v114z" />
    <glyph glyph-name="Tbar" unicode="&#x166;" horiz-adv-x="609" 
d="M575 700v-101h-213v-206h163v-86h-163v-308h-114v308h-163v86h163v206h-213v101h540z" />
    <glyph glyph-name="tbar" unicode="&#x167;" horiz-adv-x="363" 
d="M324 385h-115v-97h115v-71h-115v-71q0 -27 13.5 -41t45.5 -14h56v-91h-91q-67 0 -100 31t-33 97v89h-68v71h68v97h-68v87h68v165h109v-165h115v-87z" />
    <glyph glyph-name="Utilde" unicode="&#x168;" horiz-adv-x="733" 
d="M214 21.5q-65 33.5 -100 97.5t-35 152v429h115v-423q0 -90 45.5 -139.5t127.5 -49.5q81 0 127 49.5t46 139.5v423h114v-425q0 -89 -35.5 -154t-100 -99t-151.5 -34q-88 0 -153 33.5zM403.5 787q-17.5 6 -41.5 17q-18 9 -30 13t-24 4q-15 0 -23 -9.5t-8 -25.5h-79
q-1 53 23 82.5t70 29.5q21 0 38.5 -6t41.5 -17q18 -9 30 -13t24 -4q15 0 23 9.5t8 25.5h79q1 -53 -23 -82.5t-70 -29.5q-21 0 -38.5 6z" />
    <glyph glyph-name="utilde" unicode="&#x169;" horiz-adv-x="553" 
d="M375 472h109v-472h-106v78q-21 -45 -58 -67.5t-87 -22.5q-75 0 -122 51t-47 141v292h109v-275q0 -56 25.5 -88t70.5 -32q49 0 77.5 35.5t28.5 94.5v265zM312.5 559q-17.5 6 -41.5 17q-18 9 -30 13t-24 4q-15 0 -23 -9.5t-8 -25.5h-79q-1 53 23 82.5t70 29.5q21 0 38.5 -6
t41.5 -17q18 -9 30 -13t24 -4q15 0 23 9.5t8 25.5h79q1 -53 -23 -82.5t-70 -29.5q-21 0 -38.5 6z" />
    <glyph glyph-name="Umacron" unicode="&#x16a;" horiz-adv-x="733" 
d="M214 21.5q-65 33.5 -100 97.5t-35 152v429h115v-423q0 -90 45.5 -139.5t127.5 -49.5q81 0 127 49.5t46 139.5v423h114v-425q0 -89 -35.5 -154t-100 -99t-151.5 -34q-88 0 -153 33.5zM510 799h-287v77h287v-77z" />
    <glyph glyph-name="umacron" unicode="&#x16b;" horiz-adv-x="553" 
d="M375 472h109v-472h-106v78q-21 -45 -58 -67.5t-87 -22.5q-75 0 -122 51t-47 141v292h109v-275q0 -56 25.5 -88t70.5 -32q49 0 77.5 35.5t28.5 94.5v265zM419 571h-287v77h287v-77z" />
    <glyph glyph-name="Ubreve" unicode="&#x16c;" horiz-adv-x="733" 
d="M214 21.5q-65 33.5 -100 97.5t-35 152v429h115v-423q0 -90 45.5 -139.5t127.5 -49.5q81 0 127 49.5t46 139.5v423h114v-425q0 -89 -35.5 -154t-100 -99t-151.5 -34q-88 0 -153 33.5zM259.5 808.5q-41.5 36.5 -43.5 99.5h83q1 -30 20 -47.5t49 -17.5q29 0 48 17.5t20 47.5
h83q-2 -63 -43.5 -99.5t-107.5 -36.5q-67 0 -108.5 36.5z" />
    <glyph glyph-name="ubreve" unicode="&#x16d;" horiz-adv-x="553" 
d="M375 472h109v-472h-106v78q-21 -45 -58 -67.5t-87 -22.5q-75 0 -122 51t-47 141v292h109v-275q0 -56 25.5 -88t70.5 -32q49 0 77.5 35.5t28.5 94.5v265zM168.5 580.5q-41.5 36.5 -43.5 99.5h83q1 -30 20 -47.5t49 -17.5q29 0 48 17.5t20 47.5h83q-2 -63 -43.5 -99.5
t-107.5 -36.5q-67 0 -108.5 36.5z" />
    <glyph glyph-name="Uring" unicode="&#x16e;" horiz-adv-x="733" 
d="M214 21.5q-65 33.5 -100 97.5t-35 152v429h115v-423q0 -90 45.5 -139.5t127.5 -49.5q81 0 127 49.5t46 139.5v423h114v-425q0 -89 -35.5 -154t-100 -99t-151.5 -34q-88 0 -153 33.5zM281 786.5q-33 29.5 -33 76.5t33 76.5t86 29.5q51 0 84.5 -29.5t33.5 -76.5
t-33.5 -76.5t-84.5 -29.5q-53 0 -86 29.5zM401 828.5q14 13.5 14 34.5t-14 34.5t-34 13.5q-22 0 -35.5 -13.5t-13.5 -34.5t13.5 -34.5t35.5 -13.5q20 0 34 13.5z" />
    <glyph glyph-name="uring" unicode="&#x16f;" horiz-adv-x="553" 
d="M375 472h109v-472h-106v78q-21 -45 -58 -67.5t-87 -22.5q-75 0 -122 51t-47 141v292h109v-275q0 -56 25.5 -88t70.5 -32q49 0 77.5 35.5t28.5 94.5v265zM190 558.5q-33 29.5 -33 76.5t33 76.5t86 29.5q51 0 84.5 -29.5t33.5 -76.5t-33.5 -76.5t-84.5 -29.5
q-53 0 -86 29.5zM310 600.5q14 13.5 14 34.5t-14 34.5t-34 13.5q-22 0 -35.5 -13.5t-13.5 -34.5t13.5 -34.5t35.5 -13.5q20 0 34 13.5z" />
    <glyph glyph-name="Uhungarumlaut" unicode="&#x170;" horiz-adv-x="733" 
d="M214 21.5q-65 33.5 -100 97.5t-35 152v429h115v-423q0 -90 45.5 -139.5t127.5 -49.5q81 0 127 49.5t46 139.5v423h114v-425q0 -89 -35.5 -154t-100 -99t-151.5 -34q-88 0 -153 33.5zM323 774h-79l65 132h101zM491 774h-80l64 132h102z" />
    <glyph glyph-name="uhungarumlaut" unicode="&#x171;" horiz-adv-x="553" 
d="M375 472h109v-472h-106v78q-21 -45 -58 -67.5t-87 -22.5q-75 0 -122 51t-47 141v292h109v-275q0 -56 25.5 -88t70.5 -32q49 0 77.5 35.5t28.5 94.5v265zM232 546h-79l65 132h101zM400 546h-80l64 132h102z" />
    <glyph glyph-name="Uogonek" unicode="&#x172;" horiz-adv-x="733" 
d="M540 700h114v-425q0 -104 -48 -172.5t-141 -106.5q-38 -16 -58 -37t-20 -46t15.5 -38t43.5 -13q16 0 26 2v-71q-19 -5 -44 -5q-58 0 -90 27.5t-32 73.5q0 29 16.5 55t46.5 44h-1q-134 0 -211.5 75t-77.5 208v429h115v-423q0 -90 45.5 -139.5t127.5 -49.5q81 0 127 49.5
t46 139.5v423z" />
    <glyph glyph-name="uogonek" unicode="&#x173;" horiz-adv-x="553" 
d="M485 -136v-71q-18 -5 -43 -5q-58 0 -90 27.5t-32 73.5q0 34 22.5 63t61.5 48h-26v78q-21 -45 -58 -67.5t-87 -22.5q-75 0 -122 51t-47 141v292h109v-275q0 -56 25.5 -88t70.5 -32q49 0 77.5 35.5t28.5 94.5v265h109v-472h-1q-41 -15 -61.5 -38t-20.5 -49q0 -25 15.5 -38
t43.5 -13q15 0 25 2z" />
    <glyph glyph-name="Wcircumflex" unicode="&#x174;" horiz-adv-x="976" 
d="M205 0l-181 700h117l109 -452q9 -35 22 -98l7 -32q17 77 30 130l117 452h130l117 -452q13 -53 30 -130l29 130l110 452h110l-182 -700h-137l-123 475l-5 21q-11 45 -17 76q-17 -75 -23 -97l-123 -475h-137zM318 773l110 133h121l110 -133h-101l-26 30q-25 31 -43 56
q-22 -29 -44 -56l-26 -30h-101z" />
    <glyph glyph-name="wcircumflex" unicode="&#x175;" horiz-adv-x="737" 
d="M152 0l-127 472h111l65 -281l12 -62q2 -7 3 -14t2 -13l22 89l76 281h114l75 -281q16 -62 22 -89l17 89l65 281h103l-126 -472h-122l-77 288q-7 26 -18 77q-11 -51 -18 -77l-78 -288h-121zM196 545l110 133h121l110 -133h-101l-26 30q-25 31 -43 56q-22 -29 -44 -56
l-26 -30h-101z" />
    <glyph glyph-name="Ycircumflex" unicode="&#x176;" horiz-adv-x="670" 
d="M658 700l-265 -417v-283h-115v281l-265 419h130l150 -242q23 -36 45 -78q23 42 45 78l149 242h126zM167 773l110 133h121l110 -133h-101l-26 30q-25 31 -43 56q-22 -29 -44 -56l-26 -30h-101z" />
    <glyph glyph-name="ycircumflex" unicode="&#x177;" horiz-adv-x="502" 
d="M59 -200v92h34q33 0 54 14t32 44l21 55l-189 467h121l93 -258q16 -45 30 -91l29 91l87 258h112l-208 -559q-22 -58 -62 -85.5t-102 -27.5h-52zM85 545l110 133h121l110 -133h-101l-26 30q-25 31 -43 56q-22 -29 -44 -56l-26 -30h-101z" />
    <glyph glyph-name="Ydieresis" unicode="&#x178;" horiz-adv-x="670" 
d="M658 700l-265 -417v-283h-115v281l-265 419h130l150 -242q23 -36 45 -78q23 42 45 78l149 242h126zM291 784h-103v112h103v-112zM486 784h-102v112h102v-112z" />
    <glyph glyph-name="Zacute" unicode="&#x179;" horiz-adv-x="628" 
d="M579 603l-403 -503h415v-100h-551v97l403 503h-396v100h532v-97zM358 774h-86l63 132h119z" />
    <glyph glyph-name="zacute" unicode="&#x17a;" horiz-adv-x="472" 
d="M424 387l-256 -300h265v-87h-392v84l258 300h-255v88h380v-85zM279 546h-86l63 132h119z" />
    <glyph glyph-name="Zdotaccent" unicode="&#x17b;" horiz-adv-x="628" 
d="M579 603l-403 -503h415v-100h-551v97l403 503h-396v100h532v-97zM373 778h-116v124h116v-124z" />
    <glyph glyph-name="zdotaccent" unicode="&#x17c;" horiz-adv-x="472" 
d="M424 387l-256 -300h265v-87h-392v84l258 300h-255v88h380v-85zM295 550h-116v124h116v-124z" />
    <glyph glyph-name="Zcaron" unicode="&#x17d;" horiz-adv-x="628" 
d="M579 603l-403 -503h415v-100h-551v97l403 503h-396v100h532v-97zM255 773l-110 133h101l26 -30q22 -27 44 -56q18 25 43 56l26 30h101l-110 -133h-121z" />
    <glyph glyph-name="zcaron" unicode="&#x17e;" horiz-adv-x="472" 
d="M424 387l-256 -300h265v-87h-392v84l258 300h-255v88h380v-85zM176 545l-110 133h101l26 -30q22 -27 44 -56q18 25 43 56l26 30h101l-110 -133h-121z" />
    <glyph glyph-name="florin" unicode="&#x192;" horiz-adv-x="454" 
d="M382 611q-32 0 -48 -14.5t-21 -46.5l-17 -119h125v-86h-138l-48 -332q-9 -68 -45.5 -98.5t-107.5 -30.5h-58v89h40q32 0 48 14.5t21 46.5l45 311h-118v86h131l20 140q9 68 45.5 98.5t107.5 30.5h57v-89h-39z" />
    <glyph glyph-name="uni01B5" unicode="&#x1b5;" horiz-adv-x="637" 
d="M357 320l-176 -220h415v-100h-551v97l179 223h-148v86h217l156 194h-396l-1 100h532v-97l-158 -197h118v-86h-187z" />
    <glyph glyph-name="uni01B6" unicode="&#x1b6;" horiz-adv-x="478" 
d="M272 205l-101 -118h266v-87h-393v84l104 121h-86v71h147l93 108h-255v88h381v-85l-95 -111h81v-71h-142z" />
    <glyph glyph-name="AEacute" unicode="&#x1fc;" horiz-adv-x="931" 
d="M533 316v-216h349v-100h-463v169h-225l-89 -169h-121l374 700h520v-100h-345v-184h301v-100h-301zM245 267h174v344q-19 -47 -48 -104zM657 774h-86l63 132h119z" />
    <glyph glyph-name="aeacute" unicode="&#x1fd;" horiz-adv-x="843" 
d="M802 208h-349q4 -63 37 -97.5t89 -34.5q39 0 67.5 18.5t40.5 50.5h109q-14 -71 -74.5 -114t-144.5 -43q-61 0 -109.5 24.5t-77.5 69.5q-28 -46 -74 -70t-106 -24q-78 0 -125 39t-47 102q0 61 45.5 98.5t129.5 48.5l75 10q28 4 43.5 15t15.5 34q0 30 -24 49.5t-60 19.5
q-40 0 -66 -19.5t-31 -54.5h-110q8 70 64.5 112t139.5 42q53 0 93 -17.5t62 -50.5q29 33 70.5 50.5t90.5 17.5q107 0 166.5 -65.5t59.5 -177.5v-33zM694 286q-1 53 -34 83.5t-81 30.5t-83.5 -29.5t-41.5 -84.5h240zM346 238q-14 -16 -57 -24l-57 -10q-81 -16 -81 -71
q0 -29 22 -47t59 -18q50 0 82 31.5t32 82.5v56zM458 546h-86l63 132h119z" />
    <glyph glyph-name="uni0218" unicode="&#x218;" horiz-adv-x="633" 
d="M118.5 47q-73.5 59 -80.5 169h118q8 -62 51.5 -96.5t115.5 -34.5q66 0 106.5 30.5t40.5 80.5q0 39 -27.5 63t-83.5 37l-109 23q-94 21 -143 70.5t-49 124.5q0 57 32.5 102t89.5 70.5t130 25.5q118 0 191 -56t80 -153h-117q-6 53 -47.5 83.5t-105.5 30.5q-59 0 -97 -28
t-38 -72q0 -37 25.5 -60.5t78.5 -34.5l116 -25q94 -20 143 -70.5t49 -126.5q0 -63 -33.5 -111t-94 -74.5t-138.5 -26.5q-130 0 -203.5 59zM269 -72h106v-117q0 -53 -27.5 -82.5t-79.5 -32.5v49q28 5 41 20t13 46v3h-53v114z" />
    <glyph glyph-name="uni0219" unicode="&#x219;" horiz-adv-x="481" 
d="M94 32q-55 44 -60 116h106q5 -37 33 -57.5t72 -20.5q40 0 63.5 17.5t23.5 46.5q0 43 -68 57l-78 15q-137 26 -137 137q0 41 24 73t66.5 50t96.5 18q86 0 138.5 -38t59.5 -106h-105q-6 30 -30.5 47t-62.5 17q-37 0 -59 -15.5t-22 -40.5q0 -42 57 -53l84 -16
q72 -14 109.5 -49t37.5 -91q0 -68 -54.5 -109.5t-143.5 -41.5q-96 0 -151 44zM189 -73h106v-117q0 -53 -27.5 -82.5t-79.5 -32.5v49q28 5 41 20t13 46v3h-53v114z" />
    <glyph glyph-name="uni021A" unicode="&#x21a;" horiz-adv-x="590" 
d="M25 700h540v-101h-213v-600h-114v600h-213v101zM242 -73h106v-117q0 -53 -27.5 -82.5t-79.5 -32.5v49q28 5 41 20t13 46v3h-53v114z" />
    <glyph glyph-name="uni021B" unicode="&#x21b;" horiz-adv-x="357" 
d="M320 385h-115v-239q0 -27 13.5 -41t45.5 -14h56v-91h-91q-66 0 -99.5 31t-33.5 97v257h-67v87h67v165h109v-165h115v-87zM151 -72h106v-117q0 -53 -27.5 -82.5t-79.5 -32.5v49q28 5 41 20t13 46v3h-53v114z" />
    <glyph glyph-name="uni0237" unicode="&#x237;" horiz-adv-x="248" 
d="M-11 -200v91h32q49 0 49 50v531h109v-548q0 -61 -29.5 -92.5t-97.5 -31.5h-63z" />
    <glyph glyph-name="circumflex" unicode="&#x2c6;" horiz-adv-x="458" 
d="M58 545l110 133h121l110 -133h-101l-26 30q-25 31 -43 56q-22 -29 -44 -56l-26 -30h-101z" />
    <glyph glyph-name="caron" unicode="&#x2c7;" horiz-adv-x="457" 
d="M168 545l-110 133h101l26 -30q22 -27 44 -56q18 25 43 56l26 30h101l-110 -133h-121z" />
    <glyph glyph-name="uni02C9" unicode="&#x2c9;" horiz-adv-x="287" 
d="M287 573h-287v77h287v-77z" />
    <glyph glyph-name="breve" unicode="&#x2d8;" horiz-adv-x="420" 
d="M101.5 580.5q-41.5 36.5 -43.5 99.5h83q1 -30 20 -47.5t49 -17.5q29 0 48 17.5t20 47.5h83q-2 -63 -43.5 -99.5t-107.5 -36.5q-67 0 -108.5 36.5z" />
    <glyph glyph-name="dotaccent" unicode="&#x2d9;" horiz-adv-x="233" 
d="M175 550h-116v124h116v-124z" />
    <glyph glyph-name="ring" unicode="&#x2da;" horiz-adv-x="340" 
d="M91 558.5q-33 29.5 -33 76.5t33 76.5t86 29.5q51 0 84.5 -29.5t33.5 -76.5t-33.5 -76.5t-84.5 -29.5q-53 0 -86 29.5zM211 600.5q14 13.5 14 34.5t-14 34.5t-34 13.5q-22 0 -35.5 -13.5t-13.5 -34.5t13.5 -34.5t35.5 -13.5q20 0 34 13.5z" />
    <glyph glyph-name="ogonek" unicode="&#x2db;" horiz-adv-x="270" 
d="M90 -184.5q-32 27.5 -32 73.5q0 42 34.5 76.5t90.5 49.5l38 -15q-41 -15 -61.5 -38t-20.5 -49q0 -25 15.5 -38t43.5 -13q16 0 26 2v-71q-19 -5 -44 -5q-58 0 -90 27.5z" />
    <glyph glyph-name="tilde" unicode="&#x2dc;" horiz-adv-x="451" 
d="M263.5 559q-17.5 6 -41.5 17q-18 9 -30 13t-24 4q-15 0 -23 -9.5t-8 -25.5h-79q-1 53 23 82.5t70 29.5q21 0 38.5 -6t41.5 -17q18 -9 30 -13t24 -4q15 0 23 9.5t8 25.5h79q1 -53 -23 -82.5t-70 -29.5q-21 0 -38.5 6z" />
    <glyph glyph-name="hungarumlaut" unicode="&#x2dd;" horiz-adv-x="450" 
d="M138 546h-79l65 132h101zM306 546h-80l64 132h102z" />
    <glyph glyph-name="gravecomb" unicode="&#x300;" horiz-adv-x="0" 
d="M0 546h-86l-96 132h119z" />
    <glyph glyph-name="acutecomb" unicode="&#x301;" horiz-adv-x="0" 
d="M-96 546h-86l63 132h119z" />
    <glyph glyph-name="uni0302" unicode="&#x302;" horiz-adv-x="0" 
d="M-341 545l110 133h121l110 -133h-101l-26 30q-25 31 -43 56q-22 -29 -44 -56l-26 -30h-101z" />
    <glyph glyph-name="tildecomb" unicode="&#x303;" horiz-adv-x="0" 
d="M-131.5 559q-17.5 6 -41.5 17q-18 9 -30 13t-24 4q-15 0 -23 -9.5t-8 -25.5h-79q-1 53 23 82.5t70 29.5q21 0 38.5 -6t41.5 -17q18 -9 30 -13t24 -4q15 0 23 9.5t8 25.5h79q1 -53 -23 -82.5t-70 -29.5q-21 0 -38.5 6z" />
    <glyph glyph-name="uni0304" unicode="&#x304;" horiz-adv-x="0" 
d="M0 573h-287v77h287v-77z" />
    <glyph glyph-name="uni0306" unicode="&#x306;" horiz-adv-x="0" 
d="M-259.5 580.5q-41.5 36.5 -43.5 99.5h83q1 -30 20 -47.5t49 -17.5q29 0 48 17.5t20 47.5h83q-2 -63 -43.5 -99.5t-107.5 -36.5q-67 0 -108.5 36.5z" />
    <glyph glyph-name="uni0307" unicode="&#x307;" horiz-adv-x="0" 
d="M0 550h-116v124h116v-124z" />
    <glyph glyph-name="uni0308" unicode="&#x308;" horiz-adv-x="0" 
d="M-195 556h-103v112h103v-112zM0 556h-102v112h102v-112z" />
    <glyph glyph-name="uni030A" unicode="&#x30a;" horiz-adv-x="0" 
d="M-204 558.5q-33 29.5 -33 76.5t33 76.5t86 29.5q51 0 84.5 -29.5t33.5 -76.5t-33.5 -76.5t-84.5 -29.5q-53 0 -86 29.5zM-84 600.5q14 13.5 14 34.5t-14 34.5t-34 13.5q-22 0 -35.5 -13.5t-13.5 -34.5t13.5 -34.5t35.5 -13.5q20 0 34 13.5z" />
    <glyph glyph-name="uni030B" unicode="&#x30b;" horiz-adv-x="0" 
d="M-254 546h-79l65 132h101zM-86 546h-80l64 132h102z" />
    <glyph glyph-name="uni030C" unicode="&#x30c;" horiz-adv-x="0" 
d="M-231 545l-110 133h101l26 -30q22 -27 44 -56q18 25 43 56l26 30h101l-110 -133h-121z" />
    <glyph glyph-name="uni0312" unicode="&#x312;" horiz-adv-x="0" 
d="M0 733q-28 -5 -41.5 -20t-13.5 -46v-3h53v-114h-106v117q0 53 28 82.5t80 32.5v-49z" />
    <glyph glyph-name="uni0326" unicode="&#x326;" horiz-adv-x="0" 
d="M-106 -72h106v-117q0 -53 -27.5 -82.5t-79.5 -32.5v49q28 5 41 20t13 46v3h-53v114z" />
    <glyph glyph-name="uni0327" unicode="&#x327;" horiz-adv-x="0" 
d="M-101 -43q43 2 72 -19t29 -61t-31.5 -64.5t-81.5 -24.5q-33 0 -62.5 10.5t-49.5 28.5l35 49q34 -28 75 -28q22 0 34.5 9.5t12.5 24.5q0 14 -13 22t-31 8q-22 0 -38 -8l-33 30l67 76h55v-10z" />
    <glyph glyph-name="uni0328" unicode="&#x328;" horiz-adv-x="0" 
d="M-134 -184.5q-32 27.5 -32 73.5q0 42 34.5 76.5t90.5 49.5l38 -15q-41 -15 -61.5 -38t-20.5 -49q0 -25 15.5 -38t43.5 -13q16 0 26 2v-71q-19 -5 -44 -5q-58 0 -90 27.5z" />
    <glyph glyph-name="uni0394" unicode="&#x394;" horiz-adv-x="664" 
d="M636 0h-607v101l238 599h130l239 -599v-101zM144 100h377l-156 401q-19 48 -33 93q-14 -45 -33 -93z" />
    <glyph glyph-name="uni03A9" unicode="&#x3a9;" horiz-adv-x="793" 
d="M697.5 208q-46.5 -73 -125.5 -110h149v-98h-275v117q81 23 130 90.5t49 159.5q0 71 -29.5 126.5t-81.5 87t-118 31.5t-118 -31.5t-81.5 -87t-29.5 -126.5q0 -92 49.5 -159.5t130.5 -90.5v-117h-275v98h149q-79 37 -125.5 109.5t-46.5 167.5q0 97 44.5 173.5t123.5 120
t179 43.5t179.5 -43.5t124 -120t44.5 -173.5q0 -94 -46.5 -167z" />
    <glyph glyph-name="uni03BC" unicode="&#x3bc;" horiz-adv-x="559" 
d="M380 472h109v-472h-106v78q-21 -45 -58 -67.5t-87 -22.5q-30 0 -59 13v-201h-109v672h109v-275q0 -56 25.5 -88t70.5 -32q48 0 76.5 35.5t28.5 94.5v265z" />
    <glyph glyph-name="pi" unicode="&#x3c0;" horiz-adv-x="614" 
d="M571 383h-89v-242q0 -26 12 -38t38 -12h39v-91h-79q-61 0 -90.5 29t-29.5 88v266h-155v-383h-109v383h-84v89h547v-89z" />
    <glyph glyph-name="uni0E3F" unicode="&#xe3f;" horiz-adv-x="624" 
d="M521.5 55q-60.5 -51 -163.5 -55v-93h-86v93h-186v668h186v92h86v-92q60 -1 106 -23.5t71.5 -61t25.5 -88.5q0 -54 -31 -92t-86 -52q65 -13 101.5 -56t36.5 -105q0 -84 -60.5 -135zM272 576h-77v-184h77v184zM425 546.5q-24 24.5 -67 28.5v-182q43 5 67 29t24 62t-24 62.5
zM195 301v-209h77v209h-77zM358 93q53 4 82 31t29 72q0 46 -29 73t-82 31v-207z" />
    <glyph glyph-name="Wgrave" unicode="&#x1e80;" horiz-adv-x="976" 
d="M205 0l-181 700h117l109 -452q9 -35 22 -98l7 -32q17 77 30 130l117 452h130l117 -452q13 -53 30 -130l29 130l110 452h110l-182 -700h-137l-123 475l-5 21q-11 45 -17 76q-17 -75 -23 -97l-123 -475h-137zM550 774h-86l-96 132h119z" />
    <glyph glyph-name="wgrave" unicode="&#x1e81;" horiz-adv-x="737" 
d="M152 0l-127 472h111l65 -281l12 -62q2 -7 3 -14t2 -13l22 89l76 281h114l75 -281q16 -62 22 -89l17 89l65 281h103l-126 -472h-122l-77 288q-7 26 -18 77q-11 -51 -18 -77l-78 -288h-121zM411 546h-86l-96 132h119z" />
    <glyph glyph-name="Wacute" unicode="&#x1e82;" horiz-adv-x="976" 
d="M205 0l-181 700h117l109 -452q9 -35 22 -98l7 -32q17 77 30 130l117 452h130l117 -452q13 -53 30 -130l29 130l110 452h110l-182 -700h-137l-123 475l-5 21q-11 45 -17 76q-17 -75 -23 -97l-123 -475h-137zM548 774h-86l63 132h119z" />
    <glyph glyph-name="wacute" unicode="&#x1e83;" horiz-adv-x="737" 
d="M152 0l-127 472h111l65 -281l12 -62q2 -7 3 -14t2 -13l22 89l76 281h114l75 -281q16 -62 22 -89l17 89l65 281h103l-126 -472h-122l-77 288q-7 26 -18 77q-11 -51 -18 -77l-78 -288h-121zM409 546h-86l63 132h119z" />
    <glyph glyph-name="Wdieresis" unicode="&#x1e84;" horiz-adv-x="976" 
d="M205 0l-181 700h117l109 -452q9 -35 22 -98l7 -32q17 77 30 130l117 452h130l117 -452q13 -53 30 -130l29 130l110 452h110l-182 -700h-137l-123 475l-5 21q-11 45 -17 76q-17 -75 -23 -97l-123 -475h-137zM459 784h-103v112h103v-112zM654 784h-102v112h102v-112z" />
    <glyph glyph-name="wdieresis" unicode="&#x1e85;" horiz-adv-x="737" 
d="M152 0l-127 472h111l65 -281l12 -62q2 -7 3 -14t2 -13l22 89l76 281h114l75 -281q16 -62 22 -89l17 89l65 281h103l-126 -472h-122l-77 288q-7 26 -18 77q-11 -51 -18 -77l-78 -288h-121zM321 556h-103v112h103v-112zM516 556h-102v112h102v-112z" />
    <glyph glyph-name="uni1E9E" unicode="&#x1e9e;" horiz-adv-x="727" 
d="M580 365q60 -35 88.5 -79.5t28.5 -103.5q0 -56 -27 -100.5t-75.5 -69t-110.5 -24.5q-100 0 -158 53t-59 151h114q2 -51 30 -78.5t75 -27.5q42 0 68.5 26.5t26.5 67.5q0 62 -73 101l-65 36q-55 30 -80.5 66.5t-25.5 86.5q0 43 21.5 76.5t59.5 53.5h-217v-600h-115v700h531
v-100h-16q-75 0 -113 -29t-38 -76q0 -30 15 -51.5t51 -41.5z" />
    <glyph glyph-name="Ygrave" unicode="&#x1ef2;" horiz-adv-x="670" 
d="M658 700l-265 -417v-283h-115v281l-265 419h130l150 -242q23 -36 45 -78q23 42 45 78l149 242h126zM382 774h-86l-96 132h119z" />
    <glyph glyph-name="ygrave" unicode="&#x1ef3;" horiz-adv-x="502" 
d="M59 -200v92h34q33 0 54 14t32 44l21 55l-189 467h121l93 -258q16 -45 30 -91l29 91l87 258h112l-208 -559q-22 -58 -62 -85.5t-102 -27.5h-52zM300 546h-86l-96 132h119z" />
    <glyph glyph-name="endash" unicode="&#x2013;" horiz-adv-x="568" 
d="M517 226h-466v96h466v-96z" />
    <glyph glyph-name="emdash" unicode="&#x2014;" horiz-adv-x="880" 
d="M830 227h-779v94h779v-94z" />
    <glyph glyph-name="quoteleft" unicode="&#x2018;" horiz-adv-x="238" 
d="M180 652q-31 -5 -47 -25t-16 -54v-18h61v-131h-122v149q0 58 32 93t92 40v-54z" />
    <glyph glyph-name="quoteright" unicode="&#x2019;" horiz-adv-x="231" 
d="M61 700h121v-149q0 -58 -32 -93t-92 -40v54q64 11 64 79v18h-61v131z" />
    <glyph glyph-name="quotesinglbase" unicode="&#x201a;" horiz-adv-x="244" 
d="M62 131h121v-149q0 -58 -32 -93t-92 -40v54q64 11 64 79v18h-61v131z" />
    <glyph glyph-name="quotedblleft" unicode="&#x201c;" horiz-adv-x="425" 
d="M56 573q0 58 32 93t92 40v-54q-31 -5 -47 -25t-16 -54v-18h61v-131h-122v149zM367 652q-63 -9 -63 -79v-18h61v-131h-122v149q0 58 32 93t92 40v-54z" />
    <glyph glyph-name="quotedblright" unicode="&#x201d;" horiz-adv-x="418" 
d="M61 569v131h121v-149q0 -58 -32 -93t-92 -40v54q64 11 64 79v18h-61zM247 700h122v-149q0 -58 -32 -93t-92 -40v54q63 11 63 79v18h-61v131z" />
    <glyph glyph-name="quotedblbase" unicode="&#x201e;" horiz-adv-x="431" 
d="M61 0v131h121v-149q0 -58 -32 -93t-92 -40v54q64 11 64 79v18h-61zM247 131h122v-149q0 -58 -32 -93t-92 -40v54q63 11 63 79v18h-61v131z" />
    <glyph glyph-name="dagger" unicode="&#x2020;" horiz-adv-x="437" 
d="M266 621h135v-90h-135v-319h-95v319h-134v90h134v161h95v-161z" />
    <glyph glyph-name="daggerdbl" unicode="&#x2021;" horiz-adv-x="463" 
d="M411 621v-84h-131v-80h131v-84h-131v-161h-96v161h-132v84h132v80h-132v84h132v161h96v-161h131z" />
    <glyph glyph-name="bullet" unicode="&#x2022;" horiz-adv-x="441" 
d="M146 146.5q-34 19.5 -53.5 53.5t-19.5 75q0 40 19.5 74t53.5 53.5t75 19.5t74.5 -19.5t53 -53.5t19.5 -74q0 -41 -19.5 -75t-53 -53.5t-74.5 -19.5t-75 19.5z" />
    <glyph glyph-name="ellipsis" unicode="&#x2026;" horiz-adv-x="805" 
d="M185 0h-125v136h125v-136zM465 0h-125v136h125v-136zM745 0h-125v136h125v-136z" />
    <glyph glyph-name="perthousand" unicode="&#x2030;" horiz-adv-x="1252" 
d="M110.5 347q-40.5 23 -63 64t-22.5 92q0 50 22.5 90.5t63 63.5t90.5 23t91 -23t64 -63.5t23 -90.5q0 -51 -23 -92t-64 -64t-91 -23t-90.5 23zM717 629l-506 -641l-65 51l506 641zM265.5 430q24.5 28 24.5 73q0 44 -24.5 71.5t-64.5 27.5q-39 0 -63.5 -27t-24.5 -72
q0 -46 24.5 -73.5t63.5 -27.5q40 0 64.5 28zM571 11q-40 23 -62.5 64t-22.5 92q0 50 22.5 90.5t62.5 63.5t90 23q51 0 91.5 -23t63.5 -63.5t23 -90.5q0 -51 -23 -92t-63.5 -64t-91.5 -23q-50 0 -90 23zM962.5 11q-40.5 23 -63 64t-22.5 92q0 50 22.5 90.5t63 63.5t90.5 23
t90.5 -23t63.5 -63.5t23 -90.5q0 -51 -23 -92t-63 -64t-91 -23q-50 0 -90.5 23zM726 94q25 28 25 73q0 44 -25 71.5t-64 27.5t-64 -27.5t-25 -71.5t24.5 -72.5t64.5 -28.5q39 0 64 28zM1118 94q25 28 25 73q0 44 -25 71.5t-64 27.5t-64 -27t-25 -72q0 -44 24.5 -72.5
t64.5 -28.5q39 0 64 28z" />
    <glyph glyph-name="guilsinglleft" unicode="&#x2039;" horiz-adv-x="297" 
d="M252 50h-102l-106 194l106 194h102l-105 -194z" />
    <glyph glyph-name="guilsinglright" unicode="&#x203a;" horiz-adv-x="297" 
d="M147 50h-102l105 194l-105 194h102l106 -194z" />
    <glyph glyph-name="uni2042" unicode="&#x2042;" horiz-adv-x="794" 
d="M397 468l-70 -111l-67 49l84 101l-127 32l25 79l122 -49l-9 131h83l-9 -131l122 49l25 -79l-126 -32l84 -101l-68 -49zM196 99l-69 -111l-68 48l85 101l-127 32l25 79l122 -48l-9 130h83l-9 -131l121 49l26 -79l-127 -32l85 -100l-68 -49zM598 99l-70 -111l-67 48l84 101
l-127 32l25 79l122 -48l-9 130h83l-9 -131l122 49l25 -79l-126 -32l84 -100l-68 -49z" />
    <glyph glyph-name="fraction" unicode="&#x2044;" horiz-adv-x="244" 
d="M390 632l-475 -644l-64 48l475 644z" />
    <glyph glyph-name="uni2070" unicode="&#x2070;" horiz-adv-x="487" 
d="M98 348q-52 67 -52 189t52 189t145 67q94 0 146.5 -67t52.5 -189t-52.5 -189t-146.5 -67q-93 0 -145 67zM316.5 406.5q25.5 45.5 25.5 130.5t-25.5 130.5t-73.5 45.5q-47 0 -72.5 -45.5t-25.5 -130.5t25.5 -130.5t72.5 -45.5q48 0 73.5 45.5z" />
    <glyph glyph-name="uni2074" unicode="&#x2074;" horiz-adv-x="481" 
d="M375 499h69v-77h-69v-132h-93v132h-245v81l213 281h125v-285zM282 499v204l-27 -38l-101 -132q-15 -21 -28 -34h156z" />
    <glyph glyph-name="uni2075" unicode="&#x2075;" horiz-adv-x="462" 
d="M343 598q36 -21 56.5 -59t20.5 -85q0 -50 -24 -89.5t-66.5 -61.5t-97.5 -22q-83 0 -132 39.5t-53 112.5h97q5 -34 28 -53.5t60 -19.5q40 0 64.5 25.5t24.5 67.5q0 41 -24 66.5t-63 25.5q-27 0 -48 -12t-31 -33h-93l3 284h327v-78h-240l-2 -133q41 46 112 46q45 0 81 -21z
" />
    <glyph glyph-name="uni2076" unicode="&#x2076;" horiz-adv-x="477" 
d="M353 590q37 -21 58.5 -58t21.5 -83q0 -48 -24 -86t-66.5 -60t-94.5 -22q-97 0 -150 67t-53 189q0 120 54.5 188t149.5 68q74 0 121 -37.5t54 -103.5h-98q-5 30 -25 46.5t-53 16.5q-50 0 -78 -44t-29 -127q20 32 53 49.5t76 17.5q46 0 83 -21zM308.5 385q25.5 25 25.5 63
t-25.5 63.5t-64.5 25.5q-40 0 -65 -25t-25 -64q0 -38 25 -63t65 -25q39 0 64.5 25z" />
    <glyph glyph-name="uni2077" unicode="&#x2077;" horiz-adv-x="384" 
d="M21 784h352v-84q-157 -136 -175 -410h-110q23 267 193 413h-260v81z" />
    <glyph glyph-name="uni2078" unicode="&#x2078;" horiz-adv-x="474" 
d="M402.5 502.5q26.5 -32.5 26.5 -75.5q0 -65 -53.5 -105.5t-138.5 -40.5t-138.5 40.5t-53.5 105.5q0 43 26.5 75.5t74.5 46.5q-41 13 -64.5 42t-23.5 68q0 60 49.5 97t129.5 37t129 -37t49 -97q0 -39 -23 -68t-64 -42q48 -14 74.5 -46.5zM176 697.5q-23 -18.5 -23 -48.5
q0 -31 23 -49t61 -18q37 0 60 18.5t23 48.5t-23 48.5t-60 18.5q-38 0 -61 -18.5zM304.5 379q25.5 21 25.5 55t-25.5 55t-67.5 21t-67.5 -21t-25.5 -55t25.5 -55t67.5 -21t67.5 21z" />
    <glyph glyph-name="uni2079" unicode="&#x2079;" horiz-adv-x="477" 
d="M379 726q53 -67 53 -189q0 -121 -54.5 -188.5t-150.5 -67.5q-74 0 -120.5 37.5t-53.5 103.5h98q5 -30 25 -46.5t53 -16.5q50 0 78 44t29 127q-20 -32 -53 -49.5t-76 -17.5q-46 0 -83 21t-58.5 58t-21.5 83q0 48 24 86t66.5 60t94.5 22q97 0 150 -67zM298 562q25 25 25 64
q0 38 -25 63t-65 25q-39 0 -64.5 -25t-25.5 -63t25.5 -63.5t64.5 -25.5q40 0 65 25z" />
    <glyph glyph-name="uni2080" unicode="&#x2080;" horiz-adv-x="487" 
d="M102 -100q-52 67 -52 189t52 189t145 67q94 0 146.5 -67t52.5 -189t-52.5 -189t-146.5 -67q-93 0 -145 67zM320.5 -41.5q25.5 45.5 25.5 130.5t-25.5 130.5t-73.5 45.5q-47 0 -72.5 -45.5t-25.5 -130.5t25.5 -130.5t72.5 -45.5q48 0 73.5 45.5z" />
    <glyph glyph-name="uni2081" unicode="&#x2081;" horiz-adv-x="302" 
d="M20 206l107 130h95v-494h-96v388l-54 -68z" />
    <glyph glyph-name="uni2082" unicode="&#x2082;" horiz-adv-x="447" 
d="M406 -79v-79h-362q3 61 33.5 109t93.5 93l57 40q39 28 57.5 55t18.5 55q0 32 -21 52t-54 20q-36 0 -59 -22t-24 -60h-98q3 74 51.5 117.5t128.5 43.5q79 0 127 -41.5t48 -109.5q0 -47 -29 -89.5t-92 -87.5l-58 -41q-42 -31 -56 -55h238z" />
    <glyph glyph-name="uni2083" unicode="&#x2083;" horiz-adv-x="464" 
d="M398.5 57q23.5 -31 23.5 -73q0 -44 -23.5 -78.5t-65.5 -53.5t-95 -19q-88 0 -139 42.5t-54 117.5h99q4 -39 28 -60t65 -21q39 0 63 21t24 55q0 33 -23.5 52t-64.5 19h-44v78h41q37 0 58.5 17.5t21.5 46.5t-21.5 47t-55.5 18q-37 0 -60 -20t-27 -52h-98q6 71 56.5 111
t128.5 40q77 0 125.5 -38.5t48.5 -99.5q0 -36 -20.5 -64t-55.5 -41q41 -14 64.5 -45z" />
    <glyph glyph-name="uni2084" unicode="&#x2084;" horiz-adv-x="481" 
d="M378 51h69v-77h-69v-132h-93v132h-245v81l213 281h125v-285zM285 51v204l-27 -38l-101 -132q-15 -21 -28 -34h156z" />
    <glyph glyph-name="uni2085" unicode="&#x2085;" horiz-adv-x="460" 
d="M342 150q36 -21 56.5 -59t20.5 -85q0 -50 -24 -89.5t-66.5 -61.5t-97.5 -22q-83 0 -132 39.5t-53 112.5h97q5 -34 28 -53.5t60 -19.5q40 0 64.5 25.5t24.5 67.5q0 41 -24 66.5t-63 25.5q-27 0 -48 -12t-31 -33h-93l3 284h327v-78h-240l-2 -133q41 46 112 46q45 0 81 -21z
" />
    <glyph glyph-name="uni2086" unicode="&#x2086;" horiz-adv-x="477" 
d="M355 142q37 -21 58.5 -58t21.5 -83q0 -48 -24 -86t-66.5 -60t-94.5 -22q-97 0 -150 67t-53 189q0 120 54.5 188t149.5 68q74 0 121 -37.5t54 -103.5h-98q-5 30 -25 46.5t-53 16.5q-50 0 -78 -44t-29 -127q20 32 53 49.5t76 17.5q46 0 83 -21zM310.5 -63q25.5 25 25.5 63
t-25.5 63.5t-64.5 25.5q-40 0 -65 -25t-25 -64q0 -38 25 -63t65 -25q39 0 64.5 25z" />
    <glyph glyph-name="uni2087" unicode="&#x2087;" horiz-adv-x="385" 
d="M19 336h352v-84q-157 -136 -175 -410h-110q23 267 193 413h-260v81z" />
    <glyph glyph-name="uni2088" unicode="&#x2088;" horiz-adv-x="474" 
d="M404.5 54.5q26.5 -32.5 26.5 -75.5q0 -65 -53.5 -105.5t-138.5 -40.5t-138.5 40.5t-53.5 105.5q0 43 26.5 75.5t74.5 46.5q-41 13 -64.5 42t-23.5 68q0 60 49.5 97t129.5 37t129 -37t49 -97q0 -39 -23 -68t-64 -42q48 -14 74.5 -46.5zM178 249.5q-23 -18.5 -23 -48.5
q0 -31 23 -49t61 -18q37 0 60 18.5t23 48.5t-23 48.5t-60 18.5q-38 0 -61 -18.5zM306.5 -69q25.5 21 25.5 55t-25.5 55t-67.5 21t-67.5 -21t-25.5 -55t25.5 -55t67.5 -21t67.5 21z" />
    <glyph glyph-name="uni2089" unicode="&#x2089;" horiz-adv-x="478" 
d="M381 278q53 -67 53 -189q0 -121 -54.5 -188.5t-150.5 -67.5q-74 0 -120.5 37.5t-53.5 103.5h98q5 -30 25 -46.5t53 -16.5q50 0 78 44t29 127q-20 -32 -53 -49.5t-76 -17.5q-46 0 -83 21t-58.5 58t-21.5 83q0 48 24 86t66.5 60t94.5 22q97 0 150 -67zM300 114q25 25 25 64
q0 38 -25 63t-65 25q-39 0 -64.5 -25t-25.5 -63t25.5 -63.5t64.5 -25.5q40 0 65 25z" />
    <glyph glyph-name="franc" unicode="&#x20a3;" horiz-adv-x="570" 
d="M536 668v-95h-303v-183h263v-93h-263v-95h183v-82h-183v-120h-110v120h-85v82h85v466h413z" />
    <glyph glyph-name="uni20A8" unicode="&#x20a8;" horiz-adv-x="1028" 
d="M530.5 388.5q-32.5 -40.5 -89.5 -54.5q54 -10 77.5 -43t23.5 -97v-80q0 -42 3 -64.5t12 -49.5h-115q-7 22 -9 46t-2 66v77q0 51 -22 73.5t-76 22.5h-136v-285h-111v668h260q100 0 158.5 -50t58.5 -132q0 -57 -32.5 -97.5zM325 378q56 0 88.5 26t32.5 72t-32.5 72
t-88.5 26h-128v-196h128zM853 266q140 -27 140 -133q0 -65 -52.5 -104.5t-138.5 -39.5q-92 0 -144.5 41.5t-57.5 110.5h104q5 -34 31.5 -53.5t67.5 -19.5q37 0 59 16.5t22 43.5q0 42 -64 54l-74 14q-132 24 -132 131q0 39 23 70t64.5 48t93.5 17q82 0 132 -36.5t57 -101.5
h-102q-6 28 -29 44.5t-58 16.5q-34 0 -55.5 -15t-21.5 -38q0 -39 54 -50z" />
    <glyph glyph-name="uni20A9" unicode="&#x20a9;" horiz-adv-x="936" 
d="M877 426v-75h-92l-12 -55h104v-75h-119l-47 -221h-129l-47 221h-136l-46 -221h-129l-46 221h-119v75h103l-11 55h-92v75h76l-50 242h102l47 -242h129l51 242h114l50 -242h130l47 242h97l-51 -242h76zM442 426h50l-1 5q-14 69 -23 123q-14 -77 -25 -123zM347 351h-99
l11 -55h77zM426 351l-11 -55h105l-12 55h-82zM606 296h76l11 55h-99zM320 221h-47l1 -4q15 -78 22 -119q17 94 23 119zM668 221h-47l1 -4l24 -119q7 54 21 119z" />
    <glyph glyph-name="uni20AA" unicode="&#x20aa;" horiz-adv-x="716" 
d="M86 0v668h205q94 0 139 -41.5t45 -127.5v-341h-83v322q0 48 -23.5 71.5t-72.5 23.5h-114v-575h-96zM246 0v510h82v-417h115q96 0 96 95v480h96v-484q0 -95 -45 -139.5t-142 -44.5h-202z" />
    <glyph glyph-name="dong" unicode="&#x20ab;" horiz-adv-x="621" 
d="M583 616v-72h-67v-544h-106v75q-21 -42 -60.5 -64.5t-92.5 -22.5q-62 0 -111 31t-76.5 87.5t-27.5 129.5q0 71 27.5 127.5t76.5 88.5t110 32q51 0 90 -22.5t61 -64.5v147h-172v72h172v84h109v-84h67zM376.5 120.5q34.5 43.5 34.5 115.5q0 71 -34.5 114.5t-92.5 43.5
t-93.5 -43.5t-35.5 -114.5t35.5 -115t93.5 -44t92.5 43.5zM515 -156h-441v82h441v-82z" />
    <glyph glyph-name="Euro" unicode="&#x20ac;" horiz-adv-x="650" 
d="M602 212q-9 -104 -70.5 -164t-158.5 -60q-99 0 -161.5 61t-82.5 176h-72v77h64q-1 10 -1 32t1 32h-64v77h72q20 115 82.5 176t161.5 61q97 0 157 -55.5t69 -154.5h-112q-7 55 -37 85.5t-77 30.5q-105 0 -132 -143h196l-8 -77h-196q-1 -10 -1 -32t1 -32h190l-9 -77h-173
q27 -143 132 -143q48 0 78 33t39 97h112z" />
    <glyph glyph-name="uni20AD" unicode="&#x20ad;" horiz-adv-x="671" 
d="M635 0h-133l-227 301h-26v-301h-111v301h-85v87h85v280h111v-280h25l211 280h127l-220 -280h197v-87h-189z" />
    <glyph glyph-name="uni20B1" unicode="&#x20b1;" horiz-adv-x="717" 
d="M685 561v-70h-78q1 -7 1 -21q0 -13 -1 -20h78v-71h-95q-25 -52 -81 -79.5t-139 -27.5h-128v-272h-110v379h-87v71h87v41h-87v70h87v107h237q84 0 140 -27t81 -80h95zM366 364q63 0 96.5 27.5t33.5 78.5t-34 78.5t-96 27.5h-124v-212h124z" />
    <glyph glyph-name="uni20B4" unicode="&#x20b4;" horiz-adv-x="684" 
d="M627 434v-74h-570v74h389q17 26 17 59q0 44 -31 70.5t-83 26.5q-51 0 -85 -26.5t-40 -73.5h-109q8 89 71.5 139.5t163.5 50.5q102 0 162 -49.5t60 -135.5q0 -33 -11 -61h66zM57 235v75h570v-75h-397q-8 -22 -8 -45q0 -50 34 -80.5t91 -30.5q54 0 89.5 27t46.5 73h111
q-13 -87 -80.5 -139t-166.5 -52q-70 0 -123.5 25t-83 70t-29.5 105q0 23 7 47h-61z" />
    <glyph glyph-name="uni20B8" unicode="&#x20b8;" horiz-adv-x="541" 
d="M39 577v91h463v-91h-463zM215 418h-176v94h463v-94h-177v-418h-110v418z" />
    <glyph glyph-name="uni20B9" unicode="&#x20b9;" horiz-adv-x="611" 
d="M566 668v-85h-158q53 -25 72 -79h86v-82h-79q-11 -73 -72.5 -116t-157.5 -43h-39l320 -263h-164l-307 263v86h176q111 0 135 73h-311v82h311q-12 35 -46 53.5t-89 18.5h-176v92h499z" />
    <glyph glyph-name="uni20BA" unicode="&#x20ba;" horiz-adv-x="614" 
d="M584 254q-9 -121 -87.5 -187.5t-204.5 -66.5h-146v200l-91 -45v86l91 45v76l-91 -45v86l91 45v220h111v-165l204 101v-87l-204 -100v-76l204 101v-86l-204 -101v-160h36q79 0 127 40.5t58 118.5h106z" />
    <glyph glyph-name="uni20BD" unicode="&#x20bd;" horiz-adv-x="640" 
d="M245 279v-77h227v-82h-227v-120h-111v120h-84v82h84v77h-84v85h84v304h240q112 0 175.5 -51.5t63.5 -143.5t-63 -143t-175 -51h-130zM245 576v-212h122q64 0 97.5 27.5t33.5 78.5t-34 78.5t-98 27.5h-121z" />
    <glyph glyph-name="uni20BF" unicode="&#x20bf;" horiz-adv-x="608" 
d="M521.5 70q-44.5 -48 -122.5 -64v-101h-79v95h-63v-95h-78v95h-95v668h95v95h78v-95h63v95h79v-102q68 -15 107 -59.5t39 -107.5q0 -54 -31 -91.5t-86 -51.5q64 -14 101 -56.5t37 -104.5q0 -72 -44.5 -120zM404 551q-30 25 -82 25h-130v-184h130q52 0 82 24.5t30 67.5
q0 42 -30 67zM325 92q61 0 95.5 27.5t34.5 76.5q0 50 -34.5 78t-95.5 28h-133v-210h133z" />
    <glyph glyph-name="uni2113" unicode="&#x2113;" horiz-adv-x="489" 
d="M458 163q-3 -81 -49 -128t-124 -47q-73 0 -117 41t-48 121q-47 -14 -84 -19v91q46 8 84 24v276q0 74 41.5 116t114.5 42q72 0 113.5 -42t41.5 -114q0 -95 -57.5 -184.5t-155.5 -146.5v-29q0 -43 18.5 -65.5t52.5 -22.5q31 0 50 22t22 65h97zM218 303q55 44 86 102t31 119
q0 34 -15.5 53.5t-42.5 19.5t-43 -19.5t-16 -54.5v-220z" />
    <glyph glyph-name="uni2116" unicode="&#x2116;" horiz-adv-x="1117" 
d="M801.5 342.5q-40.5 22.5 -63 63t-22.5 92.5t22.5 92.5t63 63t92.5 22.5t92.5 -22.5t63.5 -63t23 -92.5t-23 -92.5t-63.5 -63t-92.5 -22.5t-92.5 22.5zM542 668h106v-668h-144l-316 561q3 -66 3 -122v-439h-105v668h157l301 -536q-2 82 -2 112v424zM832.5 571.5
q-23.5 -27.5 -23.5 -73.5q0 -45 23.5 -73t61.5 -28t62 28t24 73q0 46 -24 73.5t-62 27.5t-61.5 -27.5zM1057 170h-326v90h326v-90z" />
    <glyph glyph-name="uni2117" unicode="&#x2117;" horiz-adv-x="645" 
d="M187.5 217.5q-61.5 35.5 -97 96.5t-35.5 135t35.5 135.5t97 97t135.5 35.5t135.5 -35.5t97 -97t35.5 -135.5t-35.5 -135t-97 -96.5t-135.5 -35.5t-135.5 35.5zM425 272q46 27 72.5 73.5t26.5 103.5t-26.5 104t-72.5 74t-102 27t-102 -27t-73 -74t-27 -104t27 -103.5
t73 -73.5t102 -27t102 27zM231 309v280h113q46 0 73.5 -23.5t27.5 -63.5q0 -39 -27.5 -62.5t-73.5 -23.5h-52v-107h-61zM339 466q20 0 32 9.5t12 26.5t-12 26.5t-32 9.5h-47v-72h47z" />
    <glyph glyph-name="uni2120" unicode="&#x2120;" horiz-adv-x="985" 
d="M100 312.5q-49 39.5 -53 103.5h94q5 -31 28 -48.5t60 -17.5q34 0 54.5 14.5t20.5 37.5q0 40 -54 49l-71 14q-59 11 -89.5 41t-30.5 78q0 54 45.5 88.5t116.5 34.5q76 0 122.5 -35.5t50.5 -95.5h-92q-5 27 -26.5 42.5t-53.5 15.5q-30 0 -49 -13t-19 -34q0 -36 47 -43
l75 -14q60 -12 92 -44t32 -80q0 -61 -47 -97t-125 -36q-79 0 -128 39.5zM455 280v420h142l66 -227q8 -24 21 -78q8 35 21 78l67 227h140v-420h-89v282q0 23 2 73l-102 -355h-83l-102 355q2 -50 2 -73v-282h-85z" />
    <glyph glyph-name="trademark" unicode="&#x2122;" horiz-adv-x="937" 
d="M407 280v420h142l66 -227q8 -24 21 -78q8 35 21 78l67 227h140v-420h-89v281q0 38 3 75l-103 -356h-83l-102 356q2 -50 2 -75v-281h-85zM235 279h-96v338h-114v82h324v-82h-114v-338z" />
    <glyph glyph-name="uni2126" unicode="&#x2126;" horiz-adv-x="802" 
d="M702.5 208q-46.5 -73 -125.5 -110h149v-98h-275v117q81 23 130 90.5t49 159.5q0 71 -29.5 126.5t-81.5 87t-118 31.5t-118 -31.5t-81.5 -87t-29.5 -126.5q0 -92 49.5 -159.5t130.5 -90.5v-117h-275v98h149q-79 37 -125.5 109.5t-46.5 167.5q0 97 44.5 173.5t123.5 120
t179 43.5t179.5 -43.5t124 -120t44.5 -173.5q0 -94 -46.5 -167z" />
    <glyph glyph-name="estimated" unicode="&#x212e;" horiz-adv-x="694" 
d="M201 28.5q-67 39.5 -106 107.5t-39 151q0 82 39.5 150.5t107 108t148.5 39.5q80 0 147 -37t106.5 -104t39.5 -152v-26h-477v-149q34 -40 81 -63t101 -23q75 0 135 37.5t88 99.5h49q-30 -80 -104 -129.5t-168 -49.5q-81 0 -148 39.5zM167 309h370v139q-32 44 -80.5 69.5
t-105.5 25.5q-55 0 -103 -23.5t-81 -64.5v-146z" />
    <glyph glyph-name="uni2153" unicode="&#x2153;" horiz-adv-x="828" 
d="M21 561l87 107h81v-401h-82v310l-42 -53zM629 632l-475 -644l-64 48l475 644zM773 175q19 -26 19 -60q0 -54 -42.5 -88t-108.5 -34q-72 0 -114 34t-44 96h85q3 -30 22 -46.5t51 -16.5q29 0 47.5 16t18.5 43q0 26 -18.5 40.5t-50.5 14.5h-34v66h33q28 0 45 13.5t17 36.5
t-17 37.5t-44 14.5q-28 0 -46 -16.5t-20 -41.5h-84q4 58 44.5 91t105.5 33q64 0 104 -31t40 -81q0 -29 -16.5 -51.5t-45.5 -33.5q34 -10 53 -36z" />
    <glyph glyph-name="uni2154" unicode="&#x2154;" horiz-adv-x="954" 
d="M334 333v-66h-297q3 52 28 90.5t76 74.5l46 34q60 42 60 85q0 26 -16 42t-42 16q-29 0 -46 -18t-18 -47h-84q2 60 41.5 95.5t105.5 35.5q65 0 104 -34t39 -89q0 -39 -23.5 -73t-74.5 -71l-46 -33q-31 -22 -44 -42h191zM757 632l-475 -644l-64 48l475 644zM901 175
q19 -26 19 -60q0 -54 -42.5 -88t-108.5 -34q-72 0 -114 34t-44 96h85q3 -30 22 -46.5t51 -16.5q29 0 47.5 16t18.5 43q0 26 -18.5 40.5t-50.5 14.5h-34v66h33q28 0 45 13.5t17 36.5t-17 37.5t-44 14.5q-28 0 -46 -16.5t-20 -41.5h-84q4 58 44.5 91t105.5 33q64 0 104 -31
t40 -81q0 -29 -16.5 -51.5t-45.5 -33.5q34 -10 53 -36z" />
    <glyph glyph-name="oneeighth" unicode="&#x215b;" horiz-adv-x="834" 
d="M21 561l87 107h81v-401h-82v310l-42 -53zM629 632l-475 -644l-64 48l475 644zM775.5 173q21.5 -26 21.5 -61q0 -53 -43.5 -86t-112.5 -33q-71 0 -114.5 33t-43.5 86q0 35 21.5 61t60.5 37q-33 10 -52 33.5t-19 55.5q0 49 40 79t107 30q66 0 106 -30t40 -79
q0 -32 -19 -55.5t-53 -33.5q39 -11 60.5 -37zM593.5 327.5q-18.5 -14.5 -18.5 -37.5t18 -37.5t48 -14.5q29 0 47 14.5t18 37.5t-18 37.5t-47 14.5t-47.5 -14.5zM693 75q20 16 20 43q0 26 -20 42t-52 16q-33 0 -53 -16t-20 -42q0 -27 20 -43t53 -16q32 0 52 16z" />
    <glyph glyph-name="threeeighths" unicode="&#x215c;" horiz-adv-x="954" 
d="M326 442q19 -26 19 -60q0 -54 -42.5 -88t-108.5 -34q-72 0 -114 34t-44 96h85q3 -30 22 -46.5t51 -16.5q29 0 47.5 16t18.5 43q0 26 -18.5 40.5t-50.5 14.5h-34v66h33q28 0 45 13.5t17 36.5t-17 37.5t-44 14.5q-28 0 -46 -16.5t-20 -41.5h-84q4 58 44.5 91t105.5 33
q64 0 104 -31t40 -81q0 -29 -16.5 -51.5t-45.5 -33.5q34 -10 53 -36zM752 632l-475 -644l-64 48l475 644zM898.5 173q21.5 -26 21.5 -61q0 -53 -43.5 -86t-112.5 -33q-71 0 -114.5 33t-43.5 86q0 35 21.5 61t60.5 37q-33 10 -52 33.5t-19 55.5q0 49 40 79t107 30
q66 0 106 -30t40 -79q0 -32 -19 -55.5t-53 -33.5q39 -11 60.5 -37zM716.5 327.5q-18.5 -14.5 -18.5 -37.5t18 -37.5t48 -14.5q29 0 47 14.5t18 37.5t-18 37.5t-47 14.5t-47.5 -14.5zM816 75q20 16 20 43q0 26 -20 42t-52 16q-33 0 -53 -16t-20 -42q0 -27 20 -43t53 -16
q32 0 52 16z" />
    <glyph glyph-name="fiveeighths" unicode="&#x215d;" horiz-adv-x="948" 
d="M306 495.5q36 -37.5 36 -95.5q0 -62 -43 -101t-111 -39q-69 0 -108.5 32.5t-44.5 91.5h85q4 -28 22 -42.5t46 -14.5q30 0 49.5 20t19.5 52q0 33 -19 53t-49 20q-22 0 -38 -9.5t-24 -26.5h-80l3 232h269v-67h-194l-2 -104q33 36 91 36q56 0 92 -37.5zM746 632l-475 -644
l-64 48l475 644zM892.5 173q21.5 -26 21.5 -61q0 -53 -43.5 -86t-112.5 -33q-71 0 -114.5 33t-43.5 86q0 35 21.5 61t60.5 37q-33 10 -52 33.5t-19 55.5q0 49 40 79t107 30q66 0 106 -30t40 -79q0 -32 -19 -55.5t-53 -33.5q39 -11 60.5 -37zM710.5 327.5
q-18.5 -14.5 -18.5 -37.5t18 -37.5t48 -14.5q29 0 47 14.5t18 37.5t-18 37.5t-47 14.5t-47.5 -14.5zM810 75q20 16 20 43q0 26 -20 42t-52 16q-33 0 -53 -16t-20 -42q0 -27 20 -43t53 -16q32 0 52 16z" />
    <glyph glyph-name="seveneighths" unicode="&#x215e;" horiz-adv-x="869" 
d="M23 668h289v-72q-128 -107 -141 -329h-94q17 217 156 331h-210v70zM667 632l-475 -644l-64 48l475 644zM813.5 173q21.5 -26 21.5 -61q0 -53 -43.5 -86t-112.5 -33q-71 0 -114.5 33t-43.5 86q0 35 21.5 61t60.5 37q-33 10 -52 33.5t-19 55.5q0 49 40 79t107 30
q66 0 106 -30t40 -79q0 -32 -19 -55.5t-53 -33.5q39 -11 60.5 -37zM631.5 327.5q-18.5 -14.5 -18.5 -37.5t18 -37.5t48 -14.5q29 0 47 14.5t18 37.5t-18 37.5t-47 14.5t-47.5 -14.5zM731 75q20 16 20 43q0 26 -20 42t-52 16q-33 0 -53 -16t-20 -42q0 -27 20 -43t53 -16
q32 0 52 16z" />
    <glyph glyph-name="arrowleft" unicode="&#x2190;" horiz-adv-x="831" 
d="M214 396h561v-93h-560l167 -167l-58 -60l-273 274l273 274l59 -60z" />
    <glyph glyph-name="arrowup" unicode="&#x2191;" horiz-adv-x="596" 
d="M298 724l274 -273l-60 -58l-168 168v-561h-93v560l-167 -167l-60 58z" />
    <glyph glyph-name="arrowright" unicode="&#x2192;" horiz-adv-x="830" 
d="M449 564l58 60l273 -273l-273 -275l-59 60l167 168h-559v93h560z" />
    <glyph glyph-name="arrowdown" unicode="&#x2193;" horiz-adv-x="597" 
d="M346 140l166 167l61 -58l-274 -273l-274 273l60 58l168 -168v561h93v-560z" />
    <glyph glyph-name="arrowboth" unicode="&#x2194;" horiz-adv-x="985" 
d="M372 143l-59 -60l-264 267l264 267l59 -60l-163 -163h567l-163 163l59 60l265 -267l-265 -267l-59 60l163 163h-567z" />
    <glyph glyph-name="arrowupdn" unicode="&#x2195;" horiz-adv-x="534" 
d="M499 208l-233 -232l-232 233l58 57l130 -132v432l-130 -132l-58 57l232 233l233 -232l-57 -58l-131 130v-428l131 130z" />
    <glyph glyph-name="uni2196" unicode="&#x2196;" horiz-adv-x="624" 
d="M202 539l396 -396l-66 -66l-395 395v-235l-84 -2l1 387l387 1l-2 -84h-237z" />
    <glyph glyph-name="uni2197" unicode="&#x2197;" horiz-adv-x="626" 
d="M572 622l1 -387l-84 1v238l-397 -397l-65 66l395 396h-235l-2 83h387z" />
    <glyph glyph-name="uni2198" unicode="&#x2198;" horiz-adv-x="625" 
d="M488 228v235l84 2l-1 -387l-387 -1l2 84h237l-396 396l66 66z" />
    <glyph glyph-name="uni2199" unicode="&#x2199;" horiz-adv-x="626" 
d="M599 557l-395 -396h235l2 -83h-386l-2 387l84 -1v-238l397 397z" />
    <glyph glyph-name="partialdiff" unicode="&#x2202;" horiz-adv-x="573" 
d="M201 719q152 -72 239.5 -184.5t87.5 -266.5q0 -85 -29.5 -148t-84 -97.5t-128.5 -34.5q-71 0 -127 32t-87 89t-31 129q0 71 28 127.5t79 88.5t116 32q77 0 125 -48q-34 60 -96.5 109t-156.5 96zM380.5 125q35.5 43 35.5 113q0 71 -35.5 114t-93.5 43q-59 0 -95 -43
t-36 -114t35.5 -113.5t94.5 -42.5t94.5 43z" />
    <glyph glyph-name="uni2206" unicode="&#x2206;" horiz-adv-x="661" 
d="M634 0h-607v101l238 599h131l238 -599v-101zM142 100h377l-156 401q-2 7 -8 21q-12 33 -24 72q-14 -45 -33 -93z" />
    <glyph glyph-name="product" unicode="&#x220f;" horiz-adv-x="687" 
d="M654 700v-100h-91v-716h-112v716h-216v-716h-111v716h-91v100h621z" />
    <glyph glyph-name="summation" unicode="&#x2211;" horiz-adv-x="542" 
d="M40 700h466v-100h-339l227 -280v-56l-227 -280h339v-100h-466v110l242 298l-242 298v110z" />
    <glyph glyph-name="minus" unicode="&#x2212;" horiz-adv-x="576" 
d="M521 253h-466v92h466v-92z" />
    <glyph glyph-name="uni2215" unicode="&#x2215;" horiz-adv-x="532" 
d="M517 700l-415 -805l-88 44l416 805z" />
    <glyph glyph-name="uni2219" unicode="&#x2219;" horiz-adv-x="344" 
d="M234 283h-125v136h125v-136z" />
    <glyph glyph-name="radical" unicode="&#x221a;" horiz-adv-x="722" 
d="M304 0l-130 334l-98 -43l-32 83l197 86l83 -222q19 -51 38 -108q15 51 36 108l195 545h108l-280 -783h-117z" />
    <glyph glyph-name="infinity" unicode="&#x221e;" horiz-adv-x="861" 
d="M715.5 456.5q44.5 -23.5 69.5 -64.5t25 -92q0 -52 -25 -93.5t-69 -65t-100 -23.5q-63 0 -106.5 26.5t-79.5 76.5q-35 -49 -78.5 -76t-107.5 -27q-55 0 -99 23.5t-69 65t-25 93.5q0 51 25 92t69 64.5t99 23.5q64 0 107.5 -27t78.5 -76q36 50 79.5 76.5t106.5 26.5
q55 0 99.5 -23.5zM319.5 228.5q30.5 25.5 59.5 70.5q-29 45 -59.5 70.5t-74.5 25.5q-43 0 -71 -27t-28 -69t28 -69t71 -27q44 0 74.5 25.5zM687 230q28 27 28 69t-28 69t-71 27t-73.5 -25t-60.5 -71q30 -46 60.5 -71t73.5 -25t71 27z" />
    <glyph glyph-name="integral" unicode="&#x222b;" horiz-adv-x="368" 
d="M26 -200v89h43q60 0 60 60v621q0 64 34 97t99 33h80v-89h-43q-60 0 -60 -60v-621q0 -64 -34 -97t-99 -33h-80z" />
    <glyph glyph-name="approxequal" unicode="&#x2248;" horiz-adv-x="641" 
d="M376.5 337.5q-29.5 11.5 -68.5 32.5q-30 16 -49.5 24t-38.5 8q-27 0 -42 -18t-16 -49h-97q0 76 36.5 117t104.5 41q35 0 64 -11t68 -32q31 -17 50 -25t39 -8q27 0 42 17.5t16 49.5h97q0 -77 -36 -117.5t-104 -40.5q-36 0 -65.5 11.5zM376.5 117.5q-29.5 11.5 -68.5 32.5
q-30 16 -49.5 24t-38.5 8q-27 0 -42 -18t-16 -49h-97q0 76 36.5 117t104.5 41q35 0 64 -11t68 -32q31 -17 50 -25t39 -8q27 0 42 17.5t16 49.5h97q0 -77 -36 -117.5t-104 -40.5q-36 0 -65.5 11.5z" />
    <glyph glyph-name="notequal" unicode="&#x2260;" horiz-adv-x="587" 
d="M533 459v-92h-160l-59 -136h219v-91h-257l-49 -114h-93l49 114h-124v91h163l58 136h-221v92h261l48 113h92l-48 -113h121z" />
    <glyph glyph-name="lessequal" unicode="&#x2264;" horiz-adv-x="577" 
d="M509 148l-454 186v107l454 186v-100l-267 -106q-20 -9 -91 -34q71 -24 91 -33l267 -106v-100zM509 10h-454v91h454v-91z" />
    <glyph glyph-name="greaterequal" unicode="&#x2265;" horiz-adv-x="577" 
d="M68 148v100l267 106q20 9 91 33q-71 25 -91 34l-267 106v100l454 -186v-107zM522 10h-454v91h454v-91z" />
    <glyph glyph-name="uni2460" unicode="&#x2460;" horiz-adv-x="935" 
d="M676.5 703.5q94.5 -54.5 149.5 -148t55 -205.5t-55 -205.5t-149.5 -148t-208.5 -54.5t-209 54.5t-150 148t-55 205.5t55 205.5t150 148t209 54.5t208.5 -54.5zM633.5 66.5q74.5 43.5 117.5 118t43 165.5t-43 165.5t-118 118t-165 43.5t-165.5 -43.5t-119 -118.5
t-43.5 -165t43.5 -165t119 -118.5t165.5 -43.5q91 0 165.5 43.5zM379 413l-48 41l97 117h89v-441h-90v342z" />
    <glyph glyph-name="uni2461" unicode="&#x2461;" horiz-adv-x="935" 
d="M676.5 703.5q94.5 -54.5 149.5 -148t55 -205.5t-55 -205.5t-149.5 -148t-208.5 -54.5t-209 54.5t-150 148t-55 205.5t55 205.5t150 148t209 54.5t208.5 -54.5zM633.5 66.5q74.5 43.5 117.5 118t43 165.5t-43 165.5t-118 118t-165 43.5t-165.5 -43.5t-119 -118.5
t-43.5 -165t43.5 -165t119 -118.5t165.5 -43.5q91 0 165.5 43.5zM459 248q-31 -22 -47 -44h209v-74h-327q2 56 29.5 99t84.5 83l51 37q65 46 65 94q0 27 -18 44.5t-46 17.5q-31 0 -49.5 -20t-20.5 -51h-92q2 67 46.5 106t115.5 39t114.5 -37.5t43.5 -98.5q0 -41 -26 -79
t-82 -79z" />
    <glyph glyph-name="uni2462" unicode="&#x2462;" horiz-adv-x="934" 
d="M676.5 703.5q94.5 -54.5 149 -148t54.5 -205.5t-54.5 -205.5t-149 -148t-208.5 -54.5t-209 54.5t-150 148t-55 205.5t55 205.5t150 148t209 54.5t208.5 -54.5zM633.5 66.5q74.5 43.5 117.5 118t43 165.5t-43 165.5t-118 118t-165 43.5t-165.5 -43.5t-119 -118.5
t-43.5 -165t43.5 -165t119 -118.5t165.5 -43.5q91 0 165.5 43.5zM613 322q21 -28 21 -65q0 -59 -47 -97t-120 -38q-79 0 -125.5 38t-48.5 106h94q3 -34 24 -52t56 -18q32 0 52.5 17.5t20.5 47.5q0 28 -20.5 44.5t-54.5 16.5h-39v73h37q31 0 49.5 14.5t18.5 39.5t-19 40.5
t-48 15.5q-30 0 -50 -17t-23 -45h-93q5 63 50 99.5t116 36.5t114.5 -34.5t43.5 -89.5q0 -31 -18 -56.5t-48 -37.5q36 -11 57 -39z" />
    <glyph glyph-name="uni2463" unicode="&#x2463;" horiz-adv-x="935" 
d="M676.5 703.5q94.5 -54.5 149.5 -148t55 -205.5t-55 -205.5t-149.5 -148t-208.5 -54.5t-209 54.5t-150 148t-55 205.5t55 205.5t150 148t209 54.5t208.5 -54.5zM633.5 66.5q74.5 43.5 117.5 118t43 165.5t-43 165.5t-118 118t-165 43.5t-165.5 -43.5t-119 -118.5
t-43.5 -165t43.5 -165t119 -118.5t165.5 -43.5q91 0 165.5 43.5zM445 571h119v-253h62v-72h-62v-116h-87v116h-218v77zM477 318v177l-22 -32l-88 -115q-10 -14 -24 -30h134z" />
    <glyph glyph-name="uni2464" unicode="&#x2464;" horiz-adv-x="934" 
d="M676.5 703.5q94.5 -54.5 149 -148t54.5 -205.5t-54.5 -205.5t-149 -148t-208.5 -54.5t-209 54.5t-150 148t-55 205.5t55 205.5t150 148t209 54.5t208.5 -54.5zM633.5 66.5q74.5 43.5 117.5 118t43 165.5t-43 165.5t-118 118t-165 43.5t-165.5 -43.5t-119 -118.5
t-43.5 -165t43.5 -165t119 -118.5t165.5 -43.5q91 0 165.5 43.5zM597.5 382q39.5 -41 39.5 -105q0 -69 -47.5 -112t-121.5 -43q-75 0 -119.5 36t-48.5 101h93q4 -29 23.5 -46t51.5 -17q34 0 54.5 22t20.5 57q0 36 -20.5 58t-53.5 22q-22 0 -40.5 -10.5t-27.5 -28.5h-87
l2 255h296v-74h-213l-2 -114q35 40 99 40q62 0 101.5 -41z" />
    <glyph glyph-name="uni2465" unicode="&#x2465;" horiz-adv-x="935" 
d="M676.5 703.5q94.5 -54.5 149.5 -148t55 -205.5t-55 -205.5t-149.5 -148t-208.5 -54.5t-209 54.5t-150 148t-55 205.5t55 205.5t150 148t209 54.5t208.5 -54.5zM633.5 66.5q74.5 43.5 117.5 118t43 165.5t-43 165.5t-118 118t-165 43.5t-165.5 -43.5t-119 -118.5
t-43.5 -165t43.5 -165t119 -118.5t165.5 -43.5q91 0 165.5 43.5zM595 375.5q41 -40.5 41 -103.5q0 -43 -21.5 -77t-60 -53.5t-85.5 -19.5q-87 0 -135 60t-48 168t49 168.5t135 60.5q67 0 109.5 -34t48.5 -93h-93q-4 26 -22 39.5t-45 13.5q-42 0 -66.5 -38t-25.5 -110
q17 28 46.5 43.5t68.5 15.5q63 0 104 -40.5zM520.5 217q21.5 22 21.5 54q0 33 -21.5 54.5t-55.5 21.5q-33 0 -55 -21.5t-22 -54.5q0 -32 22 -54t55 -22q34 0 55.5 22z" />
    <glyph glyph-name="uni2466" unicode="&#x2466;" horiz-adv-x="934" 
d="M676.5 703.5q94.5 -54.5 149 -148t54.5 -205.5t-54.5 -205.5t-149 -148t-208.5 -54.5t-209 54.5t-150 148t-55 205.5t55 205.5t150 148t209 54.5t208.5 -54.5zM633.5 66.5q74.5 43.5 117.5 118t43 165.5t-43 165.5t-118 118t-165 43.5t-165.5 -43.5t-119 -118.5
t-43.5 -165t43.5 -165t119 -118.5t165.5 -43.5q91 0 165.5 43.5zM311 494v77h318v-80q-71 -59 -109 -148t-47 -213h-103q18 235 171 364h-230z" />
    <glyph glyph-name="uni2467" unicode="&#x2467;" horiz-adv-x="935" 
d="M676.5 703.5q94.5 -54.5 149.5 -148t55 -205.5t-55 -205.5t-149.5 -148t-208.5 -54.5t-209 54.5t-150 148t-55 205.5t55 205.5t150 148t209 54.5t208.5 -54.5zM633.5 66.5q74.5 43.5 117.5 118t43 165.5t-43 165.5t-118 118t-165 43.5t-165.5 -43.5t-119 -118.5
t-43.5 -165t43.5 -165t119 -118.5t165.5 -43.5q91 0 165.5 43.5zM616.5 318.5q23.5 -28.5 23.5 -66.5q0 -58 -48 -94.5t-125 -36.5q-76 0 -124.5 36.5t-48.5 94.5q0 37 23.5 66t66.5 42q-36 11 -57.5 37.5t-21.5 60.5q0 54 44.5 87t117.5 33t117.5 -33t44.5 -87
q0 -35 -21.5 -61t-57.5 -37q43 -13 66.5 -41.5zM415.5 490q-19.5 -16 -19.5 -42t19.5 -42t51.5 -16t51.5 16t19.5 42t-20 42t-51 16q-32 0 -51.5 -16zM525 211q22 18 22 48q0 28 -22 46t-58 18q-35 0 -57.5 -18t-22.5 -46q0 -30 22 -48t58 -18t58 18z" />
    <glyph glyph-name="uni2468" unicode="&#x2468;" horiz-adv-x="935" 
d="M676 703.5q95 -54.5 150 -148t55 -205.5t-55 -205.5t-150 -148t-209 -54.5t-208.5 54.5t-149.5 148t-55 205.5t55 205.5t149.5 148t208.5 54.5t209 -54.5zM632 67q75 43 118 118t43 165t-43 165t-118 118t-165 43t-164.5 -43t-117.5 -117.5t-43 -165.5q0 -90 43 -164.5
t117.5 -118t164.5 -43.5t165 43zM599.5 518.5q48.5 -59.5 48.5 -168.5q0 -108 -48.5 -168.5t-135.5 -60.5q-68 0 -110.5 34.5t-48.5 92.5h94q5 -25 22 -38.5t44 -13.5q42 0 66 37t25 108q-17 -27 -46.5 -42t-67.5 -15q-63 0 -104 40.5t-41 103.5q0 43 21.5 77t60 53.5
t85.5 19.5q87 0 135.5 -59.5zM523.5 375q21.5 21 21.5 54q0 32 -22 53.5t-54 21.5q-34 0 -55.5 -21.5t-21.5 -53.5q0 -33 21.5 -54t55.5 -21q33 0 54.5 21z" />
    <glyph glyph-name="uni24EA" unicode="&#x24ea;" horiz-adv-x="935" 
d="M259 -3.5q-95 54.5 -150 148t-55 205.5t55 205.5t150 148t209 54.5t208.5 -54.5t149.5 -148t55 -205.5t-55 -205.5t-149.5 -148t-208.5 -54.5t-209 54.5zM633.5 66.5q74.5 43.5 117.5 118t43 165.5t-43 165.5t-118 118t-165 43.5t-165.5 -43.5t-119 -118.5t-43.5 -165
t43.5 -165t119 -118.5t165.5 -43.5q91 0 165.5 43.5zM335 182q-47 60 -47 168q0 109 47 169t132 60q84 0 131 -60t47 -169q0 -108 -47 -168t-131 -60q-85 0 -132 60zM530 237q22 39 22 113t-22 113.5t-63 39.5q-42 0 -63.5 -39.5t-21.5 -113.5t21.5 -113t63.5 -39
q41 0 63 39z" />
    <glyph glyph-name="uni24FF" unicode="&#x24ff;" horiz-adv-x="935" 
d="M259 -3.5q-95 54.5 -150 148t-55 205.5t55 205.5t150 148t209 54.5t208.5 -54.5t149.5 -148t55 -205.5t-55 -205.5t-149.5 -148t-208.5 -54.5t-209 54.5zM598 182q47 60 47 168q0 109 -47 169t-131 60q-85 0 -132 -60t-47 -169q0 -108 47 -168t132 -60q84 0 131 60z
M403.5 237q-21.5 39 -21.5 113t21.5 113.5t63.5 39.5q41 0 63 -39.5t22 -113.5t-22 -113t-63 -39q-42 0 -63.5 39z" />
    <glyph glyph-name="filledbox" unicode="&#x25a0;" horiz-adv-x="873" 
d="M787 0h-700v700h700v-700z" />
    <glyph glyph-name="uni25A1" unicode="&#x25a1;" horiz-adv-x="873" 
d="M787 0h-700v700h700v-700zM186 605v-510h502v510h-502z" />
    <glyph glyph-name="triagup" unicode="&#x25b2;" horiz-adv-x="898" 
d="M449 752l436 -754h-872z" />
    <glyph glyph-name="uni25B3" unicode="&#x25b3;" horiz-adv-x="898" 
d="M885 -2h-872l436 754zM449 556l-268 -461h536z" />
    <glyph glyph-name="uni25B6" unicode="&#x25b6;" horiz-adv-x="838" 
d="M795 350l-697 -404v807z" />
    <glyph glyph-name="uni25B7" unicode="&#x25b7;" horiz-adv-x="840" 
d="M796 350l-698 -404v807zM195 586v-472l408 236z" />
    <glyph glyph-name="triagdn" unicode="&#x25bc;" horiz-adv-x="900" 
d="M886 700l-436 -754l-436 754h872z" />
    <glyph glyph-name="uni25BD" unicode="&#x25bd;" horiz-adv-x="900" 
d="M886 700l-436 -754l-436 754h872zM182 603l268 -461l268 461h-536z" />
    <glyph glyph-name="uni25C0" unicode="&#x25c0;" horiz-adv-x="838" 
d="M740 753v-807l-697 404z" />
    <glyph glyph-name="uni25C1" unicode="&#x25c1;" horiz-adv-x="840" 
d="M742 753v-807l-698 404zM237 350l409 -237v473z" />
    <glyph glyph-name="lozenge" unicode="&#x25ca;" horiz-adv-x="613" 
d="M363 0h-112l-204 350l204 350h112l203 -350zM343 162l108 188l-108 188q-13 21 -36 69q-15 -31 -36 -68l-108 -189l108 -189q21 -37 36 -68q23 48 36 69z" />
    <glyph glyph-name="circle" unicode="&#x25cb;" horiz-adv-x="864" 
d="M623.5 23q86.5 50 136 136.5t49.5 191.5q0 104 -49.5 190.5t-136 136t-190.5 49.5q-105 0 -191.5 -49.5t-136.5 -136t-50 -190.5q0 -105 50 -191.5t136.5 -136.5t191.5 -50q104 0 190.5 50zM294 108q-63 37 -99.5 101t-36.5 142q0 77 36.5 141t99.5 101t139 37
q75 0 137.5 -37t99 -101t36.5 -141q0 -78 -36 -142t-99 -101t-138 -37q-76 0 -139 37z" />
    <glyph glyph-name="uni25CF" unicode="&#x25cf;" horiz-adv-x="862" 
d="M242.5 24q-86.5 51 -137.5 137.5t-51 189.5q0 102 51 188.5t137.5 137t189.5 50.5q102 0 188.5 -50.5t137 -137t50.5 -188.5q0 -103 -50.5 -189.5t-137 -137.5t-188.5 -51q-103 0 -189.5 51z" />
    <glyph glyph-name="uni2661" unicode="&#x2661;" horiz-adv-x="857" 
d="M356 19q-160 135 -237.5 252.5t-77.5 224.5q0 64 26 114t72.5 78.5t105.5 28.5q66 0 113 -32.5t70 -84.5q23 52 70 84.5t113 32.5q59 0 105.5 -28.5t72.5 -78.5t26 -114q0 -107 -77.5 -224.5t-237.5 -252.5l-72 -61zM650 307.5q71 100.5 71 188.5q0 59 -31 94t-83 35
q-98 0 -125 -126h-107q-25 126 -126 126q-52 0 -82.5 -35t-30.5 -94q0 -87 71.5 -188.5t220.5 -224.5q151 124 222 224.5z" />
    <glyph glyph-name="heart" unicode="&#x2665;" horiz-adv-x="857" 
d="M356 19q-160 135 -237.5 252.5t-77.5 224.5q0 65 26 115t72.5 78t105.5 28q66 0 113 -32.5t70 -84.5q23 52 70 84.5t113 32.5q60 0 106.5 -28t72 -78t25.5 -115q0 -107 -77.5 -224.5t-237.5 -252.5l-72 -61z" />
    <glyph glyph-name="uni2713" unicode="&#x2713;" horiz-adv-x="811" 
d="M790 656l-470 -668l-277 357l75 62l199 -260l394 565z" />
    <glyph glyph-name="uni2715" unicode="&#x2715;" horiz-adv-x="761" 
d="M380 282l-282 -282l-68 66l283 283l-283 284l68 67l282 -282l283 282l67 -67l-282 -284l282 -283l-68 -66z" />
    <glyph glyph-name="uni2776" unicode="&#x2776;" horiz-adv-x="935" 
d="M259 -3.5q-95 54.5 -150 148t-55 205.5t55 205.5t150 148t209 54.5t208.5 -54.5t149.5 -148t55 -205.5t-55 -205.5t-149.5 -148t-208.5 -54.5t-209 54.5zM427 471v-341h90v441h-89l-97 -117l48 -41z" />
    <glyph glyph-name="uni2777" unicode="&#x2777;" horiz-adv-x="935" 
d="M259 -3.5q-95 54.5 -150 148t-55 205.5t55 205.5t150 148t209 54.5t208.5 -54.5t149.5 -148t55 -205.5t-55 -205.5t-149.5 -148t-208.5 -54.5t-209 54.5zM621 130v74h-209q11 18 47 44l51 37q56 41 82 79t26 79q0 61 -43.5 98.5t-114.5 37.5t-115.5 -39t-46.5 -106h92
q2 31 20.5 51t49.5 20q28 0 46 -17.5t18 -44.5q0 -48 -65 -94l-51 -37q-57 -40 -84.5 -83t-29.5 -99h327z" />
    <glyph glyph-name="uni2778" unicode="&#x2778;" horiz-adv-x="934" 
d="M259 -3.5q-95 54.5 -150 148t-55 205.5t55 205.5t150 148t209 54.5t208.5 -54.5t149 -148t54.5 -205.5t-54.5 -205.5t-149 -148t-208.5 -54.5t-209 54.5zM587 160q47 38 47 97q0 37 -21 64.5t-58 39.5q31 12 49 37t18 57q0 55 -43.5 89.5t-114.5 34.5t-116 -36.5
t-50 -99.5h93q3 28 23 45t50 17q29 0 48 -15.5t19 -40.5t-18.5 -39.5t-49.5 -14.5h-37v-73h39q34 0 54.5 -16.5t20.5 -44.5q0 -30 -20.5 -47.5t-52.5 -17.5q-35 0 -56 18t-24 52h-94q2 -68 48.5 -106t125.5 -38q73 0 120 38z" />
    <glyph glyph-name="uni2779" unicode="&#x2779;" horiz-adv-x="935" 
d="M259 -3.5q-95 54.5 -150 148t-55 205.5t55 205.5t150 148t209 54.5t208.5 -54.5t149.5 -148t55 -205.5t-55 -205.5t-149.5 -148t-208.5 -54.5t-209 54.5zM477 246v-116h87v116h62v72h-62v253h-119l-186 -248v-77h218zM343 318q14 16 24 30l88 115l22 32v-177h-134z" />
    <glyph glyph-name="uni277A" unicode="&#x277a;" horiz-adv-x="934" 
d="M259 -3.5q-95 54.5 -150 148t-55 205.5t55 205.5t150 148t209 54.5t208.5 -54.5t149 -148t54.5 -205.5t-54.5 -205.5t-149 -148t-208.5 -54.5t-209 54.5zM589.5 165q47.5 43 47.5 112q0 64 -39.5 105t-101.5 41q-64 0 -99 -40l2 114h213v74h-296l-2 -255h87
q9 18 27.5 28.5t40.5 10.5q33 0 53.5 -22t20.5 -58q0 -35 -20.5 -57t-54.5 -22q-32 0 -51.5 17t-23.5 46h-93q4 -65 48.5 -101t119.5 -36q74 0 121.5 43z" />
    <glyph glyph-name="uni277B" unicode="&#x277b;" horiz-adv-x="935" 
d="M259 -3.5q-95 54.5 -150 148t-55 205.5t55 205.5t150 148t209 54.5t208.5 -54.5t149.5 -148t55 -205.5t-55 -205.5t-149.5 -148t-208.5 -54.5t-209 54.5zM554.5 141.5q38.5 19.5 60 53.5t21.5 77q0 63 -41 103.5t-104 40.5q-39 0 -69 -15.5t-46 -43.5q1 73 25.5 110.5
t66.5 37.5q27 0 45 -13.5t22 -39.5h93q-6 59 -48.5 93t-109.5 34q-86 0 -135 -60.5t-49 -168.5t48 -168t135 -60q47 0 85.5 19.5zM410 217q-22 22 -22 54q0 33 22 54.5t55 21.5q34 0 55.5 -21.5t21.5 -54.5q0 -32 -21.5 -54t-55.5 -22q-33 0 -55 22z" />
    <glyph glyph-name="uni277C" unicode="&#x277c;" horiz-adv-x="934" 
d="M259 -3.5q-95 54.5 -150 148t-55 205.5t55 205.5t150 148t209 54.5t208.5 -54.5t149 -148t54.5 -205.5t-54.5 -205.5t-149 -148t-208.5 -54.5t-209 54.5zM473 130q9 124 47 213t109 148v80h-318v-77h230q-151 -126 -171 -364h103z" />
    <glyph glyph-name="uni277D" unicode="&#x277d;" horiz-adv-x="935" 
d="M259 -3.5q-95 54.5 -150 148t-55 205.5t55 205.5t150 148t209 54.5t208.5 -54.5t149.5 -148t55 -205.5t-55 -205.5t-149.5 -148t-208.5 -54.5t-209 54.5zM592 157.5q48 36.5 48 94.5q0 38 -23.5 66.5t-65.5 41.5q35 11 56.5 37t21.5 61q0 54 -44.5 87t-117.5 33
t-117.5 -33t-44.5 -87q0 -35 21 -61t57 -37q-42 -13 -65.5 -42t-23.5 -66q0 -58 48.5 -94.5t124.5 -36.5q77 0 125 36.5zM415.5 406q-19.5 16 -19.5 42t19.5 42t51.5 16q31 0 51 -16t20 -42t-19.5 -42t-51.5 -16t-51.5 16zM409 211q-22 18 -22 48q0 28 22.5 46t57.5 18
q36 0 58 -18t22 -46q0 -30 -22 -48t-58 -18t-58 18z" />
    <glyph glyph-name="uni277E" unicode="&#x277e;" horiz-adv-x="935" 
d="M258.5 -3.5q-94.5 54.5 -149.5 148t-55 205.5t55 205.5t149.5 148t208.5 54.5t209 -54.5t150 -148t55 -205.5t-55 -205.5t-150 -148t-209 -54.5t-208.5 54.5zM600 181.5q49 60.5 49 168.5t-48 168t-135 60q-47 0 -85.5 -19.5t-60 -53.5t-21.5 -77q0 -63 41 -103.5
t104 -40.5q39 0 69 15.5t46 43.5q-1 -73 -25.5 -110.5t-67.5 -37.5q-27 0 -44.5 13.5t-21.5 39.5h-93q6 -59 48.5 -93t109.5 -34q86 0 135 60.5zM414.5 374.5q-21.5 21.5 -21.5 54.5t22 54.5t55 21.5t55 -22t22 -54q0 -33 -22 -54.5t-55 -21.5q-34 0 -55.5 21.5z" />
    <glyph glyph-name="uni2940" unicode="&#x2940;" horiz-adv-x="1211" 
d="M466 446l58 -58l-240 -239l-241 239l59 58l137 -140v18q0 114 47.5 202t131.5 137t190 49q52 0 101.5 -14t90.5 -40v-105q-81 70 -192 70q-82 0 -145.5 -37t-99.5 -105t-36 -157v-20zM1168 312l-59 -58l-137 140v-18q0 -114 -47.5 -202t-132 -137t-190.5 -49
q-51 0 -100.5 14t-91.5 39v105q85 -69 192 -69q81 0 145 37.5t100 105t36 156.5v19l-138 -141l-58 58l241 238z" />
    <glyph glyph-name="uni2941" unicode="&#x2941;" horiz-adv-x="1211" 
d="M1109 446l59 -58l-240 -239l-240 239l57 58l139 -142v20q0 89 -36 157t-99.5 105t-145.5 37q-111 0 -192 -70v105q42 26 91 40t101 14q106 0 190 -49t131.5 -137t47.5 -202v-18zM328 376q0 -89 36 -156.5t100 -105t145 -37.5q108 0 193 69v-105q-90 -53 -193 -53
q-106 0 -190 49t-131.5 137t-47.5 202v18l-138 -140l-59 58l241 238l240 -238l-57 -58l-139 142v-20z" />
    <glyph glyph-name="uniF000" unicode="&#xf000;" horiz-adv-x="1370" 
d="M1325 0h-1266l211 109l-216 124l272 1l-176 231l266 -103l-50 249l191 -201l10 304l143 -302l87 267l69 -267l173 251l-58 -334l199 121l-109 -227l254 -193v-30zM1110.5 72q11.5 12 11.5 28q0 17 -11.5 28.5t-28.5 11.5q-16 0 -28 -11.5t-12 -28.5q0 -16 12 -28t28 -12
q17 0 28.5 12zM1074.5 83.5q-6.5 6.5 -6.5 16.5t6.5 16.5t16.5 6.5t16.5 -6.5t6.5 -16.5t-6.5 -16.5t-16.5 -6.5t-16.5 6.5z" />
    <glyph glyph-name="uniF8FF" unicode="&#xf8ff;" horiz-adv-x="764" 
d="M92.5 6.5q-6.5 6.5 -6.5 15.5v595q0 7 4.5 13.5t11.5 8.5l270 78l10 2l10 -2l270 -78q7 -2 11.5 -8.5t4.5 -13.5v-595q0 -9 -6.5 -15.5t-15.5 -6.5l-7 1l-267 77l-267 -77l-7 -1q-9 0 -15.5 6.5zM360 669l-230 -67q4 -62 35 -114t82.5 -84.5t112.5 -37.5v303zM404 366
q61 5 112.5 37.5t82.5 84.5t35 114l-230 67v-303zM129 51l231 67v204q-73 6 -134 43.5t-97 97.5v-412zM635 463q-37 -60 -97.5 -97.5t-133.5 -43.5v-204l231 -67v412z" />
    <glyph glyph-name="fi" unicode="&#xfb01;" horiz-adv-x="587" 
d="M269 611q-60 0 -60 -60v-79h113v-87h-113v-385h-110v385h-68v87h68v98q0 64 34 97t99 33h90v-89h-53zM517 0h-109v472h109v-472zM520 550h-116v124h116v-124z" />
    <glyph glyph-name="fl" unicode="&#xfb02;" horiz-adv-x="587" 
d="M269 611q-60 0 -60 -60v-79h113v-87h-113v-385h-110v385h-68v87h68v98q0 64 34 97t99 33h90v-89h-53zM517 0h-109v700h109v-700z" />
    <glyph glyph-name="Q.ss01" horiz-adv-x="794" 
d="M717 190q-31 -72 -88 -121l50 -62l-78 -62l-57 72q-69 -29 -148 -29q-102 0 -181.5 45.5t-124 127.5t-44.5 189q0 106 45 188.5t124.5 128t180.5 45.5q102 0 182 -45.5t125 -128t45 -188.5q0 -88 -31 -160zM476 101l-67 83l77 63l73 -91q34 35 52 84.5t18 109.5
q0 76 -29.5 135.5t-82 93t-121.5 33.5q-68 0 -120.5 -33t-81.5 -92.5t-29 -136.5t29 -136.5t81.5 -92.5t120.5 -33q39 0 80 13z" />
    <glyph glyph-name="R.ss02" horiz-adv-x="658" 
d="M496 0l-186 299h-109v-299h-115v700h287q69 0 121 -25t80 -70.5t28 -105.5q0 -73 -44.5 -123.5t-128.5 -66.5l197 -309h-130zM201 602v-205h158q59 0 91.5 27t32.5 75q0 49 -32.5 76t-91.5 27h-158z" />
    <glyph glyph-name="Racute.ss02" horiz-adv-x="658" 
d="M496 0l-186 299h-109v-299h-115v700h287q69 0 121 -25t80 -70.5t28 -105.5q0 -73 -44.5 -123.5t-128.5 -66.5l197 -309h-130zM201 602v-205h158q59 0 91.5 27t32.5 75q0 49 -32.5 76t-91.5 27h-158zM359 774h-86l63 132h119z" />
    <glyph glyph-name="Rcaron.ss02" horiz-adv-x="658" 
d="M496 0l-186 299h-109v-299h-115v700h287q69 0 121 -25t80 -70.5t28 -105.5q0 -73 -44.5 -123.5t-128.5 -66.5l197 -309h-130zM201 602v-205h158q59 0 91.5 27t32.5 75q0 49 -32.5 76t-91.5 27h-158zM256 773l-110 133h101l26 -30q22 -27 44 -56q18 25 43 56l26 30h101
l-110 -133h-121z" />
    <glyph glyph-name="uni0156.ss02" horiz-adv-x="658" 
d="M496 0l-186 299h-109v-299h-115v700h287q69 0 121 -25t80 -70.5t28 -105.5q0 -73 -44.5 -123.5t-128.5 -66.5l197 -309h-130zM201 602v-205h158q59 0 91.5 27t32.5 75q0 49 -32.5 76t-91.5 27h-158zM277 -72h106v-117q0 -53 -27.5 -82.5t-79.5 -32.5v49q28 5 41 20t13 46
v3h-53v114z" />
    <glyph glyph-name="Adieresis.ss04" horiz-adv-x="698" 
d="M687 0h-122l-64 171h-308l-62 -171h-120l272 700h132zM229 269h236l-87 232q-13 35 -32 98q-13 -47 -32 -98zM207.5 796q-18.5 18 -18.5 44t18.5 44t45.5 18q26 0 44.5 -18t18.5 -44t-18.5 -44t-44.5 -18q-27 0 -45.5 18zM400.5 796q-18.5 18 -18.5 44t18.5 44t44.5 18
q27 0 45.5 -18t18.5 -44t-18.5 -44t-45.5 -18q-26 0 -44.5 18z" />
    <glyph glyph-name="Cdotaccent.ss04" horiz-adv-x="739" 
d="M212 33.5q-78 45.5 -122 128t-44 188.5t45 188.5t124.5 128t178.5 45.5q83 0 149 -29t107.5 -81.5t52.5 -123.5h-119q-16 60 -66.5 97t-123.5 37q-67 0 -119 -33t-81 -92.5t-29 -136.5t28.5 -136.5t79.5 -92.5t116 -33q70 0 120 36.5t73 98.5h120q-15 -70 -59.5 -123
t-111 -82.5t-143.5 -29.5q-98 0 -176 45.5zM343.5 791q-20.5 20 -20.5 48q0 29 20.5 49t49.5 20q30 0 50.5 -20t20.5 -49q0 -28 -20.5 -48t-50.5 -21q-29 1 -49.5 21z" />
    <glyph glyph-name="Edieresis.ss04" horiz-adv-x="598" 
d="M201 316v-216h349v-100h-464v700h460v-100h-345v-184h301v-100h-301zM180.5 796q-18.5 18 -18.5 44t18.5 44t45.5 18q26 0 44.5 -18t18.5 -44t-18.5 -44t-44.5 -18q-27 0 -45.5 18zM373.5 796q-18.5 18 -18.5 44t18.5 44t44.5 18q27 0 45.5 -18t18.5 -44t-18.5 -44
t-45.5 -18q-26 0 -44.5 18z" />
    <glyph glyph-name="Edotaccent.ss04" horiz-adv-x="598" 
d="M201 316v-216h349v-100h-464v700h460v-100h-345v-184h301v-100h-301zM272.5 791q-20.5 20 -20.5 48q0 29 20.5 49t49.5 20q30 0 50.5 -20t20.5 -49q0 -28 -20.5 -48t-50.5 -21q-29 1 -49.5 21z" />
    <glyph glyph-name="uni0122.ss04" horiz-adv-x="766" 
d="M461 333h241v-333h-100l1 111q-31 -60 -91 -91.5t-138 -31.5q-93 0 -168 46.5t-117.5 129t-42.5 186.5q0 105 45 187.5t125 128.5t181 46q80 0 145 -29t105.5 -81t51.5 -120h-119q-16 59 -65 94.5t-120 35.5q-67 0 -119.5 -33t-81.5 -92.5t-29 -136.5q0 -75 29.5 -135
t82 -93.5t119.5 -33.5q76 0 129 38t72 107h-136v100zM334 -255q27 8 44.5 27t21.5 43l-9 -1q-26 0 -43.5 17t-17.5 43t18 43.5t46 17.5q30 0 48 -22.5t18 -60.5q0 -59 -34.5 -102.5t-91.5 -53.5v49z" />
    <glyph glyph-name="Gdotaccent.ss04" horiz-adv-x="766" 
d="M461 333h241v-333h-100l1 111q-31 -60 -91 -91.5t-138 -31.5q-93 0 -168 46.5t-117.5 129t-42.5 186.5q0 105 45 187.5t125 128.5t181 46q80 0 145 -29t105.5 -81t51.5 -120h-119q-16 59 -65 94.5t-120 35.5q-67 0 -119.5 -33t-81.5 -92.5t-29 -136.5q0 -75 29.5 -135
t82 -93.5t119.5 -33.5q76 0 129 38t72 107h-136v100zM345.5 791q-20.5 20 -20.5 48q0 29 20.5 49t49.5 20q30 0 50.5 -20t20.5 -49q0 -28 -20.5 -48t-50.5 -21q-29 1 -49.5 21z" />
    <glyph glyph-name="Idieresis.ss04" horiz-adv-x="287" 
d="M201 0h-115v700h115v-700zM1.5 796q-18.5 18 -18.5 44t18.5 44t45.5 18q26 0 44.5 -18t18.5 -44t-18.5 -44t-44.5 -18q-27 0 -45.5 18zM194.5 796q-18.5 18 -18.5 44t18.5 44t44.5 18q27 0 45.5 -18t18.5 -44t-18.5 -44t-45.5 -18q-26 0 -44.5 18z" />
    <glyph glyph-name="Idotaccent.ss04" horiz-adv-x="287" 
d="M201 0h-115v700h115v-700zM93.5 791q-20.5 20 -20.5 48q0 29 20.5 49t49.5 20q30 0 50.5 -20t20.5 -49q0 -28 -20.5 -48t-50.5 -21q-29 1 -49.5 21z" />
    <glyph glyph-name="uni0136.ss04" horiz-adv-x="671" 
d="M677 0h-146l-263 339l-67 -65v-274h-115v700h115v-299l306 299h150l-302 -290zM279 -255q27 8 44.5 27t21.5 43l-9 -1q-26 0 -43.5 17t-17.5 43t18 43.5t46 17.5q30 0 48 -22.5t18 -60.5q0 -59 -34.5 -102.5t-91.5 -53.5v49z" />
    <glyph glyph-name="Lcaron.ss04" horiz-adv-x="554" 
d="M201 700v-599l321 -1v-102l-436 2v700h115zM314 517q26 7 44 26.5t22 43.5l-9 -1q-26 0 -43.5 17t-17.5 42q0 26 18 43.5t46 17.5q30 0 48 -22t18 -60q0 -60 -34.5 -103t-91.5 -53v49z" />
    <glyph glyph-name="uni013B.ss04" horiz-adv-x="551" 
d="M201 700v-599l321 -1v-102l-436 2v700h115zM248 -255q27 8 44.5 27t21.5 43l-9 -1q-26 0 -43.5 17t-17.5 43t18 43.5t46 17.5q30 0 48 -22.5t18 -60.5q0 -59 -34.5 -102.5t-91.5 -53.5v49z" />
    <glyph glyph-name="Ldot.ss04" horiz-adv-x="551" 
d="M201 700v-599l321 -1v-102l-436 2v700h115zM356 322q-21 21 -21 51t21 51t52 21t52.5 -21t21.5 -51t-21.5 -51t-52.5 -21t-52 21z" />
    <glyph glyph-name="uni0145.ss04" horiz-adv-x="751" 
d="M86 0v700h158l316 -562q-2 88 -2 118v444h107v-700h-145l-330 586q3 -69 3 -126v-460h-107zM315 -255q27 8 44.5 27t21.5 43l-9 -1q-26 0 -43.5 17t-17.5 43t18 43.5t46 17.5q30 0 48 -22.5t18 -60.5q0 -59 -34.5 -102.5t-91.5 -53.5v49z" />
    <glyph glyph-name="Odieresis.ss04" horiz-adv-x="794" 
d="M214.5 33.5q-79.5 45.5 -124 127.5t-44.5 189q0 106 45 188.5t124.5 128t180.5 45.5q102 0 182 -45.5t125 -128t45 -188.5t-45 -188.5t-125 -128t-182 -45.5t-181.5 45.5zM517.5 121.5q52.5 33.5 82 93t29.5 135.5t-29.5 135.5t-82 93t-121.5 33.5q-68 0 -120.5 -33
t-81.5 -92.5t-29 -136.5t29 -136.5t81.5 -92.5t120.5 -33q69 0 121.5 33.5zM255.5 796q-18.5 18 -18.5 44t18.5 44t45.5 18q26 0 44.5 -18t18.5 -44t-18.5 -44t-44.5 -18q-27 0 -45.5 18zM448.5 796q-18.5 18 -18.5 44t18.5 44t44.5 18q27 0 45.5 -18t18.5 -44t-18.5 -44
t-45.5 -18q-26 0 -44.5 18z" />
    <glyph glyph-name="uni0156.ss04" horiz-adv-x="660" 
d="M580 120q0 -41 3.5 -66.5t12.5 -53.5h-118q-6 22 -8.5 48t-2.5 70v82q0 54 -22.5 77t-79.5 23h-164v-300h-115v700h290q105 0 165.5 -52t60.5 -138q0 -60 -35 -102t-98 -56q58 -10 84.5 -45t26.5 -103v-84zM357 397q59 0 92.5 27.5t33.5 75.5q0 47 -33.5 74.5t-92.5 27.5
h-156v-205h156zM272 -255q27 8 44.5 27t21.5 43l-9 -1q-26 0 -43.5 17t-17.5 43t18 43.5t46 17.5q30 0 48 -22.5t18 -60.5q0 -59 -34.5 -102.5t-91.5 -53.5v49z" />
    <glyph glyph-name="uni0218.ss04" horiz-adv-x="633" 
d="M118.5 47q-73.5 59 -80.5 169h118q8 -62 51.5 -96.5t115.5 -34.5q66 0 106.5 30.5t40.5 80.5q0 39 -27.5 63t-83.5 37l-109 23q-94 21 -143 70.5t-49 124.5q0 57 32.5 102t89.5 70.5t130 25.5q118 0 191 -56t80 -153h-117q-6 53 -47.5 83.5t-105.5 30.5q-59 0 -97 -28
t-38 -72q0 -37 25.5 -60.5t78.5 -34.5l116 -25q94 -20 143 -70.5t49 -126.5q0 -63 -33.5 -111t-94 -74.5t-138.5 -26.5q-130 0 -203.5 59zM261 -255q27 8 44.5 27t21.5 43l-9 -1q-26 0 -43.5 17t-17.5 43t18 43.5t46 17.5q30 0 48 -22.5t18 -60.5q0 -59 -34.5 -102.5
t-91.5 -53.5v49z" />
    <glyph glyph-name="uni021A.ss04" horiz-adv-x="590" 
d="M25 700h540v-101h-213v-600h-114v600h-213v101zM234 -256q27 8 44.5 27t21.5 43l-9 -1q-26 0 -43.5 17t-17.5 43t18 43.5t46 17.5q30 0 48 -22.5t18 -60.5q0 -59 -34.5 -102.5t-91.5 -53.5v49z" />
    <glyph glyph-name="Udieresis.ss04" horiz-adv-x="733" 
d="M214 21.5q-65 33.5 -100 97.5t-35 152v429h115v-423q0 -90 45.5 -139.5t127.5 -49.5q81 0 127 49.5t46 139.5v423h114v-425q0 -89 -35.5 -154t-100 -99t-151.5 -34q-88 0 -153 33.5zM225.5 796q-18.5 18 -18.5 44t18.5 44t45.5 18q26 0 44.5 -18t18.5 -44t-18.5 -44
t-44.5 -18q-27 0 -45.5 18zM418.5 796q-18.5 18 -18.5 44t18.5 44t44.5 18q27 0 45.5 -18t18.5 -44t-18.5 -44t-45.5 -18q-26 0 -44.5 18z" />
    <glyph glyph-name="Wdieresis.ss04" horiz-adv-x="976" 
d="M205 0l-181 700h117l109 -452q9 -35 22 -98l7 -32q17 77 30 130l117 452h130l117 -452q13 -53 30 -130l29 130l110 452h110l-182 -700h-137l-123 475l-5 21q-11 45 -17 76q-17 -75 -23 -97l-123 -475h-137zM363.5 796q-18.5 18 -18.5 44t18.5 44t45.5 18q26 0 44.5 -18
t18.5 -44t-18.5 -44t-44.5 -18q-27 0 -45.5 18zM556.5 796q-18.5 18 -18.5 44t18.5 44t44.5 18q27 0 45.5 -18t18.5 -44t-18.5 -44t-45.5 -18q-26 0 -44.5 18z" />
    <glyph glyph-name="Ydieresis.ss04" horiz-adv-x="670" 
d="M658 700l-265 -417v-283h-115v281l-265 419h130l150 -242q23 -36 45 -78q23 42 45 78l149 242h126zM195.5 796q-18.5 18 -18.5 44t18.5 44t45.5 18q26 0 44.5 -18t18.5 -44t-18.5 -44t-44.5 -18q-27 0 -45.5 18zM388.5 796q-18.5 18 -18.5 44t18.5 44t44.5 18
q27 0 45.5 -18t18.5 -44t-18.5 -44t-45.5 -18q-26 0 -44.5 18z" />
    <glyph glyph-name="Zdotaccent.ss04" horiz-adv-x="628" 
d="M579 603l-403 -503h415v-100h-551v97l403 503h-396v100h532v-97zM265.5 791q-20.5 20 -20.5 48q0 29 20.5 49t49.5 20q30 0 50.5 -20t20.5 -49q0 -28 -20.5 -48t-50.5 -21q-29 1 -49.5 21z" />
    <glyph glyph-name="uni0122.ss06" horiz-adv-x="766" 
d="M461 333h241v-333h-100l1 111q-31 -60 -91 -91.5t-138 -31.5q-93 0 -168 46.5t-117.5 129t-42.5 186.5q0 105 45 187.5t125 128.5t181 46q80 0 145 -29t105.5 -81t51.5 -120h-119q-16 59 -65 94.5t-120 35.5q-67 0 -119.5 -33t-81.5 -92.5t-29 -136.5q0 -75 29.5 -135
t82 -93.5t119.5 -33.5q76 0 129 38t72 107h-136v100zM367 -270h-80l52 192h111z" />
    <glyph glyph-name="uni0136.ss06" horiz-adv-x="671" 
d="M677 0h-146l-263 339l-67 -65v-274h-115v700h115v-299l306 299h150l-302 -290zM313 -270h-80l52 192h111z" />
    <glyph glyph-name="Lcaron.ss06" horiz-adv-x="554" 
d="M201 700v-599l321 -1v-102l-436 2v700h115zM374 509h-78l52 191h109z" />
    <glyph glyph-name="uni013B.ss06" horiz-adv-x="551" 
d="M201 700v-599l321 -1v-102l-436 2v700h115zM282 -270h-80l52 192h111z" />
    <glyph glyph-name="uni0145.ss06" horiz-adv-x="751" 
d="M86 0v700h158l316 -562q-2 88 -2 118v444h107v-700h-145l-330 586q3 -69 3 -126v-460h-107zM349 -270h-80l52 192h111z" />
    <glyph glyph-name="uni0156.ss06" horiz-adv-x="660" 
d="M580 120q0 -41 3.5 -66.5t12.5 -53.5h-118q-6 22 -8.5 48t-2.5 70v82q0 54 -22.5 77t-79.5 23h-164v-300h-115v700h290q105 0 165.5 -52t60.5 -138q0 -60 -35 -102t-98 -56q58 -10 84.5 -45t26.5 -103v-84zM357 397q59 0 92.5 27.5t33.5 75.5q0 47 -33.5 74.5t-92.5 27.5
h-156v-205h156zM306 -270h-80l52 192h111z" />
    <glyph glyph-name="uni0218.ss06" horiz-adv-x="633" 
d="M118.5 47q-73.5 59 -80.5 169h118q8 -62 51.5 -96.5t115.5 -34.5q66 0 106.5 30.5t40.5 80.5q0 39 -27.5 63t-83.5 37l-109 23q-94 21 -143 70.5t-49 124.5q0 57 32.5 102t89.5 70.5t130 25.5q118 0 191 -56t80 -153h-117q-6 53 -47.5 83.5t-105.5 30.5q-59 0 -97 -28
t-38 -72q0 -37 25.5 -60.5t78.5 -34.5l116 -25q94 -20 143 -70.5t49 -126.5q0 -63 -33.5 -111t-94 -74.5t-138.5 -26.5q-130 0 -203.5 59zM295 -270h-80l52 192h111z" />
    <glyph glyph-name="uni021A.ss06" horiz-adv-x="590" 
d="M25 700h540v-101h-213v-600h-114v600h-213v101zM268 -271h-80l52 192h111z" />
    <glyph glyph-name="uni0156.ss02.ss06" horiz-adv-x="658" 
d="M496 0l-186 299h-109v-299h-115v700h287q69 0 121 -25t80 -70.5t28 -105.5q0 -73 -44.5 -123.5t-128.5 -66.5l197 -309h-130zM201 602v-205h158q59 0 91.5 27t32.5 75q0 49 -32.5 76t-91.5 27h-158zM303 -270h-80l52 192h111z" />
    <glyph glyph-name="i.loclTRK" horiz-adv-x="248" 
d="M179 0h-109v472h109v-472zM182 550h-116v124h116v-124z" />
    <glyph glyph-name="a.ss03" horiz-adv-x="582" 
d="M406 472h106v-472h-106v74q-22 -41 -61 -63.5t-90 -22.5q-62 0 -111 31t-76.5 87.5t-27.5 129.5t27.5 129t76.5 87.5t111 31.5q51 0 90 -22.5t61 -64.5v75zM372.5 121q34.5 44 34.5 115t-34.5 114.5t-91.5 43.5t-92 -43.5t-35 -114.5t35 -115t92 -44t91.5 44z" />
    <glyph glyph-name="aacute.ss03" horiz-adv-x="582" 
d="M406 472h106v-472h-106v74q-22 -41 -61 -63.5t-90 -22.5q-62 0 -111 31t-76.5 87.5t-27.5 129.5t27.5 129t76.5 87.5t111 31.5q51 0 90 -22.5t61 -64.5v75zM372.5 121q34.5 44 34.5 115t-34.5 114.5t-91.5 43.5t-92 -43.5t-35 -114.5t35 -115t92 -44t91.5 44zM334 546
h-86l63 132h119z" />
    <glyph glyph-name="abreve.ss03" horiz-adv-x="582" 
d="M406 472h106v-472h-106v74q-22 -41 -61 -63.5t-90 -22.5q-62 0 -111 31t-76.5 87.5t-27.5 129.5t27.5 129t76.5 87.5t111 31.5q51 0 90 -22.5t61 -64.5v75zM372.5 121q34.5 44 34.5 115t-34.5 114.5t-91.5 43.5t-92 -43.5t-35 -114.5t35 -115t92 -44t91.5 44z
M184.5 580.5q-41.5 36.5 -43.5 99.5h83q1 -30 20 -47.5t49 -17.5q29 0 48 17.5t20 47.5h83q-2 -63 -43.5 -99.5t-107.5 -36.5q-67 0 -108.5 36.5z" />
    <glyph glyph-name="acircumflex.ss03" horiz-adv-x="582" 
d="M406 472h106v-472h-106v74q-22 -41 -61 -63.5t-90 -22.5q-62 0 -111 31t-76.5 87.5t-27.5 129.5t27.5 129t76.5 87.5t111 31.5q51 0 90 -22.5t61 -64.5v75zM372.5 121q34.5 44 34.5 115t-34.5 114.5t-91.5 43.5t-92 -43.5t-35 -114.5t35 -115t92 -44t91.5 44zM122 545
l110 133h121l110 -133h-101l-26 30q-25 31 -43 56q-22 -29 -44 -56l-26 -30h-101z" />
    <glyph glyph-name="adieresis.ss03" horiz-adv-x="582" 
d="M406 472h106v-472h-106v74q-22 -41 -61 -63.5t-90 -22.5q-62 0 -111 31t-76.5 87.5t-27.5 129.5t27.5 129t76.5 87.5t111 31.5q51 0 90 -22.5t61 -64.5v75zM372.5 121q34.5 44 34.5 115t-34.5 114.5t-91.5 43.5t-92 -43.5t-35 -114.5t35 -115t92 -44t91.5 44zM246 556
h-103v112h103v-112zM441 556h-102v112h102v-112z" />
    <glyph glyph-name="agrave.ss03" horiz-adv-x="582" 
d="M406 472h106v-472h-106v74q-22 -41 -61 -63.5t-90 -22.5q-62 0 -111 31t-76.5 87.5t-27.5 129.5t27.5 129t76.5 87.5t111 31.5q51 0 90 -22.5t61 -64.5v75zM372.5 121q34.5 44 34.5 115t-34.5 114.5t-91.5 43.5t-92 -43.5t-35 -114.5t35 -115t92 -44t91.5 44zM336 546
h-86l-96 132h119z" />
    <glyph glyph-name="amacron.ss03" horiz-adv-x="582" 
d="M406 472h106v-472h-106v74q-22 -41 -61 -63.5t-90 -22.5q-62 0 -111 31t-76.5 87.5t-27.5 129.5t27.5 129t76.5 87.5t111 31.5q51 0 90 -22.5t61 -64.5v75zM372.5 121q34.5 44 34.5 115t-34.5 114.5t-91.5 43.5t-92 -43.5t-35 -114.5t35 -115t92 -44t91.5 44zM436 571
h-287v77h287v-77z" />
    <glyph glyph-name="aogonek.ss03" horiz-adv-x="582" 
d="M514 -136v-71q-17 -5 -43 -5q-58 0 -90 27.5t-32 73.5q0 34 22.5 63t61.5 48h-27v74q-22 -41 -61 -63.5t-90 -22.5q-62 0 -111 31t-76.5 87.5t-27.5 129.5t27.5 129t76.5 87.5t111 31.5q51 0 90 -22.5t61 -64.5v75h106v-472q-41 -15 -61.5 -38t-20.5 -49q0 -25 15.5 -38
t43.5 -13q16 0 25 2zM372.5 121q34.5 44 34.5 115t-34.5 114.5t-91.5 43.5t-92 -43.5t-35 -114.5t35 -115t92 -44t91.5 44z" />
    <glyph glyph-name="aring.ss03" horiz-adv-x="582" 
d="M406 472h106v-472h-106v74q-22 -41 -61 -63.5t-90 -22.5q-62 0 -111 31t-76.5 87.5t-27.5 129.5t27.5 129t76.5 87.5t111 31.5q51 0 90 -22.5t61 -64.5v75zM372.5 121q34.5 44 34.5 115t-34.5 114.5t-91.5 43.5t-92 -43.5t-35 -114.5t35 -115t92 -44t91.5 44zM206 558.5
q-33 29.5 -33 76.5t33 76.5t86 29.5q51 0 84.5 -29.5t33.5 -76.5t-33.5 -76.5t-84.5 -29.5q-53 0 -86 29.5zM326 600.5q14 13.5 14 34.5t-14 34.5t-34 13.5q-22 0 -35.5 -13.5t-13.5 -34.5t13.5 -34.5t35.5 -13.5q20 0 34 13.5z" />
    <glyph glyph-name="atilde.ss03" horiz-adv-x="582" 
d="M406 472h106v-472h-106v74q-22 -41 -61 -63.5t-90 -22.5q-62 0 -111 31t-76.5 87.5t-27.5 129.5t27.5 129t76.5 87.5t111 31.5q51 0 90 -22.5t61 -64.5v75zM372.5 121q34.5 44 34.5 115t-34.5 114.5t-91.5 43.5t-92 -43.5t-35 -114.5t35 -115t92 -44t91.5 44zM329.5 559
q-17.5 6 -41.5 17q-18 9 -30 13t-24 4q-15 0 -23 -9.5t-8 -25.5h-79q-1 53 23 82.5t70 29.5q21 0 38.5 -6t41.5 -17q18 -9 30 -13t24 -4q15 0 23 9.5t8 25.5h79q1 -53 -23 -82.5t-70 -29.5q-21 0 -38.5 6z" />
    <glyph glyph-name="ae.ss03" horiz-adv-x="921" 
d="M880 208h-349q4 -63 37 -97.5t88 -34.5q39 0 68 18.5t40 50.5h110q-8 -45 -38.5 -81t-75.5 -56t-96 -20q-54 0 -96.5 18t-66.5 53v-59h-95v75q-21 -42 -60 -64.5t-91 -22.5q-62 0 -111 31t-76.5 87.5t-27.5 129.5t27.5 129t76.5 87.5t111 31.5q52 0 91 -23t60 -65v76h95
v-67q24 37 67.5 58t91.5 21q104 0 162 -65.5t58 -177.5v-33zM772 286q-1 53 -34 83.5t-81 30.5t-83.5 -29.5t-41.5 -84.5h240zM372.5 121q34.5 44 34.5 115t-34.5 114.5t-91.5 43.5t-92 -43.5t-35 -114.5t35 -115t92 -44t91.5 44z" />
    <glyph glyph-name="aeacute.ss03" horiz-adv-x="921" 
d="M880 208h-349q4 -63 37 -97.5t88 -34.5q39 0 68 18.5t40 50.5h110q-8 -45 -38.5 -81t-75.5 -56t-96 -20q-54 0 -96.5 18t-66.5 53v-59h-95v75q-21 -42 -60 -64.5t-91 -22.5q-62 0 -111 31t-76.5 87.5t-27.5 129.5t27.5 129t76.5 87.5t111 31.5q52 0 91 -23t60 -65v76h95
v-67q24 37 67.5 58t91.5 21q104 0 162 -65.5t58 -177.5v-33zM772 286q-1 53 -34 83.5t-81 30.5t-83.5 -29.5t-41.5 -84.5h240zM372.5 121q34.5 44 34.5 115t-34.5 114.5t-91.5 43.5t-92 -43.5t-35 -114.5t35 -115t92 -44t91.5 44zM496 546h-86l63 132h119z" />
    <glyph glyph-name="adieresis.ss04" horiz-adv-x="517" 
d="M453 84q0 -42 3 -84h-102q-1 17 -1 53v13q-47 -78 -151 -78q-73 0 -118.5 39t-45.5 101t45 99.5t130 48.5l75 10q28 4 43.5 15t15.5 34q0 30 -24 49.5t-60 19.5q-40 0 -66 -19.5t-31 -54.5h-110q8 70 64.5 112t140.5 42q89 0 140.5 -47t51.5 -131v-222zM346 239
q-14 -16 -57 -25l-57 -10q-81 -16 -81 -71q0 -29 22 -47t59 -18q50 0 82 31.5t32 82.5v57zM121.5 568q-18.5 18 -18.5 44t18.5 44t45.5 18q26 0 44.5 -18t18.5 -44t-18.5 -44t-44.5 -18q-27 0 -45.5 18zM314.5 568q-18.5 18 -18.5 44t18.5 44t44.5 18q27 0 45.5 -18
t18.5 -44t-18.5 -44t-45.5 -18q-26 0 -44.5 18z" />
    <glyph glyph-name="cdotaccent.ss04" horiz-adv-x="537" 
d="M154.5 19.5q-54.5 31.5 -85 88t-30.5 128.5t30.5 128.5t85.5 88t126 31.5q92 0 152 -46.5t69 -124.5h-110q-8 38 -37 59.5t-72 21.5q-59 0 -95 -43.5t-36 -114.5t36 -115t94 -44q42 0 71 21.5t40 59.5h110q-13 -77 -73.5 -123.5t-150.5 -46.5q-70 0 -124.5 31.5z
M232.5 563q-20.5 20 -20.5 48q0 29 20.5 49t49.5 20q30 0 50.5 -20t20.5 -49q0 -28 -20.5 -48t-50.5 -21q-29 1 -49.5 21z" />
    <glyph glyph-name="dcaron.ss04" horiz-adv-x="617" 
d="M405 700h109v-700h-106v74q-22 -42 -61 -64t-92 -22q-62 0 -111 31t-76.5 87.5t-27.5 129.5q0 71 28 127.5t76.5 88.5t109.5 32q51 0 90 -22.5t61 -63.5v302zM374.5 120.5q34.5 43.5 34.5 115.5q0 71 -34.5 114.5t-92.5 43.5t-93 -43.5t-35 -114.5t35 -115t93 -44
t92.5 43.5zM581 517q26 7 44 26.5t22 43.5l-9 -1q-26 0 -43.5 17t-17.5 42q0 26 18 43.5t46 17.5q30 0 48 -22t18 -60q0 -60 -34.5 -103t-91.5 -53v49z" />
    <glyph glyph-name="edieresis.ss04" horiz-adv-x="540" 
d="M500 208h-349q4 -63 37 -97.5t88 -34.5q39 0 68 18.5t41 50.5h109q-14 -71 -74.5 -114t-144.5 -43q-70 0 -123 31t-82.5 87t-29.5 130q0 73 30.5 129.5t83.5 87.5t120 31q107 0 166.5 -65.5t59.5 -177.5v-33zM193.5 370.5q-35.5 -29.5 -41.5 -84.5h240q-1 53 -34 83.5
t-81 30.5t-83.5 -29.5zM134.5 568q-18.5 18 -18.5 44t18.5 44t45.5 18q26 0 44.5 -18t18.5 -44t-18.5 -44t-44.5 -18q-27 0 -45.5 18zM327.5 568q-18.5 18 -18.5 44t18.5 44t44.5 18q27 0 45.5 -18t18.5 -44t-18.5 -44t-45.5 -18q-26 0 -44.5 18z" />
    <glyph glyph-name="edotaccent.ss04" horiz-adv-x="540" 
d="M500 208h-349q4 -63 37 -97.5t88 -34.5q39 0 68 18.5t41 50.5h109q-14 -71 -74.5 -114t-144.5 -43q-70 0 -123 31t-82.5 87t-29.5 130q0 73 30.5 129.5t83.5 87.5t120 31q107 0 166.5 -65.5t59.5 -177.5v-33zM193.5 370.5q-35.5 -29.5 -41.5 -84.5h240q-1 53 -34 83.5
t-81 30.5t-83.5 -29.5zM226.5 563q-20.5 20 -20.5 48q0 29 20.5 49t49.5 20q30 0 50.5 -20t20.5 -49q0 -28 -20.5 -48t-50.5 -21q-29 1 -49.5 21z" />
    <glyph glyph-name="uni0123.ss04" horiz-adv-x="577" 
d="M402 472h106v-481q0 -96 -62.5 -149.5t-167.5 -53.5q-97 0 -155 44t-65 121h111q8 -38 36.5 -58t75.5 -20q55 0 86.5 30t31.5 84v95q-21 -41 -59 -62.5t-89 -21.5q-61 0 -109 31t-75 86t-27 124q0 71 28.5 126t78 86t110.5 31q50 0 87 -21.5t58 -63.5v73zM369 129.5
q34 42.5 34 111.5q0 68 -34.5 110.5t-89.5 42.5q-56 0 -90.5 -42.5t-34.5 -110.5q0 -69 34.5 -111.5t90.5 -42.5t90 42.5zM244.5 563.5q-18.5 22.5 -18.5 60.5q0 59 34.5 102.5t91.5 52.5v-48q-26 -8 -44 -27.5t-22 -42.5l10 1q26 0 43 -17t17 -43t-18 -43.5t-46 -17.5
q-29 0 -47.5 22.5z" />
    <glyph glyph-name="gdotaccent.ss04" horiz-adv-x="577" 
d="M402 472h106v-481q0 -96 -62.5 -149.5t-167.5 -53.5q-97 0 -155 44t-65 121h111q8 -38 36.5 -58t75.5 -20q55 0 86.5 30t31.5 84v95q-21 -41 -59 -62.5t-89 -21.5q-61 0 -109 31t-75 86t-27 124q0 71 28.5 126t78 86t110.5 31q50 0 87 -21.5t58 -63.5v73zM369 129.5
q34 42.5 34 111.5q0 68 -34.5 110.5t-89.5 42.5q-56 0 -90.5 -42.5t-34.5 -110.5q0 -69 34.5 -111.5t90.5 -42.5t90 42.5zM240.5 563q-20.5 20 -20.5 48q0 29 20.5 49t49.5 20q30 0 50.5 -20t20.5 -49q0 -28 -20.5 -48t-50.5 -21q-29 1 -49.5 21z" />
    <glyph glyph-name="i.ss04" horiz-adv-x="248" 
d="M179 0h-109v472h109v-472zM74.5 563q-20.5 20 -20.5 48q0 29 20.5 49t49.5 20q30 0 50.5 -20t20.5 -49q0 -28 -20.5 -48t-50.5 -21q-29 1 -49.5 21z" />
    <glyph glyph-name="idieresis.ss04" horiz-adv-x="248" 
d="M179 0h-109v472h109v-472zM-17.5 568q-18.5 18 -18.5 44t18.5 44t45.5 18q26 0 44.5 -18t18.5 -44t-18.5 -44t-44.5 -18q-27 0 -45.5 18zM175.5 568q-18.5 18 -18.5 44t18.5 44t44.5 18q27 0 45.5 -18t18.5 -44t-18.5 -44t-45.5 -18q-26 0 -44.5 18z" />
    <glyph glyph-name="i.loclTRK.ss04" horiz-adv-x="248" 
d="M179 0h-109v472h109v-472zM74.5 563q-20.5 20 -20.5 48q0 29 20.5 49t49.5 20q30 0 50.5 -20t20.5 -49q0 -28 -20.5 -48t-50.5 -21q-29 1 -49.5 21z" />
    <glyph glyph-name="ij.ss04" horiz-adv-x="497" 
d="M179 0h-109v472h109v-472zM74.5 563q-20.5 20 -20.5 48q0 29 20.5 49t49.5 20q30 0 50.5 -20t20.5 -49q0 -28 -20.5 -48t-50.5 -21q-29 1 -49.5 21zM237 -200v91h32q49 0 49 50v531h109v-548q0 -61 -29.5 -92.5t-97.5 -31.5h-63zM322.5 563q-20.5 20 -20.5 48
q0 29 20.5 49t49.5 20q30 0 50.5 -20t20.5 -49q0 -28 -20.5 -48t-50.5 -21q-29 1 -49.5 21z" />
    <glyph glyph-name="iogonek.ss04" horiz-adv-x="248" 
d="M74.5 563q-20.5 20 -20.5 48q0 29 20.5 49t49.5 20q30 0 50.5 -20t20.5 -49q0 -28 -20.5 -48t-50.5 -21q-29 1 -49.5 21zM111.5 -125q15.5 -13 43.5 -13q16 0 26 2v-71q-19 -5 -44 -5q-57 0 -89.5 27.5t-32.5 73.5q0 34 22.5 63t61.5 48h-29v472h109v-472
q-41 -15 -62 -38t-21 -49q0 -25 15.5 -38z" />
    <glyph glyph-name="j.ss04" horiz-adv-x="248" 
d="M-11 -200v91h32q49 0 49 50v531h109v-548q0 -61 -29.5 -92.5t-97.5 -31.5h-63zM74.5 563q-20.5 20 -20.5 48q0 29 20.5 49t49.5 20q30 0 50.5 -20t20.5 -49q0 -28 -20.5 -48t-50.5 -21q-29 1 -49.5 21z" />
    <glyph glyph-name="uni0137.ss04" horiz-adv-x="511" 
d="M510 0h-134l-159 209l-38 -36v-173h-109v700h109v-413l183 185h139l-203 -194zM198 -255q27 8 44.5 27t21.5 43l-9 -1q-26 0 -43.5 17t-17.5 43t18 43.5t46 17.5q30 0 48 -22.5t18 -60.5q0 -59 -34.5 -102.5t-91.5 -53.5v49z" />
    <glyph glyph-name="lcaron.ss04" horiz-adv-x="282" 
d="M179 0h-109v700h109v-700zM246 517q26 7 44 26.5t22 43.5l-9 -1q-26 0 -43.5 17t-17.5 42q0 26 18 43.5t46 17.5q30 0 48 -22t18 -60q0 -60 -34.5 -103t-91.5 -53v49z" />
    <glyph glyph-name="uni013C.ss04" horiz-adv-x="248" 
d="M179 0h-109v700h109v-700zM63 -255q27 8 44.5 27t21.5 43l-9 -1q-26 0 -43.5 17t-17.5 43t18 43.5t46 17.5q30 0 48 -22.5t18 -60.5q0 -59 -34.5 -102.5t-91.5 -53.5v49z" />
    <glyph glyph-name="ldot.ss04" horiz-adv-x="378" 
d="M179 0h-109v700h109v-700zM266 300.5q-21 20.5 -21 48.5q0 29 21 49.5t50 20.5t49.5 -20.5t20.5 -49.5t-20.5 -49t-49.5 -20t-50 20.5z" />
    <glyph glyph-name="uni0146.ss04" horiz-adv-x="553" 
d="M442.5 432.5q46.5 -51.5 46.5 -140.5v-292h-109v274q0 56 -25 88t-71 32q-48 0 -76.5 -35t-28.5 -94v-265h-109v472h106v-77q21 43 58 66t86 23q76 0 122.5 -51.5zM217 -255q27 8 44.5 27t21.5 43l-9 -1q-26 0 -43.5 17t-17.5 43t18 43.5t46 17.5q30 0 48 -22.5t18 -60.5
q0 -59 -34.5 -102.5t-91.5 -53.5v49z" />
    <glyph glyph-name="odieresis.ss04" horiz-adv-x="565" 
d="M156 19.5q-55 31.5 -85.5 87.5t-30.5 129t30.5 129t85.5 87.5t127 31.5t127 -31.5t85.5 -87.5t30.5 -129t-30.5 -129t-85.5 -87.5t-127 -31.5t-127 31.5zM376.5 120.5q35.5 43.5 35.5 115.5q0 71 -35.5 114.5t-93.5 43.5q-59 0 -94.5 -43.5t-35.5 -114.5
q0 -72 35.5 -115.5t94.5 -43.5q58 0 93.5 43.5zM141.5 567q-18.5 18 -18.5 44t18.5 44t45.5 18q26 0 44.5 -18t18.5 -44t-18.5 -44t-44.5 -18q-27 0 -45.5 18zM334.5 567q-18.5 18 -18.5 44t18.5 44t44.5 18q27 0 45.5 -18t18.5 -44t-18.5 -44t-45.5 -18q-26 0 -44.5 18z
" />
    <glyph glyph-name="uni0157.ss04" horiz-adv-x="362" 
d="M174 380q19 58 63 83t103 20v-105q-84 5 -122.5 -32.5t-38.5 -124.5v-221h-109v472h104v-92zM63 -255q27 8 44.5 27t21.5 43l-9 -1q-26 0 -43.5 17t-17.5 43t18 43.5t46 17.5q30 0 48 -22.5t18 -60.5q0 -59 -34.5 -102.5t-91.5 -53.5v49z" />
    <glyph glyph-name="uni0219.ss04" horiz-adv-x="481" 
d="M94 32q-55 44 -60 116h106q5 -37 33 -57.5t72 -20.5q40 0 63.5 17.5t23.5 46.5q0 43 -68 57l-78 15q-137 26 -137 137q0 41 24 73t66.5 50t96.5 18q86 0 138.5 -38t59.5 -106h-105q-6 30 -30.5 47t-62.5 17q-37 0 -59 -15.5t-22 -40.5q0 -42 57 -53l84 -16
q72 -14 109.5 -49t37.5 -91q0 -68 -54.5 -109.5t-143.5 -41.5q-96 0 -151 44zM181 -256q27 8 44.5 27t21.5 43l-9 -1q-26 0 -43.5 17t-17.5 43t18 43.5t46 17.5q30 0 48 -22.5t18 -60.5q0 -59 -34.5 -102.5t-91.5 -53.5v49z" />
    <glyph glyph-name="adieresis.ss03.ss04" horiz-adv-x="582" 
d="M406 472h106v-472h-106v74q-22 -41 -61 -63.5t-90 -22.5q-62 0 -111 31t-76.5 87.5t-27.5 129.5t27.5 129t76.5 87.5t111 31.5q51 0 90 -22.5t61 -64.5v75zM372.5 121q34.5 44 34.5 115t-34.5 114.5t-91.5 43.5t-92 -43.5t-35 -114.5t35 -115t92 -44t91.5 44zM150.5 568
q-18.5 18 -18.5 44t18.5 44t45.5 18q26 0 44.5 -18t18.5 -44t-18.5 -44t-44.5 -18q-27 0 -45.5 18zM343.5 568q-18.5 18 -18.5 44t18.5 44t44.5 18q27 0 45.5 -18t18.5 -44t-18.5 -44t-45.5 -18q-26 0 -44.5 18z" />
    <glyph glyph-name="tcaron.ss04" horiz-adv-x="357" 
d="M320 385h-115v-239q0 -27 13.5 -41t45.5 -14h56v-91h-91q-66 0 -99.5 31t-33.5 97v257h-67v87h67v165h109v-165h115v-87zM264 579q26 7 44 26.5t22 43.5l-9 -1q-26 0 -43.5 17t-17.5 42q0 26 18 43.5t46 17.5q30 0 48 -22t18 -60q0 -60 -34.5 -103t-91.5 -53v49z" />
    <glyph glyph-name="uni021B.ss04" horiz-adv-x="357" 
d="M320 385h-115v-239q0 -27 13.5 -41t45.5 -14h56v-91h-91q-66 0 -99.5 31t-33.5 97v257h-67v87h67v165h109v-165h115v-87zM143 -255q27 8 44.5 27t21.5 43l-9 -1q-26 0 -43.5 17t-17.5 43t18 43.5t46 17.5q30 0 48 -22.5t18 -60.5q0 -59 -34.5 -102.5t-91.5 -53.5v49z" />
    <glyph glyph-name="udieresis.ss04" horiz-adv-x="553" 
d="M375 472h109v-472h-106v78q-21 -45 -58 -67.5t-87 -22.5q-75 0 -122 51t-47 141v292h109v-275q0 -56 25.5 -88t70.5 -32q49 0 77.5 35.5t28.5 94.5v265zM134.5 568q-18.5 18 -18.5 44t18.5 44t45.5 18q26 0 44.5 -18t18.5 -44t-18.5 -44t-44.5 -18q-27 0 -45.5 18z
M327.5 568q-18.5 18 -18.5 44t18.5 44t44.5 18q27 0 45.5 -18t18.5 -44t-18.5 -44t-45.5 -18q-26 0 -44.5 18z" />
    <glyph glyph-name="wdieresis.ss04" horiz-adv-x="737" 
d="M152 0l-127 472h111l65 -281l12 -62q2 -7 3 -14t2 -13l22 89l76 281h114l75 -281q16 -62 22 -89l17 89l65 281h103l-126 -472h-122l-77 288q-7 26 -18 77q-11 -51 -18 -77l-78 -288h-121zM225.5 568q-18.5 18 -18.5 44t18.5 44t45.5 18q26 0 44.5 -18t18.5 -44t-18.5 -44
t-44.5 -18q-27 0 -45.5 18zM418.5 568q-18.5 18 -18.5 44t18.5 44t44.5 18q27 0 45.5 -18t18.5 -44t-18.5 -44t-45.5 -18q-26 0 -44.5 18z" />
    <glyph glyph-name="ydieresis.ss04" horiz-adv-x="502" 
d="M59 -200v92h34q33 0 54 14t32 44l21 55l-189 467h121l93 -258q16 -45 30 -91l29 91l87 258h112l-208 -559q-22 -58 -62 -85.5t-102 -27.5h-52zM113.5 568q-18.5 18 -18.5 44t18.5 44t45.5 18q26 0 44.5 -18t18.5 -44t-18.5 -44t-44.5 -18q-27 0 -45.5 18zM306.5 568
q-18.5 18 -18.5 44t18.5 44t44.5 18q27 0 45.5 -18t18.5 -44t-18.5 -44t-45.5 -18q-26 0 -44.5 18z" />
    <glyph glyph-name="zdotaccent.ss04" horiz-adv-x="472" 
d="M424 387l-256 -300h265v-87h-392v84l258 300h-255v88h380v-85zM186.5 563q-20.5 20 -20.5 48q0 29 20.5 49t49.5 20q30 0 50.5 -20t20.5 -49q0 -28 -20.5 -48t-50.5 -21q-29 1 -49.5 21z" />
    <glyph glyph-name="dcaron.ss06" horiz-adv-x="584" 
d="M405 700h109v-700h-106v74q-22 -42 -61 -64t-92 -22q-62 0 -111 31t-76.5 87.5t-27.5 129.5q0 71 28 127.5t76.5 88.5t109.5 32q51 0 90 -22.5t61 -63.5v302zM374.5 120.5q34.5 43.5 34.5 115.5q0 71 -34.5 114.5t-92.5 43.5t-93 -43.5t-35 -114.5t35 -115t93 -44
t92.5 43.5zM641 509h-78l52 191h109z" />
    <glyph glyph-name="uni0123.ss06" horiz-adv-x="577" 
d="M402 472h106v-481q0 -96 -62.5 -149.5t-167.5 -53.5q-97 0 -155 44t-65 121h111q8 -38 36.5 -58t75.5 -20q55 0 86.5 30t31.5 84v95q-21 -41 -59 -62.5t-89 -21.5q-61 0 -109 31t-75 86t-27 124q0 71 28.5 126t78 86t110.5 31q50 0 87 -21.5t58 -63.5v73zM369 129.5
q34 42.5 34 111.5q0 68 -34.5 110.5t-89.5 42.5q-56 0 -90.5 -42.5t-34.5 -110.5q0 -69 34.5 -111.5t90.5 -42.5t90 42.5zM344 550h-111l83 191h80z" />
    <glyph glyph-name="uni0137.ss06" horiz-adv-x="511" 
d="M510 0h-134l-159 209l-38 -36v-173h-109v700h109v-413l183 185h139l-203 -194zM232 -270h-80l52 192h111z" />
    <glyph glyph-name="lcaron.ss06" horiz-adv-x="248" 
d="M179 0h-109v700h109v-700zM306 509h-78l52 191h109z" />
    <glyph glyph-name="uni013C.ss06" horiz-adv-x="248" 
d="M179 0h-109v700h109v-700zM97 -270h-80l52 192h111z" />
    <glyph glyph-name="uni0146.ss06" horiz-adv-x="553" 
d="M442.5 432.5q46.5 -51.5 46.5 -140.5v-292h-109v274q0 56 -25 88t-71 32q-48 0 -76.5 -35t-28.5 -94v-265h-109v472h106v-77q21 43 58 66t86 23q76 0 122.5 -51.5zM250 -270h-80l52 192h111z" />
    <glyph glyph-name="uni0157.ss06" horiz-adv-x="362" 
d="M174 380q19 58 63 83t103 20v-105q-84 5 -122.5 -32.5t-38.5 -124.5v-221h-109v472h104v-92zM97 -270h-80l52 192h111z" />
    <glyph glyph-name="uni0219.ss06" horiz-adv-x="481" 
d="M94 32q-55 44 -60 116h106q5 -37 33 -57.5t72 -20.5q40 0 63.5 17.5t23.5 46.5q0 43 -68 57l-78 15q-137 26 -137 137q0 41 24 73t66.5 50t96.5 18q86 0 138.5 -38t59.5 -106h-105q-6 30 -30.5 47t-62.5 17q-37 0 -59 -15.5t-22 -40.5q0 -42 57 -53l84 -16
q72 -14 109.5 -49t37.5 -91q0 -68 -54.5 -109.5t-143.5 -41.5q-96 0 -151 44zM215 -271h-80l52 192h111z" />
    <glyph glyph-name="tcaron.ss06" horiz-adv-x="357" 
d="M320 385h-115v-239q0 -27 13.5 -41t45.5 -14h56v-91h-91q-66 0 -99.5 31t-33.5 97v257h-67v87h67v165h109v-165h115v-87zM335 530h-78l52 191h109z" />
    <glyph glyph-name="uni021B.ss06" horiz-adv-x="357" 
d="M320 385h-115v-239q0 -27 13.5 -41t45.5 -14h56v-91h-91q-66 0 -99.5 31t-33.5 97v257h-67v87h67v165h109v-165h115v-87zM176 -270h-80l52 192h111z" />
    <glyph glyph-name="ydieresis.ss04.ss07" horiz-adv-x="502" 
d="M119 -200l80 207l-188 465h121l93 -258q16 -45 30 -91l29 91l87 258h112l-250 -672h-114zM113.5 568q-18.5 18 -18.5 44t18.5 44t45.5 18q26 0 44.5 -18t18.5 -44t-18.5 -44t-44.5 -18q-27 0 -45.5 18zM306.5 568q-18.5 18 -18.5 44t18.5 44t44.5 18q27 0 45.5 -18
t18.5 -44t-18.5 -44t-45.5 -18q-26 0 -44.5 18z" />
    <glyph glyph-name="y.ss07" horiz-adv-x="502" 
d="M119 -200l80 207l-188 465h121l93 -258q16 -45 30 -91l29 91l87 258h112l-250 -672h-114z" />
    <glyph glyph-name="yacute.ss07" horiz-adv-x="502" 
d="M119 -200l80 207l-188 465h121l93 -258q16 -45 30 -91l29 91l87 258h112l-250 -672h-114zM298 546h-86l63 132h119z" />
    <glyph glyph-name="ycircumflex.ss07" horiz-adv-x="502" 
d="M119 -200l80 207l-188 465h121l93 -258q16 -45 30 -91l29 91l87 258h112l-250 -672h-114zM85 545l110 133h121l110 -133h-101l-26 30q-25 31 -43 56q-22 -29 -44 -56l-26 -30h-101z" />
    <glyph glyph-name="ydieresis.ss07" horiz-adv-x="502" 
d="M119 -200l80 207l-188 465h121l93 -258q16 -45 30 -91l29 91l87 258h112l-250 -672h-114zM209 556h-103v112h103v-112zM404 556h-102v112h102v-112z" />
    <glyph glyph-name="ygrave.ss07" horiz-adv-x="502" 
d="M119 -200l80 207l-188 465h121l93 -258q16 -45 30 -91l29 91l87 258h112l-250 -672h-114zM300 546h-86l-96 132h119z" />
    <glyph glyph-name="f_i.ss04" horiz-adv-x="587" 
d="M269 611q-60 0 -60 -60v-79h113v-87h-113v-385h-110v385h-68v87h68v98q0 64 34 97t99 33h90v-89h-53zM517 0h-109v472h109v-472zM412.5 563q-20.5 20 -20.5 48q0 29 20.5 49t49.5 20q30 0 50.5 -20t20.5 -49q0 -28 -20.5 -48t-50.5 -21q-29 1 -49.5 21z" />
    <glyph glyph-name="fi.ss04" horiz-adv-x="587" 
d="M269 611q-60 0 -60 -60v-79h113v-87h-113v-385h-110v385h-68v87h68v98q0 64 34 97t99 33h90v-89h-53zM517 0h-109v472h109v-472zM412.5 563q-20.5 20 -20.5 48q0 29 20.5 49t49.5 20q30 0 50.5 -20t20.5 -49q0 -28 -20.5 -48t-50.5 -21q-29 1 -49.5 21z" />
    <glyph glyph-name="ordfeminine.case" horiz-adv-x="456" 
d="M389 390q0 -35 3 -68h-88q-1 14 -1 42v10q-36 -62 -121 -62q-59 0 -95 32t-36 82t36 79.5t105 38.5l60 8q45 5 45 37q0 24 -18 38.5t-45 14.5q-31 0 -51 -15t-24 -41h-93q6 56 52 89.5t114 33.5q73 0 115 -37.5t42 -105.5v-176zM297 510q-7 -7 -16.5 -11t-27.5 -7l-43 -9
q-62 -11 -62 -53q0 -22 17 -36t45 -14q38 0 62.5 24t24.5 63v43z" />
    <glyph glyph-name="ordmasculine.case" horiz-adv-x="481" 
d="M136 337q-45 25 -69.5 70.5t-24.5 103.5t24.5 103t69.5 70t103 25q88 0 142 -54.5t54 -143.5q0 -59 -24.5 -104t-69 -70t-102.5 -25t-103 25zM310.5 422q27.5 34 27.5 89t-27.5 89t-71.5 34q-45 0 -72.5 -34t-27.5 -89t27.5 -89t72.5 -34q44 0 71.5 34z" />
    <glyph glyph-name="ordfeminine.ss03.case" horiz-adv-x="501" 
d="M338 700h91v-378h-91v58q-17 -33 -48 -50.5t-72 -17.5q-50 0 -88.5 25t-60.5 70t-22 104t21.5 104t60.5 69.5t89 24.5q41 0 71.5 -17.5t48.5 -49.5v58zM312.5 422q26.5 34 26.5 89t-26.5 88.5t-69.5 33.5q-44 0 -71 -33.5t-27 -88.5t27 -89t71 -34q43 0 69.5 34z" />
    <glyph glyph-name="ordfeminine.ss03" horiz-adv-x="491" 
d="M332 668h91v-378h-91v58q-17 -33 -48 -50.5t-72 -17.5q-50 0 -88.5 25t-60.5 70t-22 104t21.5 104t60.5 69.5t89 24.5q41 0 71.5 -17.5t48.5 -49.5v58zM306.5 390q26.5 34 26.5 89t-26.5 88.5t-69.5 33.5q-44 0 -71 -33.5t-27 -88.5t27 -89t71 -34q43 0 69.5 34z" />
    <glyph glyph-name="zero.zero" horiz-adv-x="619" 
d="M500 589.5q68 -90.5 68 -255.5t-68 -255.5t-191 -90.5t-190.5 90.5t-67.5 255.5t67.5 255.5t190.5 90.5t191 -90.5zM202.5 520.5q-37.5 -65.5 -37.5 -186.5q0 -54 8 -102l241 293q-38 61 -105 61q-69 0 -106.5 -65.5zM416.5 147q37.5 65 37.5 187q0 58 -9 103l-240 -294
q37 -61 104 -61q70 0 107.5 65z" />
    <glyph glyph-name="zero.zero.blackCircled" horiz-adv-x="935" 
d="M259 -3.5q-95 54.5 -150 148t-55 205.5t55 205.5t150 148t209 54.5t208.5 -54.5t149.5 -148t55 -205.5t-55 -205.5t-149.5 -148t-208.5 -54.5t-209 54.5zM600 182q47 60 47 168q0 109 -47 169t-132 60t-132.5 -60t-47.5 -169q0 -108 47.5 -168t132.5 -60t132 60zM385 298
q-4 21 -4 52q0 73 22.5 112.5t64.5 39.5q36 0 58 -31zM409 230l141 173q4 -21 4 -53q0 -73 -22.5 -112t-63.5 -39q-36 0 -59 31z" />
    <glyph glyph-name="zero.case" horiz-adv-x="640" 
d="M121 83q-71 95 -71 267t71 267t199 95t199 -95t71 -267t-71 -267t-199 -95t-199 95zM433.5 153q39.5 69 39.5 197q0 127 -39.5 196.5t-113.5 69.5q-73 0 -113 -69.5t-40 -196.5q0 -128 40 -197t113 -69q74 0 113.5 69z" />
    <glyph glyph-name="one.case" horiz-adv-x="347" 
d="M3 522l146 178h111v-700h-113v566l-79 -98z" />
    <glyph glyph-name="two.case" horiz-adv-x="579" 
d="M532 95v-95h-495q5 79 47 144.5t131 129.5l81 59q60 42 87.5 83.5t27.5 85.5q0 51 -33.5 83t-87.5 32q-55 0 -91.5 -34.5t-40.5 -93.5h-115q2 66 33 116.5t86.5 78.5t127.5 28q70 0 124 -26.5t84 -75t30 -110.5q0 -65 -40.5 -124t-129.5 -125l-81 -60q-69 -51 -97 -96
h352z" />
    <glyph glyph-name="three.case" horiz-adv-x="606" 
d="M523 305q35 -45 35 -106t-32.5 -109t-90 -75t-130.5 -27q-120 0 -190.5 58.5t-74.5 162.5h117q6 -59 44.5 -92.5t101.5 -33.5q61 0 99.5 33t38.5 87q0 52 -37 82.5t-102 30.5h-60v96h57q58 0 92 28t34 74q0 45 -35 74t-89 29q-56 0 -93 -31t-42 -83h-116q8 96 76.5 152.5
t174.5 56.5q69 0 123.5 -24t85 -68t30.5 -100q0 -52 -30.5 -93t-83.5 -59q62 -18 97 -63z" />
    <glyph glyph-name="four.case" horiz-adv-x="633" 
d="M496 288h101v-93h-101v-195h-111v195h-349v99l317 406h143v-412zM385 288v308q-11 -18 -40 -55l-158 -202q-5 -5 -16 -19t-26 -32h240z" />
    <glyph glyph-name="five.case" horiz-adv-x="601" 
d="M449.5 435q51.5 -30 80.5 -84t29 -123t-33 -124t-91.5 -85.5t-133.5 -30.5q-114 0 -180 55t-74 155h116q8 -55 44.5 -85t93.5 -30q63 0 102 40t39 105q0 67 -38 107.5t-100 40.5q-41 0 -75.5 -19t-49.5 -53h-110l4 396h445v-95h-342l-2 -206q29 32 69.5 49t89.5 17
q65 0 116.5 -30z" />
    <glyph glyph-name="six.case" horiz-adv-x="629" 
d="M468.5 425q52.5 -30 83 -82.5t30.5 -117.5q0 -67 -33 -121t-91 -85t-130 -31q-133 0 -205.5 94.5t-72.5 267.5q0 113 34 194.5t97.5 124.5t151.5 43q96 0 160.5 -51t75.5 -142h-116q-8 47 -40 72.5t-82 25.5q-79 0 -123 -68.5t-44 -197.5q26 50 74.5 77t113.5 27
q64 0 116.5 -30zM425 122.5q40 39.5 40 100.5t-40 100.5t-102 39.5t-102 -39.5t-40 -100.5t40 -100.5t102 -39.5t102 39.5z" />
    <glyph glyph-name="seven.case" horiz-adv-x="518" 
d="M13 700h485v-100q-224 -208 -255 -600h-128q19 192 88.5 343.5t184.5 258.5h-375v98z" />
    <glyph glyph-name="eight.case" horiz-adv-x="622" 
d="M536.5 300.5q38.5 -45.5 38.5 -107.5q0 -59 -34 -106t-94 -73t-136 -26t-136 26t-94 73t-34 106q0 62 38.5 107.5t108.5 64.5q-59 18 -93 61t-34 98t31 97.5t86.5 66.5t126.5 24t127 -24t87 -66.5t31 -97.5q0 -56 -34.5 -98.5t-93.5 -60.5q70 -19 108.5 -64.5zM216.5 589
q-36.5 -29 -36.5 -76t36.5 -76.5t94.5 -29.5q59 0 95.5 29.5t36.5 76.5t-36.5 76t-95.5 29q-58 0 -94.5 -29zM417.5 115q40.5 33 40.5 86t-40.5 85.5t-106.5 32.5t-106.5 -32.5t-40.5 -85.5t40.5 -86t106.5 -33t106.5 33z" />
    <glyph glyph-name="nine.case" horiz-adv-x="628" 
d="M505.5 617.5q72.5 -94.5 72.5 -267.5q0 -113 -34 -194.5t-97.5 -124.5t-151.5 -43q-97 0 -161.5 51t-74.5 142h116q8 -48 40.5 -73t81.5 -25q79 0 123 68.5t44 197.5q-26 -49 -74.5 -76.5t-114.5 -27.5q-64 0 -116.5 30t-82.5 82.5t-30 117.5q0 67 33 121t91 85t130 31
q133 0 205.5 -94.5zM407 376.5q40 39.5 40 100.5t-40 100.5t-102 39.5t-102 -39.5t-40 -100.5t40 -100.5t102 -39.5t102 39.5z" />
    <glyph glyph-name="zero.case.zero" horiz-adv-x="640" 
d="M519 617q71 -95 71 -267t-71 -267t-199 -95t-199 95t-71 267t71 267t199 95t199 -95zM207 546.5q-40 -69.5 -40 -196.5q0 -61 9 -109l255 310q-39 65 -111 65q-73 0 -113 -69.5zM433.5 153q39.5 69 39.5 197q0 62 -9 110l-255 -311q40 -65 111 -65q74 0 113.5 69z" />
    <glyph glyph-name="zero.zero.circled" horiz-adv-x="935" 
d="M676.5 703.5q94.5 -54.5 149.5 -148t55 -205.5t-55 -205.5t-149.5 -148t-208.5 -54.5t-209 54.5t-150 148t-55 205.5t55 205.5t150 148t209 54.5t208.5 -54.5zM632.5 67q74.5 43 117.5 118t43 165t-43 164.5t-117.5 118t-164.5 43.5t-165 -43t-118 -118t-43 -165t43 -165
t118 -118t165 -43t164.5 43zM600 519q47 -60 47 -169q0 -108 -47 -168t-132 -60t-132.5 60t-47.5 168q0 109 47.5 169t132.5 60t132 -60zM403.5 462.5q-22.5 -39.5 -22.5 -112.5q0 -31 4 -52l141 173q-22 31 -58 31q-42 0 -64.5 -39.5zM531.5 238q22.5 39 22.5 112
q0 32 -4 53l-141 -173q23 -31 59 -31q41 0 63.5 39z" />
    <glyph glyph-name="zero.osf" horiz-adv-x="627" 
d="M174.5 24.5q-59.5 36.5 -92 104t-32.5 157.5t32.5 157.5t92 104t138.5 36.5t139 -36.5t92.5 -104t32.5 -157.5t-32.5 -157.5t-92.5 -104t-139 -36.5t-138.5 36.5zM423 135.5q39 53.5 39 150.5t-39 151t-110 54q-70 0 -109 -54t-39 -151t39 -150.5t109 -53.5
q71 0 110 53.5z" />
    <glyph glyph-name="one.osf" horiz-adv-x="352" 
d="M17 401l141 171h108v-572h-111v443l-76 -94z" />
    <glyph glyph-name="two.osf" horiz-adv-x="542" 
d="M492 93v-93h-451q3 75 43 133t127 112l74 46q45 29 65.5 56.5t20.5 60.5q0 37 -26.5 61.5t-70.5 24.5q-48 0 -78 -28t-33 -75h-112q5 89 65 141t158 52q96 0 152.5 -48t56.5 -128q0 -55 -32.5 -100.5t-106.5 -92.5l-72 -45q-36 -23 -56.5 -40.5t-31.5 -36.5h308z" />
    <glyph glyph-name="three.osf" horiz-adv-x="586" 
d="M503 195.5q33 -42.5 33 -101.5t-31 -105t-86 -71.5t-125 -25.5q-115 0 -181.5 55.5t-71.5 156.5h114q5 -56 41.5 -87.5t96.5 -31.5q57 0 93 31t36 82q0 50 -35 78.5t-96 28.5h-57v93h54q55 0 87 26t32 70q0 43 -32.5 70t-83.5 27q-53 0 -88 -29t-41 -78h-112
q7 93 72.5 146.5t168.5 53.5q66 0 118 -23t81 -65t29 -96q0 -49 -28.5 -88t-78.5 -57q58 -17 91 -59.5z" />
    <glyph glyph-name="four.osf" horiz-adv-x="612" 
d="M477 180h96v-91h-96v-185h-108v185h-333v97l302 386h139v-392zM369 180v291q-16 -22 -23 -33l-14 -19l-150 -192q-23 -28 -39 -47h226z" />
    <glyph glyph-name="five.osf" horiz-adv-x="585" 
d="M437 319.5q49 -28.5 76 -80t27 -117.5q0 -67 -31.5 -119t-87.5 -81.5t-127 -29.5q-109 0 -172.5 52.5t-71.5 148.5h114q7 -52 41 -80t88 -28q60 0 96.5 37.5t36.5 99.5q0 63 -35.5 101t-94.5 38q-40 0 -71.5 -18t-46.5 -50h-107l4 379h427v-93h-327l-2 -194q55 63 152 63
q63 0 112 -28.5z" />
    <glyph glyph-name="six.osf" horiz-adv-x="607" 
d="M452 405.5q50 -28.5 79 -78.5t29 -112q0 -65 -31.5 -116.5t-87 -81t-124.5 -29.5q-128 0 -197.5 90t-69.5 256q0 108 32.5 186t93.5 119t145 41q94 0 155.5 -49t71.5 -137h-114q-7 46 -37 69.5t-77 23.5q-75 0 -116 -64t-42 -187q25 47 71 72.5t108 25.5q61 0 111 -28.5z
M407.5 118q37.5 37 37.5 95t-37.5 95t-95.5 37q-59 0 -96.5 -37t-37.5 -95t37.5 -95t96.5 -37q58 0 95.5 37z" />
    <glyph glyph-name="seven.osf" horiz-adv-x="518" 
d="M25 572h464v-97q-214 -199 -242 -571h-126q19 184 85 328.5t176 244.5h-357v95z" />
    <glyph glyph-name="eight.osf" horiz-adv-x="602" 
d="M516.5 286.5q36.5 -43.5 36.5 -102.5q0 -57 -32.5 -101.5t-89.5 -69.5t-130 -25t-130.5 25t-90 69.5t-32.5 101.5q0 60 36.5 103t103.5 61q-56 17 -88.5 57.5t-32.5 94.5q0 53 29.5 94t83 63.5t121.5 22.5t121.5 -22.5t83 -63.5t29.5 -94q0 -54 -32.5 -94.5t-89.5 -57.5
q67 -18 103.5 -61.5zM211 561.5q-34 -27.5 -34 -72.5t34 -72.5t90 -27.5t90 27.5t34 72.5t-34 72.5t-90 27.5t-90 -27.5zM401 110q38 31 38 82q0 50 -38 80.5t-100 30.5t-100 -30.5t-38 -80.5q0 -51 38 -82t100 -31t100 31z" />
    <glyph glyph-name="nine.osf" horiz-adv-x="607" 
d="M487.5 494q69.5 -90 69.5 -256q0 -108 -32.5 -186t-93.5 -119t-145 -41q-94 0 -155.5 49t-71.5 137h114q7 -46 37 -69.5t77 -23.5q75 0 116 64t42 187q-25 -47 -71 -72.5t-108 -25.5q-61 0 -111 28.5t-79 78.5t-29 112q0 65 31.5 116.5t87 81t124.5 29.5q128 0 197.5 -90
zM391.5 264q37.5 37 37.5 95t-37.5 95t-96.5 37q-58 0 -95.5 -37t-37.5 -95t37.5 -95t95.5 -37q59 0 96.5 37z" />
    <glyph glyph-name="zero.osf.zero" horiz-adv-x="627" 
d="M452 547.5q60 -36.5 92.5 -104t32.5 -157.5t-32.5 -157.5t-92.5 -104t-139 -36.5t-138.5 36.5t-92 104t-32.5 157.5t32.5 157.5t92 104t138.5 36.5t139 -36.5zM204 437q-39 -54 -39 -151q0 -53 12 -94l234 259q-38 40 -98 40q-70 0 -109 -54zM423 135.5q39 53.5 39 150.5
q0 54 -12 94l-234 -259q37 -39 97 -39q71 0 110 53.5z" />
    <glyph glyph-name="zero.tf" 
d="M113 78q-66 90 -66 256t66 256t187 90t187 -90t66 -256t-66 -256t-187 -90t-187 90zM403 145.5q35 63.5 35 188.5q0 124 -35 188t-103 64t-103 -64t-35 -188q0 -125 35 -188.5t103 -63.5t103 63.5z" />
    <glyph glyph-name="one.tf" 
d="M369 668v-575h192v-93h-495v93h192v445l-112 -140l-64 54l176 216h111z" />
    <glyph glyph-name="two.tf" 
d="M533 93v-93h-476q5 78 46 140t125 123l77 56q55 41 81.5 80t26.5 80q0 48 -31 78t-82 30q-54 0 -88 -33t-36 -88h-113q4 98 67.5 156t168.5 58q68 0 120 -25.5t80.5 -71.5t28.5 -106q0 -62 -39 -118.5t-124 -119.5l-77 -57q-65 -48 -90 -89h335z" />
    <glyph glyph-name="three.tf" 
d="M511 291.5q33 -42.5 33 -101.5t-31 -105t-86 -71.5t-125 -25.5q-116 0 -183 56t-71 156h114q5 -56 42 -87.5t97 -31.5q57 0 93 31t36 82q0 50 -35 78.5t-96 28.5h-58v93h55q55 0 87 26t32 70q0 43 -33 70t-84 27q-52 0 -87 -29t-41 -78h-113q8 93 73.5 146.5t167.5 53.5
q66 0 118.5 -23t81.5 -65t29 -96q0 -49 -28.5 -88t-78.5 -57q58 -17 91 -59.5z" />
    <glyph glyph-name="four.tf" 
d="M470 276h93v-91h-93v-185h-108v185h-327v97l295 386h140v-392zM362 276v291q-7 -12 -15 -21q-11 -17 -22 -31l-146 -192l-18 -22l-20 -25h221z" />
    <glyph glyph-name="five.tf" 
d="M444 415.5q49 -28.5 76 -80t27 -117.5q0 -67 -31 -119t-87 -81.5t-128 -29.5q-109 0 -172.5 52.5t-70.5 148.5h113q7 -52 41 -80t88 -28q60 0 96.5 37.5t36.5 99.5q0 63 -35.5 101t-94.5 38q-39 0 -71 -18t-47 -50h-107l4 379h427v-93h-326l-2 -193q54 62 151 62
q63 0 112 -28.5z" />
    <glyph glyph-name="six.tf" 
d="M447.5 405.5q49.5 -28.5 78 -78.5t28.5 -112q0 -65 -31.5 -116.5t-86.5 -81t-123 -29.5q-126 0 -195 90t-69 256q0 108 32.5 186t92.5 119t143 41q93 0 154 -49.5t71 -136.5h-113q-8 46 -37.5 69.5t-76.5 23.5q-72 0 -112.5 -64t-41.5 -185q25 46 70 71t106 25
t110.5 -28.5zM402.5 118q36.5 37 36.5 95t-36.5 95t-94.5 37t-94.5 -37t-36.5 -95t36.5 -95t94.5 -37t94.5 37z" />
    <glyph glyph-name="seven.tf" 
d="M46 668h501v-97q-113 -99 -181.5 -241t-85.5 -330h-126q22 183 93.5 327.5t188.5 245.5h-390v95z" />
    <glyph glyph-name="eight.tf" 
d="M514 286.5q36 -43.5 36 -102.5q0 -57 -32 -101.5t-89 -69.5t-129 -25t-129 25t-89 69.5t-32 101.5q0 60 36 103t102 61q-56 17 -88 58t-32 94t29.5 94t82 63.5t120.5 22.5t120.5 -22.5t82 -63.5t29.5 -94q0 -54 -32 -94.5t-88 -57.5q66 -18 102 -61.5zM211.5 561.5
q-33.5 -27.5 -33.5 -72.5t33.5 -72.5t88.5 -27.5t88.5 27.5t33.5 72.5t-33.5 72.5t-88.5 27.5t-88.5 -27.5zM398.5 110q37.5 31 37.5 82q0 50 -37 80.5t-99 30.5t-99 -30.5t-37 -80.5q0 -51 37.5 -82t98.5 -31t98.5 31z" />
    <glyph glyph-name="nine.tf" 
d="M482 590q69 -90 69 -256q0 -108 -32.5 -186t-92.5 -119t-143 -41q-93 0 -154 49.5t-71 136.5h113q8 -46 38 -69.5t76 -23.5q72 0 112.5 64t41.5 185q-25 -46 -70 -71t-106 -25t-110.5 28.5t-78 78.5t-28.5 112q0 65 31.5 116.5t86.5 81t123 29.5q126 0 195 -90z
M386.5 360q36.5 37 36.5 95t-36.5 95t-94.5 37t-94.5 -37t-36.5 -95t36.5 -95t94.5 -37t94.5 37z" />
    <glyph glyph-name="zero.tf.case" 
d="M108.5 82.5q-67.5 94.5 -67.5 267.5t67.5 267.5t191.5 94.5t191 -94.5t67 -267.5t-67 -267.5t-191 -94.5t-191.5 94.5zM405.5 151.5q36.5 67.5 36.5 198.5q0 130 -36.5 198t-105.5 68q-70 0 -106 -67.5t-36 -198.5t36 -198.5t106 -67.5q69 0 105.5 67.5z" />
    <glyph glyph-name="one.tf.case" 
d="M369 700v-605h203v-95h-518v95h202v472l-119 -149l-66 55l185 227h113z" />
    <glyph glyph-name="two.tf.case" 
d="M543 95v-95h-496q5 79 47 144.5t131 129.5l82 59q60 42 87 83.5t27 85.5q0 50 -33.5 82.5t-86.5 32.5q-56 0 -92.5 -34.5t-40.5 -93.5h-115q3 66 34 116.5t86.5 78.5t127.5 28q69 0 123 -26.5t84 -75t30 -110.5q0 -65 -40 -124t-129 -125l-82 -60q-71 -53 -96 -96h352z
" />
    <glyph glyph-name="three.tf.case" 
d="M520 305q35 -45 35 -106t-32.5 -109t-90 -75t-130.5 -27q-120 0 -190.5 58.5t-74.5 162.5h117q6 -59 44.5 -92.5t102.5 -33.5q60 0 98.5 33t38.5 87q0 52 -37 82.5t-102 30.5h-60v96h57q58 0 92 28t34 74t-35 74.5t-89 28.5q-56 0 -93 -31t-42 -83h-116q8 96 76.5 152.5
t174.5 56.5q69 0 123.5 -24t85 -68t30.5 -100q0 -52 -30.5 -93t-83.5 -59q62 -18 97 -63z" />
    <glyph glyph-name="four.tf.case" 
d="M476 288h97v-93h-97v-195h-110v195h-340v99l307 406h143v-412zM366 288v308q-7 -9 -17 -25q-4 -5 -10.5 -14.5t-11.5 -15.5l-152 -202q-4 -5 -40 -51h231z" />
    <glyph glyph-name="five.tf.case" 
d="M449.5 435q51.5 -30 80.5 -84t29 -123t-33 -124t-91.5 -85.5t-133.5 -30.5q-114 0 -180 55t-74 155h116q8 -55 44.5 -85t93.5 -30q63 0 102 40t39 105q0 67 -38 107.5t-100 40.5q-41 0 -75.5 -19t-49.5 -53h-110l4 396h445v-95h-342l-2 -206q57 66 159 66q65 0 116.5 -30
z" />
    <glyph glyph-name="six.tf.case" 
d="M454 425q52 -30 81.5 -82.5t29.5 -117.5q0 -67 -32.5 -121t-90 -85t-128.5 -31q-132 0 -204 94.5t-72 267.5q0 113 34 194.5t97 124.5t149 43q96 0 160.5 -51t74.5 -142h-116q-8 47 -39.5 72.5t-81.5 25.5q-77 0 -119.5 -68t-43.5 -197q26 49 73.5 76t111.5 27t116 -30z
M409 122.5q39 39.5 39 100.5t-39 100.5t-100 39.5t-100 -39.5t-39 -100.5t39 -100.5t100 -39.5t100 39.5z" />
    <glyph glyph-name="seven.tf.case" 
d="M33 700h524v-100q-118 -104 -190.5 -253t-91.5 -347h-128q22 189 97 341t199 261h-410v98z" />
    <glyph glyph-name="eight.tf.case" 
d="M523 300.5q38 -45.5 38 -107.5q0 -59 -33.5 -106t-93.5 -73t-135 -26q-74 0 -133.5 26t-93.5 73t-34 106q0 61 38 107t107 65q-58 18 -92 61t-34 98t31 97.5t86 66.5t125 24q71 0 126 -24t86 -66.5t31 -97.5q0 -56 -34 -98.5t-92 -60.5q69 -19 107 -64.5zM205.5 589
q-35.5 -29 -35.5 -76t35.5 -76.5t93.5 -29.5q59 0 95 29.5t36 76.5t-36 76t-95 29q-58 0 -93.5 -29zM404 115q40 33 40 86t-40 85.5t-105 32.5t-104.5 -32.5t-39.5 -85.5t40 -86t104 -33q65 0 105 33z" />
    <glyph glyph-name="nine.tf.case" 
d="M490 617.5q72 -94.5 72 -267.5q0 -113 -34 -194.5t-97 -124.5t-149 -43q-96 0 -160.5 51t-74.5 142h116q8 -47 39.5 -72.5t81.5 -25.5q77 0 119.5 68t43.5 197q-26 -49 -73.5 -76t-111.5 -27t-116 30t-81.5 82.5t-29.5 117.5q0 67 32.5 121t90 85t128.5 31
q132 0 204 -94.5zM391 376.5q39 39.5 39 100.5t-39 100.5t-100 39.5t-100 -39.5t-39 -100.5t39 -100.5t100 -39.5t100 39.5z" />
    <glyph glyph-name="zero.tf.zero" 
d="M487 590q66 -90 66 -256t-66 -256t-187 -90t-187 90t-66 256t66 256t187 90t187 -90zM197 522q-35 -64 -35 -188q0 -56 7 -97l233 286q-35 63 -102 63q-68 0 -103 -64zM403 145.5q35 63.5 35 188.5q0 57 -7 98l-234 -286q34 -64 103 -64q68 0 103 63.5z" />
    <glyph glyph-name="zero.tf.zero.case" 
d="M491 617.5q67 -94.5 67 -267.5t-67 -267.5t-191 -94.5t-191.5 94.5t-67.5 267.5t67.5 267.5t191.5 94.5t191 -94.5zM194 548.5q-36 -67.5 -36 -198.5q0 -61 7 -103l243 296q-36 73 -108 73q-70 0 -106 -67.5zM405.5 151.5q36.5 67.5 36.5 198.5q0 51 -7 105l-244 -297
q36 -74 109 -74q69 0 105.5 67.5z" />
    <glyph glyph-name="zero.tosf" 
d="M163 24q-58 36 -89 103.5t-31 158.5q0 92 31 159.5t89 103.5t136 36q79 0 137.5 -36t89.5 -103.5t31 -159.5q0 -91 -31 -158.5t-89.5 -103.5t-137.5 -36q-78 0 -136 36zM405.5 135q37.5 53 37.5 151q0 99 -37.5 152t-106.5 53q-68 0 -105 -53t-37 -152q0 -98 37 -151
t105 -53q69 0 106.5 53z" />
    <glyph glyph-name="one.tosf" 
d="M368 572v-479h192v-93h-495v93h192v349l-112 -140l-64 54l176 216h111z" />
    <glyph glyph-name="two.tosf" 
d="M520 93v-93h-451q3 75 43 133t127 112l74 46q45 29 65.5 56.5t20.5 60.5q0 37 -26.5 61.5t-70.5 24.5q-48 0 -78 -28t-33 -75h-112q5 89 65 141t158 52q96 0 152.5 -48t56.5 -128q0 -55 -32.5 -100.5t-106.5 -92.5l-72 -45q-36 -23 -56.5 -40.5t-31.5 -36.5h308z" />
    <glyph glyph-name="three.tosf" 
d="M510 195.5q33 -42.5 33 -101.5t-31 -105t-86 -71.5t-125 -25.5q-116 0 -183 56t-71 156h114q5 -56 42 -87.5t97 -31.5q57 0 93 31t36 82q0 50 -35 78.5t-96 28.5h-58v93h55q55 0 87 26t32 70q0 43 -33 70t-84 27q-52 0 -87 -29t-41 -78h-113q8 93 73.5 146.5t167.5 53.5
q66 0 118.5 -23t81.5 -65t29 -96q0 -49 -28.5 -88t-78.5 -57q58 -17 91 -59.5z" />
    <glyph glyph-name="four.tosf" 
d="M470 180h93v-91h-93v-185h-108v185h-327v97l295 386h140v-392zM362 180v291q-7 -12 -15 -21q-11 -17 -22 -31l-146 -192l-18 -22l-20 -25h221z" />
    <glyph glyph-name="five.tosf" 
d="M445 319.5q49 -28.5 76 -80t27 -117.5q0 -67 -31 -119t-87 -81.5t-128 -29.5q-109 0 -172.5 52.5t-70.5 148.5h113q7 -52 41 -80t88 -28q60 0 96.5 37.5t36.5 99.5q0 63 -35.5 101t-94.5 38q-39 0 -71 -18t-47 -50h-107l4 379h427v-93h-326l-2 -193q54 62 151 62
q63 0 112 -28.5z" />
    <glyph glyph-name="six.tosf" 
d="M447.5 405.5q49.5 -28.5 78 -78.5t28.5 -112q0 -65 -31.5 -116.5t-86.5 -81t-123 -29.5q-126 0 -195 90t-69 256q0 108 32.5 186t92.5 119t143 41q93 0 154 -49.5t71 -136.5h-113q-8 46 -37.5 69.5t-76.5 23.5q-72 0 -112.5 -64t-41.5 -185q25 46 70 71t106 25
t110.5 -28.5zM402.5 118q36.5 37 36.5 95t-36.5 95t-94.5 37t-94.5 -37t-36.5 -95t36.5 -95t94.5 -37t94.5 37z" />
    <glyph glyph-name="seven.tosf" 
d="M47 572h501v-97q-113 -99 -181.5 -241t-85.5 -330h-126q22 183 93.5 327.5t188.5 245.5h-390v95z" />
    <glyph glyph-name="eight.tosf" 
d="M514 286.5q36 -43.5 36 -102.5q0 -57 -32 -101.5t-89 -69.5t-129 -25t-129 25t-89 69.5t-32 101.5q0 60 36 103t102 61q-56 17 -88 58t-32 94t29.5 94t82 63.5t120.5 22.5t120.5 -22.5t82 -63.5t29.5 -94q0 -54 -32 -94.5t-88 -57.5q66 -18 102 -61.5zM211.5 561.5
q-33.5 -27.5 -33.5 -72.5t33.5 -72.5t88.5 -27.5t88.5 27.5t33.5 72.5t-33.5 72.5t-88.5 27.5t-88.5 -27.5zM398.5 110q37.5 31 37.5 82q0 50 -37 80.5t-99 30.5t-99 -30.5t-37 -80.5q0 -51 37.5 -82t98.5 -31t98.5 31z" />
    <glyph glyph-name="nine.tosf" 
d="M483.5 495q69.5 -90 69.5 -256q0 -109 -32.5 -186.5t-93.5 -118.5t-145 -41q-94 0 -155 49.5t-71 136.5h113q8 -46 38 -69.5t77 -23.5q74 0 115 64t42 186q-25 -46 -70.5 -71.5t-107.5 -25.5t-112 28.5t-78.5 78t-28.5 112.5q0 65 31.5 116.5t87 81t124.5 29.5
q127 0 196.5 -90zM387.5 265q37.5 37 37.5 95t-37.5 95t-95.5 37q-59 0 -96.5 -37t-37.5 -95t37.5 -95t96.5 -37q58 0 95.5 37z" />
    <glyph glyph-name="zero.tosf.zero" 
d="M436.5 549q58.5 -36 89.5 -103.5t31 -159.5q0 -91 -31 -158.5t-89.5 -103.5t-137.5 -36q-78 0 -136 36t-89 103.5t-31 158.5q0 92 31 159.5t89 103.5t136 36q79 0 137.5 -36zM194 438q-37 -53 -37 -152q0 -50 11 -91l229 253q-37 43 -98 43q-68 0 -105 -53zM405.5 135
q37.5 53 37.5 151q0 51 -11 92l-229 -254q36 -42 96 -42q69 0 106.5 53z" />
    <glyph glyph-name="zero.dnom" horiz-adv-x="388" 
d="M70 47.5q-43 54.5 -43 152.5t43 153t120 55t119.5 -54.5t42.5 -153.5q0 -98 -42.5 -152.5t-119.5 -54.5t-120 54.5zM247.5 97.5q19.5 35.5 19.5 102.5q0 68 -20 103.5t-57 35.5q-38 0 -58 -36t-20 -103t20 -102.5t58 -35.5t57.5 35.5z" />
    <glyph glyph-name="one.dnom" horiz-adv-x="226" 
d="M-1 294l87 107h81v-401h-82v310l-42 -53z" />
    <glyph glyph-name="two.dnom" horiz-adv-x="354" 
d="M318 66v-66h-297q3 52 28 90.5t76 74.5l46 34q60 42 60 85q0 26 -16 42t-42 16q-29 0 -46 -18t-18 -47h-84q2 60 41.5 95.5t105.5 35.5q65 0 104 -34t39 -89q0 -39 -23.5 -73t-74.5 -71l-46 -33q-31 -22 -44 -42h191z" />
    <glyph glyph-name="three.dnom" horiz-adv-x="367" 
d="M311 175q19 -26 19 -60q0 -54 -42.5 -88t-108.5 -34q-72 0 -114 34t-44 96h85q3 -30 22 -46.5t51 -16.5q29 0 47.5 16t18.5 43q0 26 -18.5 40.5t-50.5 14.5h-34v66h33q28 0 45 13.5t17 36.5t-17 37.5t-44 14.5q-28 0 -46 -16.5t-20 -41.5h-84q4 58 44.5 91t105.5 33
q64 0 104 -31t40 -81q0 -29 -16.5 -51.5t-45.5 -33.5q34 -10 53 -36z" />
    <glyph glyph-name="four.dnom" horiz-adv-x="384" 
d="M297 171h56v-66h-56v-105h-79v105h-198v70l170 226h107v-230zM218 171v161q-11 -16 -20 -29l-80 -106q-7 -11 -22 -26h122z" />
    <glyph glyph-name="five.dnom" horiz-adv-x="364" 
d="M292 228.5q36 -37.5 36 -95.5q0 -62 -43 -101t-111 -39q-69 0 -108.5 32.5t-44.5 91.5h85q4 -28 22 -42.5t46 -14.5q30 0 49.5 20t19.5 52q0 33 -19 53t-49 20q-22 0 -38 -9.5t-24 -26.5h-80l3 232h269v-67h-194l-2 -104q33 36 91 36q56 0 92 -37.5z" />
    <glyph glyph-name="six.dnom" horiz-adv-x="380" 
d="M306.5 223q37.5 -37 37.5 -94q0 -59 -43 -97.5t-108 -38.5q-80 0 -123.5 54t-43.5 153t44.5 153.5t122.5 54.5q62 0 100.5 -31t43.5 -85h-84q-4 24 -20 37t-40 13q-39 0 -61.5 -35t-23.5 -100q16 26 43 39.5t61 13.5q57 0 94.5 -37zM239.5 78.5q19.5 19.5 19.5 49.5
t-19.5 50t-49.5 20q-31 0 -51 -20t-20 -50t20 -49.5t51 -19.5q30 0 49.5 19.5z" />
    <glyph glyph-name="seven.dnom" horiz-adv-x="320" 
d="M6 401h289v-72q-128 -107 -141 -329h-94q17 217 156 331h-210v70z" />
    <glyph glyph-name="eight.dnom" horiz-adv-x="375" 
d="M316.5 173q21.5 -26 21.5 -61q0 -53 -43.5 -86t-112.5 -33q-71 0 -114.5 33t-43.5 86q0 35 21.5 61t60.5 37q-33 10 -52 33.5t-19 55.5q0 49 40 79t107 30q66 0 106 -30t40 -79q0 -32 -19 -55.5t-53 -33.5q39 -11 60.5 -37zM134.5 327.5q-18.5 -14.5 -18.5 -37.5
t18 -37.5t48 -14.5q29 0 47 14.5t18 37.5t-18 37.5t-47 14.5t-47.5 -14.5zM234 75q20 16 20 43q0 26 -20 42t-52 16q-33 0 -53 -16t-20 -42q0 -27 20 -43t53 -16q32 0 52 16z" />
    <glyph glyph-name="nine.dnom" horiz-adv-x="380" 
d="M300 353.5q44 -54.5 44 -153.5q0 -98 -44.5 -152.5t-123.5 -54.5q-61 0 -99.5 31t-43.5 84h84q4 -24 20.5 -36.5t39.5 -12.5q39 0 61 34t23 99q-16 -25 -42.5 -38.5t-60.5 -13.5q-57 0 -94.5 37t-37.5 95q0 59 43.5 97.5t108.5 38.5q78 0 122 -54.5zM231 222.5
q20 19.5 20 49.5q0 31 -19.5 50.5t-50.5 19.5t-51 -19.5t-20 -50.5q0 -30 20 -49.5t51 -19.5q30 0 50 19.5z" />
    <glyph glyph-name="zero.numr" horiz-adv-x="387" 
d="M74 314.5q-43 54.5 -43 152.5t43 153t120 55t119.5 -54.5t42.5 -153.5q0 -98 -42.5 -152.5t-119.5 -54.5t-120 54.5zM251.5 364.5q19.5 35.5 19.5 102.5q0 68 -20 103.5t-57 35.5q-38 0 -58 -36t-20 -103t20 -102.5t58 -35.5t57.5 35.5z" />
    <glyph glyph-name="one.numr" horiz-adv-x="225" 
d="M4 561l87 107h81v-401h-82v310l-42 -53z" />
    <glyph glyph-name="two.numr" horiz-adv-x="353" 
d="M321 333v-66h-297q3 52 28 90.5t76 74.5l46 34q60 42 60 85q0 26 -16 42t-42 16q-29 0 -46 -18t-18 -47h-84q2 60 41.5 95.5t105.5 35.5q65 0 104 -34t39 -89q0 -39 -23.5 -73t-74.5 -71l-46 -33q-31 -22 -44 -42h191z" />
    </font>
</defs>
</svg>
