<?xml version="1.0" standalone="no"?>
<!DOCTYPE svg PUBLIC "-//W3C//DTD SVG 1.1//EN" "http://www.w3.org/Graphics/SVG/1.1/DTD/svg11.dtd" >
<svg xmlns="http://www.w3.org/2000/svg" xmlns:xlink="http://www.w3.org/1999/xlink" version="1.1">
<metadata>
Created by FontForge 20170731 at Tue Mar  7 13:19:51 2023
 By Aleksey,,,
Copyright (c) 2022 by Tom Baber. All rights reserved.
</metadata>
<defs>
<font id="FoldGrotesquePro-Bold" horiz-adv-x="600" >
  <font-face 
    font-family="Fold Grotesque Pro"
    font-weight="700"
    font-stretch="normal"
    units-per-em="1000"
    panose-1="2 11 8 3 3 2 1 4 1 3"
    ascent="800"
    descent="-200"
    x-height="474"
    cap-height="700"
    bbox="-374 -319 1317 972"
    underline-thickness="50"
    underline-position="-150"
    unicode-range="U+000D-FB02"
  />
<missing-glyph horiz-adv-x="677" 
d="M605 0h-533v700h533v-700zM170 608v-516h336v516h-336zM338 291l-86 -88l-60 61l87 86l-87 88l60 59l86 -87l86 87l61 -59l-88 -88l87 -86l-60 -60z" />
    <glyph glyph-name="f_i" unicode="fi" horiz-adv-x="614" 
d="M285 590q-53 0 -53 -51v-65h107v-106h-107v-368h-138v368h-64v106h64v94q0 65 34.5 98.5t101.5 33.5h109v-110h-54zM553 0h-138v474h138v-474zM555 542h-142v139h142v-139z" />
    <glyph glyph-name="f_l" unicode="fl" horiz-adv-x="614" 
d="M285 590q-53 0 -53 -51v-65h107v-106h-107v-368h-138v368h-64v106h64v94q0 65 34.5 98.5t101.5 33.5h109v-110h-54zM553 0h-138v700h138v-700z" />
    <glyph glyph-name=".notdef" horiz-adv-x="677" 
d="M605 0h-533v700h533v-700zM170 608v-516h336v516h-336zM338 291l-86 -88l-60 61l87 86l-87 88l60 59l86 -87l86 87l61 -59l-88 -88l87 -86l-60 -60z" />
    <glyph glyph-name=".null" horiz-adv-x="0" 
 />
    <glyph glyph-name="nonmarkingreturn" unicode="&#xd;" horiz-adv-x="212" 
 />
    <glyph glyph-name="space" unicode=" " horiz-adv-x="212" 
 />
    <glyph glyph-name="exclam" unicode="!" horiz-adv-x="282" 
d="M195 220h-108l-23 480h154zM218 0h-154v154h154v-154z" />
    <glyph glyph-name="quotedbl" unicode="&#x22;" horiz-adv-x="429" 
d="M178 388h-102l-18 280h138zM371 388h-102l-18 280h138z" />
    <glyph glyph-name="numbersign" unicode="#" horiz-adv-x="662" 
d="M629 493l-18 -94h-103l-23 -130h103l-18 -95h-103l-32 -174h-107l32 174h-119l-32 -174h-107l32 174h-103l18 95h103l23 130h-101l18 94h101l32 175h107l-32 -175h119l32 175h107l-32 -175h103zM259 269h119l23 130h-119z" />
    <glyph glyph-name="dollar" unicode="$" horiz-adv-x="584" 
d="M492 70q-53 -53 -143 -65v-99h-104v99q-97 13 -152.5 68.5t-58.5 143.5h137q3 -35 22.5 -59.5t51.5 -35.5v169l-17 4q-179 38 -179 185q0 72 54.5 122t141.5 61v98h104v-101q87 -14 137.5 -65.5t53.5 -131.5h-138q-5 56 -53 79v-149l11 -2q90 -20 137.5 -67t47.5 -121
q0 -80 -53 -133zM245 416v132q-27 -8 -42.5 -25.5t-15.5 -42.5q0 -46 58 -64zM349 120q29 9 45.5 28.5t16.5 46.5q0 52 -62 73v-148z" />
    <glyph glyph-name="percent" unicode="%" horiz-adv-x="870" 
d="M108 346q-41 23 -64.5 64t-23.5 92q0 50 23.5 90.5t64.5 63.5t92 23q52 0 93.5 -23t65 -63.5t23.5 -90.5q0 -51 -23.5 -92t-65 -64t-93.5 -23q-51 0 -92 23zM722 618l-498 -629l-77 60l498 630zM255 440q21 24 21 62q0 37 -20.5 60.5t-54.5 23.5q-33 0 -54 -23t-21 -61
q0 -39 21 -62.5t54 -23.5t54 24zM576 11q-41 23 -64.5 64t-23.5 92q0 50 23.5 90.5t64.5 63.5t92 23q52 0 93.5 -23t65 -63.5t23.5 -90.5q0 -51 -23.5 -92t-65 -64t-93.5 -23q-51 0 -92 23zM723 105q21 24 21 62q0 37 -21 60.5t-54 23.5t-54 -23t-21 -61t20.5 -62t54.5 -24
q33 0 54 24z" />
    <glyph glyph-name="ampersand" unicode="&#x26;" horiz-adv-x="659" 
d="M664 0h-162l-40 48q-37 -30 -83.5 -45t-98.5 -15q-75 0 -130 26t-85 72.5t-30 108.5q0 63 34.5 110t106.5 88l-6 7q-66 80 -66 144q0 76 53 122t140 46t140 -44t53 -118q0 -53 -31 -97t-102 -86l115 -137q17 46 22 90h119q-8 -111 -62 -184zM255.5 586
q-16.5 -16 -16.5 -42q0 -21 8.5 -38t30.5 -44l9 -11l7 4q34 18 50.5 39t16.5 48q0 28 -16.5 44t-44.5 16t-44.5 -16zM388 138l-140 168q-70 -43 -70 -103q0 -44 30 -70.5t80 -26.5q56 0 100 32z" />
    <glyph glyph-name="quotesingle" unicode="'" horiz-adv-x="236" 
d="M169 388h-102l-18 280h138z" />
    <glyph glyph-name="parenleft" unicode="(" horiz-adv-x="346" 
d="M320 -105q-79 6 -143.5 60.5t-101.5 149t-37 215.5t37 215.5t101.5 149t143.5 60.5v-114q-71 -19 -112.5 -101t-41.5 -210t41.5 -210t112.5 -101v-114z" />
    <glyph glyph-name="parenright" unicode=")" horiz-adv-x="346" 
d="M26 9q71 19 112.5 101t41.5 210t-41.5 210t-112.5 101v114q79 -6 143.5 -60.5t101.5 -149t37 -215.5t-37 -215.5t-101.5 -149t-143.5 -60.5v114z" />
    <glyph glyph-name="asterisk" unicode="*" horiz-adv-x="453" 
d="M227 442l-66 -110l-87 63l84 97l-125 29l33 102l119 -50l-12 127h108l-12 -128l118 51l33 -103l-125 -28l85 -97l-87 -63z" />
    <glyph glyph-name="plus" unicode="+" horiz-adv-x="570" 
d="M341 354h193v-110h-193v-193h-112v193h-193v110h193v193h112v-193z" />
    <glyph glyph-name="comma" unicode="," horiz-adv-x="266" 
d="M56 154h154v-168q0 -74 -40 -117t-114 -49v68q38 5 58 30.5t20 67.5v14h-78v154z" />
    <glyph glyph-name="hyphen" unicode="-" horiz-adv-x="377" 
d="M328 213h-279v122h279v-122z" />
    <glyph glyph-name="period" unicode="." horiz-adv-x="262" 
d="M208 0h-154v154h154v-154z" />
    <glyph glyph-name="slash" unicode="/" horiz-adv-x="542" 
d="M530 690l-410 -795l-108 54l411 795z" />
    <glyph glyph-name="zero" unicode="0" horiz-adv-x="632" 
d="M116 78q-71 90 -71 256t71 256t200 90t200 -90t71 -256t-71 -256t-200 -90t-200 90zM410.5 163q32.5 59 32.5 171t-32.5 171t-94.5 59t-94.5 -59t-32.5 -171t32.5 -171t94.5 -59t94.5 59z" />
    <glyph glyph-name="one" unicode="1" horiz-adv-x="361" 
d="M3 490l145 178h135v-668h-139v511l-67 -84z" />
    <glyph glyph-name="two" unicode="2" horiz-adv-x="574" 
d="M529 114v-114h-497q5 84 46.5 149.5t127.5 126.5l79 56q96 68 96 142q0 41 -26 66.5t-69 25.5q-46 0 -74 -28t-30 -76h-142q4 101 69.5 159.5t176.5 58.5q71 0 125 -26t84 -73t30 -108q0 -65 -39 -121.5t-126 -119.5l-77 -56q-48 -36 -70 -62h316z" />
    <glyph glyph-name="three" unicode="3" horiz-adv-x="594" 
d="M519.5 291q31.5 -41 31.5 -97q0 -61 -32 -108t-89 -72.5t-130 -25.5q-122 0 -191 57t-73 161h143q4 -50 35.5 -77t83.5 -27q49 0 79 26t30 70q0 42 -30 66.5t-82 24.5h-58v114h53q48 0 75.5 21.5t27.5 58.5t-27.5 60t-71.5 23q-46 0 -74.5 -24.5t-33.5 -66.5h-142
q7 96 74 150.5t176 54.5q70 0 124.5 -23.5t85 -66.5t30.5 -98q0 -47 -27 -85t-74 -57q55 -18 86.5 -59z" />
    <glyph glyph-name="four" unicode="4" horiz-adv-x="624" 
d="M498 286h90v-112h-90v-174h-135v174h-329v119l284 375h180v-382zM363 286v261q-14 -21 -27 -39l-141 -186q-14 -19 -30 -36h198z" />
    <glyph glyph-name="five" unicode="5" horiz-adv-x="596" 
d="M452 415.5q49 -28.5 76 -80t27 -116.5q0 -67 -32.5 -119.5t-91 -82t-132.5 -29.5q-116 0 -182 54t-73 154h142q7 -45 36 -69.5t76 -24.5q51 0 82 32t31 85q0 54 -31 86.5t-81 32.5q-33 0 -60 -15t-40 -41h-135l4 386h449v-114h-322l-2 -167q54 57 146 57q64 0 113 -28.5z
" />
    <glyph glyph-name="six" unicode="6" horiz-adv-x="616" 
d="M466 406q50 -28 79 -77.5t29 -111.5q0 -65 -33 -117.5t-90.5 -82t-127.5 -29.5q-133 0 -206 90t-73 256q0 167 74 256.5t207 89.5q99 0 163 -51t74 -142h-142q-7 40 -32.5 59.5t-65.5 19.5q-63 0 -99 -54t-39 -161q55 83 170 83q62 0 112 -28zM398 133q32 31 32 81
t-32 81t-83 31t-83 -31t-32 -81t32 -81t83 -31t83 31z" />
    <glyph glyph-name="seven" unicode="7" horiz-adv-x="521" 
d="M19 668h479v-122q-106 -90 -163.5 -225.5t-69.5 -320.5h-159q31 359 258 550h-345v118z" />
    <glyph glyph-name="eight" unicode="8" horiz-adv-x="610" 
d="M532.5 287q34.5 -43 34.5 -101t-33.5 -103t-93 -70t-135.5 -25t-135.5 25t-93 70t-33.5 103t34.5 101t99.5 63q-54 17 -85.5 56t-31.5 93t30.5 95t86.5 63.5t128 22.5t128 -22.5t86.5 -63.5t30.5 -95t-31.5 -93t-85.5 -56q65 -20 99.5 -63zM227.5 544.5
q-29.5 -23.5 -29.5 -61.5t29.5 -61.5t77.5 -23.5t77.5 23.5t29.5 61.5t-29.5 61.5t-77.5 23.5t-77.5 -23.5zM390.5 126.5q32.5 26.5 32.5 70.5t-32.5 70.5t-85.5 26.5t-85.5 -26.5t-32.5 -70.5t32.5 -70.5t85.5 -26.5t85.5 26.5z" />
    <glyph glyph-name="nine" unicode="9" horiz-adv-x="616" 
d="M499 590q73 -90 73 -256q0 -167 -74 -256.5t-207 -89.5q-99 0 -163 51t-74 142h142q7 -40 32.5 -59.5t65.5 -19.5q63 0 99 54t39 161q-55 -83 -170 -83q-62 0 -112 28t-79 77.5t-29 111.5q0 65 33 117.5t90.5 82t127.5 29.5q133 0 206 -90zM384 373q32 31 32 81t-32 81
t-83 31t-83 -31t-32 -81t32 -81t83 -31t83 31z" />
    <glyph glyph-name="colon" unicode=":" horiz-adv-x="264" 
d="M209 320h-154v154h154v-154zM209 0h-154v154h154v-154z" />
    <glyph glyph-name="semicolon" unicode=";" horiz-adv-x="266" 
d="M56 320v154h154v-154h-154zM56 0v154h154v-168q0 -74 -40 -117t-114 -49v68q38 5 58 30.5t20 67.5v14h-78z" />
    <glyph glyph-name="less" unicode="&#x3c;" horiz-adv-x="574" 
d="M508 46l-454 190v129l454 189v-122l-227 -91q-40 -16 -113 -41q17 -5 53 -18t60 -23l227 -91v-122z" />
    <glyph glyph-name="equal" unicode="=" horiz-adv-x="580" 
d="M527 358h-474v110h474v-110zM527 130h-474v110h474v-110z" />
    <glyph glyph-name="greater" unicode="&#x3e;" horiz-adv-x="574" 
d="M66 46v122l227 91q40 16 113 41q-17 5 -53 18t-60 23l-227 91v122l454 -190v-129z" />
    <glyph glyph-name="question" unicode="?" horiz-adv-x="513" 
d="M173 220q-1 51 16 89t54 70l44 38q50 43 50 100q0 36 -24.5 58.5t-62.5 22.5q-45 0 -70 -27t-26 -71h-139q0 63 29.5 111t82.5 74.5t124 26.5q67 0 119 -23.5t81 -67.5t29 -102q0 -54 -23 -97.5t-70 -79.5l-29 -22q-30 -23 -44 -44.5t-16 -55.5h-125zM316 0h-154v154h154
v-154z" />
    <glyph glyph-name="at" unicode="@" horiz-adv-x="886" 
d="M640 436l-24 -219q-1 -7 -1 -20q0 -33 13 -51.5t38 -18.5q35 0 54 39t19 111q0 76 -37 137.5t-102 96t-146 34.5q-90 0 -160.5 -39t-110.5 -108.5t-40 -157.5q0 -85 38.5 -153t106 -106.5t152.5 -38.5q55 0 97 10.5t92 36.5l38 -91q-101 -56 -227 -56q-116 0 -208.5 51
t-144.5 142t-52 205q0 116 54 208.5t150.5 144.5t218.5 52q111 0 199.5 -47t139 -130.5t50.5 -188.5q0 -72 -23.5 -127t-66 -85t-99.5 -30q-46 0 -79.5 20.5t-46.5 59.5q-19 -38 -55.5 -59t-81.5 -21q-48 0 -85.5 24.5t-58.5 68.5t-21 100q0 62 23 111t64.5 76.5t94.5 27.5
q37 0 68 -18t47 -51l7 60h106zM488.5 161.5q24.5 34.5 24.5 90.5q0 47 -21 75t-55 28q-41 0 -66 -34.5t-25 -90.5q0 -47 21 -75t57 -28q40 0 64.5 34.5z" />
    <glyph glyph-name="A" unicode="A" horiz-adv-x="717" 
d="M712 0h-154l-58 159h-288l-57 -159h-150l271 700h165zM255 280h202l-68 187q-18 47 -34 108q-11 -41 -34 -108z" />
    <glyph glyph-name="B" unicode="B" horiz-adv-x="668" 
d="M589.5 311.5q39.5 -43.5 39.5 -108.5q0 -95 -70.5 -149t-194.5 -54h-286v700h298q106 0 167.5 -49.5t61.5 -134.5q0 -57 -34.5 -96t-91.5 -53q71 -12 110.5 -55.5zM430.5 559q-26.5 21 -71.5 21h-137v-158h137q45 0 71.5 21t26.5 58t-26.5 58zM364 120q53 0 84 24.5
t31 66.5t-31 66.5t-84 24.5h-142v-182h142z" />
    <glyph glyph-name="C" unicode="C" horiz-adv-x="746" 
d="M209 33.5q-79 45.5 -124 127.5t-45 189t46 189t127.5 127.5t183.5 45.5q85 0 153 -29.5t111.5 -84t55.5 -127.5h-150q-16 52 -61 84.5t-109 32.5q-61 0 -108 -29.5t-73 -83.5t-26 -125t25 -125t70 -83.5t104 -29.5q64 0 108.5 32.5t65.5 86.5h152q-15 -72 -62 -127.5
t-116 -85.5t-150 -30q-99 0 -178 45.5z" />
    <glyph glyph-name="D" unicode="D" horiz-adv-x="752" 
d="M542.5 658q81.5 -42 125 -121t43.5 -187t-43.5 -187t-125 -121t-194.5 -42h-270v700h270q113 0 194.5 -42zM343 124q106 0 162 58.5t56 167.5t-56 167.5t-162 58.5h-121v-452h121z" />
    <glyph glyph-name="E" unicode="E" horiz-adv-x="602" 
d="M222 304v-180h335v-124h-479v700h475v-124h-331v-148h288v-124h-288z" />
    <glyph glyph-name="F" unicode="F" horiz-adv-x="583" 
d="M554 700v-124h-332v-155h289v-124h-289v-297h-144v700h476z" />
    <glyph glyph-name="G" unicode="G" horiz-adv-x="776" 
d="M455 222v124h258v-346h-125v93q-31 -50 -86.5 -77.5t-127.5 -27.5q-96 0 -172 46.5t-119 129t-43 186.5q0 107 46 189t127.5 127.5t185.5 45.5q83 0 150.5 -29.5t110 -83.5t53.5 -125h-150q-17 53 -60.5 83.5t-105.5 30.5q-61 0 -108 -29t-73 -83t-26 -126
q0 -68 27 -122.5t75 -85t109 -30.5q64 0 110.5 28t66.5 82h-123z" />
    <glyph glyph-name="H" unicode="H" horiz-adv-x="737" 
d="M515 428v272h144v-700h-144v304h-293v-304h-144v700h144v-272h293z" />
    <glyph glyph-name="I" unicode="I" horiz-adv-x="300" 
d="M222 0h-144v700h144v-700z" />
    <glyph glyph-name="J" unicode="J" horiz-adv-x="543" 
d="M76 46q-58 58 -58 168h138q1 -51 23 -78.5t63 -27.5q40 0 62 27.5t22 80.5v484h144v-484q0 -109 -61 -168.5t-167 -59.5q-108 0 -166 58z" />
    <glyph glyph-name="K" unicode="K" horiz-adv-x="693" 
d="M703 0h-182l-241 320l-58 -57v-263h-144v700h144v-276l278 276h187l-298 -290z" />
    <glyph glyph-name="L" unicode="L" horiz-adv-x="556" 
d="M222 700v-574l308 -3v-126l-452 3v700h144z" />
    <glyph glyph-name="M" unicode="M" horiz-adv-x="914" 
d="M78 0v700h215l136 -423q12 -37 29 -105q17 68 29 105l136 423h213v-700h-134v482q0 54 3 100l-185 -582h-132l-185 582q3 -46 3 -100v-482h-128z" />
    <glyph glyph-name="N" unicode="N" horiz-adv-x="757" 
d="M78 0v700h199l271 -531q-2 48 -2 120v411h133v-700h-185l-285 559q2 -48 2 -120v-439h-133z" />
    <glyph glyph-name="O" unicode="O" horiz-adv-x="798" 
d="M212 33.5q-81 45.5 -126.5 127.5t-45.5 189t45.5 189t126.5 127.5t186 45.5t186.5 -45.5t127.5 -127.5t46 -189t-46 -189t-127.5 -127.5t-186.5 -45.5t-186 45.5zM508 142q48 30 74 84t26 124t-26 124t-74 84t-110 30t-109 -30t-73 -84t-26 -124t26 -124t73 -84t109 -30
t110 30z" />
    <glyph glyph-name="P" unicode="P" horiz-adv-x="639" 
d="M548.5 643q66.5 -57 66.5 -158t-66.5 -158t-188.5 -57h-138v-270h-144v700h282q122 0 188.5 -57zM351 391q55 0 84.5 24.5t29.5 69.5t-29.5 69.5t-84.5 24.5h-129v-188h129z" />
    <glyph glyph-name="Q" unicode="Q" horiz-adv-x="798" 
d="M721.5 178q-36.5 -76 -103.5 -124t-155 -61v-34q0 -39 41 -39h51v-120h-88q-69 0 -100.5 28.5t-31.5 90.5v73q-89 13 -155.5 61t-103 124.5t-36.5 172.5q0 107 45 189.5t126.5 127.5t186.5 45q106 0 187.5 -45.5t127 -127.5t45.5 -189q0 -96 -36.5 -172zM216 226
q26 -54 73 -84t109 -30t110 30t74 84t26 124t-26 124t-74 84t-110 30t-109 -30t-73 -84t-26 -124t26 -124z" />
    <glyph glyph-name="R" unicode="R" horiz-adv-x="668" 
d="M596 121q0 -43 3.5 -66.5t12.5 -54.5h-148q-5 23 -7.5 47t-2.5 66v89q0 45 -20.5 65.5t-64.5 20.5h-147v-288h-144v700h315q69 0 120 -24.5t78.5 -67t27.5 -97.5q0 -61 -37 -103t-99 -56q61 -10 87 -45.5t26 -105.5v-80zM366 408q49 0 76 23t27 63t-27 63t-76 23h-144
v-172h144z" />
    <glyph glyph-name="S" unicode="S" horiz-adv-x="640" 
d="M114.5 49q-76.5 61 -82.5 172h148q5 -53 44.5 -84t103.5 -31q58 0 91.5 25t33.5 68q0 62 -92 83l-113 25q-95 21 -145.5 73t-50.5 129q0 59 32.5 105t92 72t137.5 26q82 0 144.5 -26t98 -74.5t37.5 -113.5h-146q-4 46 -40.5 72t-92.5 26q-52 0 -83.5 -23.5t-31.5 -59.5
q0 -62 86 -80l125 -27q91 -19 140.5 -72t49.5 -129q0 -65 -34.5 -114t-97 -76t-143.5 -27q-135 0 -211.5 61z" />
    <glyph glyph-name="T" unicode="T" horiz-adv-x="595" 
d="M22 700h551v-126h-203v-575h-144v575h-204v126z" />
    <glyph glyph-name="U" unicode="U" horiz-adv-x="740" 
d="M211 22.5q-67 34.5 -103.5 99t-36.5 154.5v424h144v-414q0 -83 40.5 -128.5t114.5 -45.5q75 0 115.5 45.5t40.5 128.5v414h143v-418q0 -91 -36.5 -157.5t-104 -101.5t-158.5 -35q-92 0 -159 34.5z" />
    <glyph glyph-name="V" unicode="V" horiz-adv-x="703" 
d="M271 0l-265 700h154l154 -428q20 -57 40 -123q20 66 40 123l153 428h150l-265 -700h-161z" />
    <glyph glyph-name="W" unicode="W" horiz-adv-x="992" 
d="M197 0l-178 700h146l95 -413q10 -44 30 -142q11 55 31 142l97 413h164l97 -413q20 -87 31 -142q20 98 30 142l95 413h138l-178 -700h-172l-106 446q-11 44 -21 96q-11 -52 -21 -96l-107 -446h-171z" />
    <glyph glyph-name="X" unicode="X" horiz-adv-x="700" 
d="M-2 0l262 360l-247 340h175l122 -180q30 -46 41 -63q11 20 40 63l123 180h170l-245 -336l265 -364h-180l-133 196q-21 30 -42 66q-21 -36 -42 -66l-134 -196h-175z" />
    <glyph glyph-name="Y" unicode="Y" horiz-adv-x="683" 
d="M677 700l-263 -419v-281h-144v278l-264 422h161l133 -219q23 -36 45 -78q28 53 44 78l132 219h156z" />
    <glyph glyph-name="Z" unicode="Z" horiz-adv-x="638" 
d="M589 580l-379 -456h392v-124h-563v121l379 455h-372l-1 124h544v-120z" />
    <glyph glyph-name="bracketleft" unicode="[" horiz-adv-x="365" 
d="M336 -93h-263v825h263v-112h-135v-601h135v-112z" />
    <glyph glyph-name="backslash" unicode="\" horiz-adv-x="541" 
d="M530 -53l-107 -54l-411 798l107 54z" />
    <glyph glyph-name="bracketright" unicode="]" horiz-adv-x="365" 
d="M292 -93h-263v112h135v601h-135v112h263v-825z" />
    <glyph glyph-name="asciicircum" unicode="^" horiz-adv-x="562" 
d="M24 373l192 327h130l192 -327h-135l-75 136q-27 50 -46 91q-27 -56 -46 -90l-77 -137h-135z" />
    <glyph glyph-name="underscore" unicode="_" horiz-adv-x="554" 
d="M517 -167h-480v112h480v-112z" />
    <glyph glyph-name="grave" unicode="`" horiz-adv-x="308" 
d="M258 541h-105l-103 141h145z" />
    <glyph glyph-name="a" unicode="a" horiz-adv-x="524" 
d="M468 91q0 -51 4 -91h-127q-1 17 -1 52v6q-47 -70 -146 -70q-75 0 -121 40.5t-46 103.5q0 64 47.5 102t138.5 49l67 8q51 7 51 42q0 25 -19 41t-50 16q-34 0 -55.5 -16.5t-25.5 -45.5h-137q9 73 67.5 115.5t147.5 42.5q96 0 150.5 -49t54.5 -137v-209zM334 227
q-8 -8 -19.5 -13t-30.5 -9l-45 -9q-67 -13 -67 -58q0 -24 18.5 -39t47.5 -15q43 0 69.5 26.5t26.5 69.5v47z" />
    <glyph glyph-name="b" unicode="b" horiz-adv-x="586" 
d="M448 454q48 -32 75.5 -89t27.5 -128q0 -74 -26.5 -130.5t-75 -87.5t-111.5 -31q-49 0 -86 20.5t-57 58.5v-67h-134v700h138v-291q20 37 56.5 57t84.5 20q60 0 108 -32zM379 136.5q30 38.5 30 100.5t-30 100.5t-79 38.5q-48 0 -77.5 -38.5t-29.5 -100.5t29.5 -100.5
t77.5 -38.5q49 0 79 38.5z" />
    <glyph glyph-name="c" unicode="c" horiz-adv-x="544" 
d="M152 19.5q-56 31.5 -87.5 88t-31.5 129.5t32 129.5t88.5 88t129.5 31.5q97 0 160.5 -48.5t71.5 -129.5h-138q-8 32 -31.5 50t-59.5 18q-50 0 -80.5 -38t-30.5 -101t30 -101t80 -38q35 0 59.5 17.5t33.5 49.5h138q-11 -80 -76 -128.5t-160 -48.5q-72 0 -128 31.5z" />
    <glyph glyph-name="d" unicode="d" horiz-adv-x="586" 
d="M387 700h138v-700h-134v67q-20 -38 -57 -58.5t-86 -20.5q-63 0 -111.5 31t-75 87.5t-26.5 130.5q0 71 27.5 128t75.5 89t108 32q48 0 84.5 -20t56.5 -57v291zM363.5 136.5q29.5 38.5 29.5 100.5t-29.5 100.5t-77.5 38.5q-49 0 -79 -38.5t-30 -100.5t30 -100.5t79 -38.5
q48 0 77.5 38.5z" />
    <glyph glyph-name="e" unicode="e" horiz-adv-x="545" 
d="M510 201h-338q4 -51 32 -78t74 -27q32 0 55.5 14.5t32.5 39.5h138q-15 -75 -76.5 -118.5t-152.5 -43.5q-72 0 -126.5 31t-84.5 87.5t-30 130.5q0 73 31 129.5t85 88t122 31.5q117 0 177.5 -67.5t60.5 -182.5v-35zM208 362.5q-29 -23.5 -35 -69.5h202q-1 43 -28.5 68
t-69.5 25q-40 0 -69 -23.5z" />
    <glyph glyph-name="f" unicode="f" horiz-adv-x="354" 
d="M285 590q-53 0 -53 -51v-65h107v-106h-107v-368h-138v368h-64v106h64v94q0 65 34.5 98.5t101.5 33.5h109v-110h-54z" />
    <glyph glyph-name="g" unicode="g" horiz-adv-x="579" 
d="M385 474h134v-477q0 -102 -65 -155.5t-176 -53.5q-101 0 -161.5 46t-66.5 126h138q7 -32 31.5 -49t63.5 -17q47 0 72.5 25.5t25.5 74.5v83q-20 -35 -55 -54t-83 -19q-60 0 -107.5 31t-74 85.5t-26.5 122.5q0 72 29 127t78.5 85.5t110.5 30.5q92 0 132 -73v61zM358 147
q29 37 29 96t-29 96t-75 37q-47 0 -76.5 -37.5t-29.5 -95.5t29.5 -95.5t76.5 -37.5q46 0 75 37z" />
    <glyph glyph-name="h" unicode="h" horiz-adv-x="560" 
d="M457.5 436q46.5 -50 46.5 -142v-294h-138v274q0 49 -20 75.5t-56 26.5q-42 0 -66.5 -32t-24.5 -88v-256h-138v700h138v-288q21 36 57 55t80 19q75 0 121.5 -50z" />
    <glyph glyph-name="i" unicode="i" horiz-adv-x="260" 
d="M199 0h-138v474h138v-474zM201 542h-142v139h142v-139z" />
    <glyph glyph-name="j" unicode="j" horiz-adv-x="260" 
d="M-15 -200v112h33q43 0 43 45v517h138v-539q0 -67 -31 -101t-109 -34h-74zM201 542h-142v139h142v-139z" />
    <glyph glyph-name="k" unicode="k" horiz-adv-x="529" 
d="M534 0h-168l-141 194l-26 -26v-168h-138v700h138v-390l156 164h172l-201 -193z" />
    <glyph glyph-name="l" unicode="l" horiz-adv-x="260" 
d="M199 0h-138v700h138v-700z" />
    <glyph glyph-name="m" unicode="m" horiz-adv-x="836" 
d="M736 435q44 -51 44 -136v-299h-138v282q0 45 -19 69.5t-51 24.5q-37 0 -60 -29t-23 -80v-267h-138v283q0 45 -19 69t-52 24q-37 0 -59 -29t-22 -80v-267h-138v474h134v-74q41 86 136 86q48 0 84.5 -25.5t55.5 -70.5q24 46 61.5 71t86.5 25q73 0 117 -51z" />
    <glyph glyph-name="n" unicode="n" horiz-adv-x="560" 
d="M457.5 435.5q46.5 -50.5 46.5 -143.5v-292h-138v271q0 50 -20.5 77.5t-59.5 27.5q-40 0 -63.5 -29t-23.5 -79v-268h-138v474h134v-75q20 43 56.5 65t84.5 22q75 0 121.5 -50.5z" />
    <glyph glyph-name="o" unicode="o" horiz-adv-x="572" 
d="M154 19q-57 31 -88.5 87.5t-31.5 130.5t31.5 130.5t88.5 87.5t132 31t132 -31t88.5 -87.5t31.5 -130.5t-31.5 -130.5t-88.5 -87.5t-132 -31t-132 31zM366 136q30 38 30 101t-30 101t-80 38t-80 -38t-30 -101t30 -101t80 -38t80 38z" />
    <glyph glyph-name="p" unicode="p" horiz-adv-x="586" 
d="M449.5 455q48.5 -31 75 -87.5t26.5 -130.5q0 -71 -27.5 -128t-75.5 -89t-108 -32q-48 0 -84.5 20t-56.5 57v-265h-138v674h134v-67q20 38 57 58.5t86 20.5q63 0 111.5 -31zM379 136.5q30 38.5 30 100.5t-30 100.5t-79 38.5q-48 0 -77.5 -38.5t-29.5 -100.5t29.5 -100.5
t77.5 -38.5q49 0 79 38.5z" />
    <glyph glyph-name="q" unicode="q" horiz-adv-x="585" 
d="M391 474h134v-674h-138v265q-20 -37 -56.5 -57t-84.5 -20q-60 0 -108 32t-75.5 89t-27.5 128q0 74 26.5 130.5t75 87.5t111.5 31q49 0 86 -20.5t57 -58.5v67zM363.5 136.5q29.5 38.5 29.5 100.5t-29.5 100.5t-77.5 38.5q-49 0 -79 -38.5t-30 -100.5t30 -100.5t79 -38.5
q48 0 77.5 38.5z" />
    <glyph glyph-name="r" unicode="r" horiz-adv-x="378" 
d="M193 379q18 57 61.5 84t103.5 23v-131q-82 3 -120.5 -33t-38.5 -122v-200h-138v474h132v-95z" />
    <glyph glyph-name="s" unicode="s" horiz-adv-x="490" 
d="M88.5 32.5q-56.5 44.5 -61.5 118.5h132q5 -30 28.5 -47.5t60.5 -17.5q34 0 53 13.5t19 36.5q0 33 -52 44l-85 17q-140 28 -140 143q0 42 25.5 75.5t70.5 52t102 18.5q92 0 146.5 -39.5t60.5 -109.5h-128q-5 26 -26 40.5t-53 14.5q-31 0 -49 -12.5t-18 -32.5q0 -34 45 -43
l89 -17q150 -29 150 -143q0 -71 -57.5 -113.5t-153.5 -42.5q-102 0 -158.5 44.5z" />
    <glyph glyph-name="t" unicode="t" horiz-adv-x="376" 
d="M339 368h-109v-206q0 -25 11.5 -37.5t40.5 -12.5h57v-112h-109q-70 0 -104 33.5t-34 101.5v233h-62v106h62v163h138v-163h109v-106z" />
    <glyph glyph-name="u" unicode="u" horiz-adv-x="560" 
d="M361 474h138v-474h-134v75q-20 -43 -56.5 -65t-84.5 -22q-75 0 -121.5 50.5t-46.5 143.5v292h138v-271q0 -50 20.5 -77.5t59.5 -27.5q40 0 63.5 29t23.5 79v268z" />
    <glyph glyph-name="v" unicode="v" horiz-adv-x="518" 
d="M184 0l-173 474h148l78 -253q9 -29 24 -86q15 57 24 86l82 253h139l-172 -474h-150z" />
    <glyph glyph-name="w" unicode="w" horiz-adv-x="757" 
d="M140 0l-118 474h138l51 -262l15 -89q14 62 21 89l67 262h139l67 -262q7 -27 21 -89l15 89l51 262h128l-118 -474h-155l-67 268q-10 44 -16 76q-6 -32 -16 -76l-68 -268h-155z" />
    <glyph glyph-name="x" unicode="x" horiz-adv-x="524" 
d="M3 0l174 242l-167 232h165l65 -104l24 -40l23 40l65 104h157l-163 -227l178 -247h-170l-69 111l-25 41l-25 -41l-70 -111h-162z" />
    <glyph glyph-name="y" unicode="y" horiz-adv-x="515" 
d="M59 -200v114h39q61 0 80 52l15 39l-188 469h153l80 -239q14 -44 24 -80q16 59 23 80l74 239h142l-203 -554q-22 -61 -65.5 -90.5t-109.5 -29.5h-64z" />
    <glyph glyph-name="z" unicode="z" horiz-adv-x="482" 
d="M437 370l-239 -262h248v-108h-408v104l239 262h-236v108h396v-104z" />
    <glyph glyph-name="braceleft" unicode="{" horiz-adv-x="387" 
d="M229 426q0 -91 -71 -106q71 -15 71 -106v-137q0 -58 61 -58h69v-112h-120q-70 0 -104 32.5t-34 99.5v176q0 28 -11 39.5t-37 11.5h-22v108h22q26 0 37 11.5t11 39.5v176q0 67 34 99.5t104 32.5h120v-112h-69q-61 0 -61 -58v-137z" />
    <glyph glyph-name="bar" unicode="|" horiz-adv-x="278" 
d="M199 -124h-120v906h120v-906z" />
    <glyph glyph-name="braceright" unicode="}" horiz-adv-x="388" 
d="M357 373v-108h-22q-26 0 -37 -11.5t-11 -39.5v-176q0 -67 -34 -99.5t-104 -32.5h-120v112h69q61 0 61 58v137q0 91 71 106q-71 15 -71 106v137q0 58 -61 58h-69v112h120q70 0 104 -32.5t34 -99.5v-176q0 -28 11 -39.5t37 -11.5h22z" />
    <glyph glyph-name="asciitilde" unicode="~" horiz-adv-x="638" 
d="M375.5 219q-30.5 11 -68.5 31q-30 15 -48 22t-36 7q-24 0 -38 -16.5t-14 -43.5h-117q0 83 37.5 127t108.5 44q36 0 65 -10.5t70 -30.5q29 -15 47.5 -22.5t37.5 -7.5q24 0 37.5 16.5t14.5 44.5h117q0 -83 -37.5 -127.5t-108.5 -44.5q-37 0 -67.5 11z" />
    <glyph glyph-name="uni00A0" unicode="&#xa0;" horiz-adv-x="212" 
 />
    <glyph glyph-name="exclamdown" unicode="&#xa1;" horiz-adv-x="280" 
d="M217 416h-154v154h154v-154zM217 -130h-154l23 480h108z" />
    <glyph glyph-name="cent" unicode="&#xa2;" horiz-adv-x="574" 
d="M533 165q-10 -68 -59 -114t-124 -59v-84h-102v84q-89 15 -143.5 81.5t-54.5 163.5q0 96 54 162t144 83v83h102v-83q77 -11 126 -57.5t56 -116.5h-138q-9 41 -44 58v-257q35 17 45 56h138zM206.5 162q14.5 -32 41.5 -49v248q-27 -17 -41.5 -49t-14.5 -75t14.5 -75z" />
    <glyph glyph-name="sterling" unicode="&#xa3;" horiz-adv-x="596" 
d="M262 169q-21 -36 -54 -55h344v-114h-496v119q92 46 92 129v9h-106v106h79q-19 59 -19 110q0 63 29.5 110t82.5 72t120 25q100 0 161 -52.5t65 -145.5h-141q-5 40 -28 62t-58 22q-42 0 -66.5 -25.5t-24.5 -68.5q0 -29 5 -52.5t15 -56.5h190v-106h-169v-8q0 -44 -21 -80z
" />
    <glyph glyph-name="currency" unicode="&#xa4;" horiz-adv-x="636" 
d="M523 176l68 -68l-77 -77l-68 67q-57 -33 -128 -33t-128 33l-68 -67l-77 77l68 68q-31 54 -31 123t31 123l-68 68l77 77l68 -67q57 33 128 33t128 -33l68 67l77 -77l-68 -68q31 -54 31 -123t-31 -123zM238 206q30 -35 80 -35t80 35t30 93t-30 93t-80 35t-80 -35t-30 -93
t30 -93z" />
    <glyph glyph-name="yen" unicode="&#xa5;" horiz-adv-x="628" 
d="M609 668l-192 -332h136v-91h-170v-52h170v-91h-170v-102h-139v102h-169v91h169v52h-169v91h134l-191 332h153l95 -179q1 -3 14 -27t37 -70q15 33 49 97l95 179h148z" />
    <glyph glyph-name="brokenbar" unicode="&#xa6;" horiz-adv-x="278" 
d="M199 388h-120v394h120v-394zM199 -124h-120v394h120v-394z" />
    <glyph glyph-name="section" unicode="&#xa7;" horiz-adv-x="527" 
d="M467 76q0 -47 -26 -84t-72 -58t-106 -21q-102 0 -158.5 45t-58.5 128h136q2 -33 23 -52t58 -19q32 0 52 16.5t20 42.5q0 19 -12 32t-41 23l-110 38q-62 21 -93 60t-31 90q0 74 80 118q-34 22 -50.5 52t-16.5 70q0 45 25.5 80t71 55t103.5 20q93 0 149.5 -44.5
t58.5 -119.5h-136q-2 28 -23 45t-52 17q-29 0 -47 -14.5t-18 -35.5q0 -33 46 -48l122 -41q60 -20 92.5 -57t32.5 -88q0 -36 -22 -69t-61 -56q64 -46 64 -125zM234 272l79 -29q41 27 41 61q0 23 -13 38t-41 25l-83 29q-37 -26 -37 -58q0 -47 54 -66z" />
    <glyph glyph-name="dieresis" unicode="&#xa8;" horiz-adv-x="425" 
d="M173 550h-123v123h123v-123zM375 550h-122v123h122v-123z" />
    <glyph glyph-name="copyright" unicode="&#xa9;" horiz-adv-x="860" 
d="M238 23.5q-87 49.5 -137 136t-50 190.5t50 190t137 135.5t192 49.5t192 -49.5t137 -135.5t50 -190t-50 -190.5t-137 -136t-192 -49.5t-192 49.5zM574.5 101q65.5 38 103 103.5t37.5 145.5q0 79 -37.5 144.5t-103 103.5t-144.5 38t-144.5 -38t-103 -103.5t-37.5 -144.5
q0 -80 37.5 -145.5t103 -103.5t144.5 -38t144.5 38zM325 169q-45 26 -70.5 73t-25.5 108t27 108t74 73t105 26q76 0 126 -42t58 -107h-99q-8 26 -31.5 42.5t-54.5 16.5q-44 0 -73 -33t-29 -84t27.5 -84t69.5 -33q63 0 89 59h100q-13 -67 -66 -108t-124 -41q-58 0 -103 26z
" />
    <glyph glyph-name="ordfeminine" unicode="&#xaa;" horiz-adv-x="449" 
d="M392 360q0 -36 3 -72h-106q-1 14 -1 42v4q-38 -56 -117 -56q-60 0 -97 32.5t-37 83.5q0 104 149 121l55 6q18 2 29 10t11 23q0 20 -15 32t-39 12q-26 0 -43 -13t-20 -35h-113q7 59 54.5 93t119.5 34q78 0 122.5 -39.5t44.5 -110.5v-167zM280 467q-6 -6 -14.5 -9t-24.5 -7
l-34 -7q-26 -6 -39.5 -16.5t-13.5 -28.5q0 -19 14.5 -30.5t37.5 -11.5q33 0 53.5 21t20.5 53v36z" />
    <glyph glyph-name="guillemotleft" unicode="&#xab;" horiz-adv-x="543" 
d="M503 50h-125l-106 194l106 194h125l-105 -194zM272 50h-125l-106 194l106 194h125l-105 -194z" />
    <glyph glyph-name="logicalnot" unicode="&#xac;" horiz-adv-x="549" 
d="M487 151h-112v193h-342v110h454v-303z" />
    <glyph glyph-name="uni00AD" unicode="&#xad;" horiz-adv-x="377" 
d="M328 213h-279v122h279v-122z" />
    <glyph glyph-name="registered" unicode="&#xae;" horiz-adv-x="638" 
d="M454.5 681.5q61.5 -35.5 97 -97t35.5 -135.5t-35.5 -135t-97 -96.5t-135.5 -35.5t-135.5 35.5t-97 96.5t-35.5 135t35.5 135.5t97 97t135.5 35.5t135.5 -35.5zM415.5 281.5q43.5 25.5 68.5 69.5t25 98t-25 98.5t-68.5 70t-96.5 25.5t-96.5 -25.5t-68.5 -70t-25 -98.5
t25 -98t68.5 -69.5t96.5 -25.5t96.5 25.5zM422 471.5q-16 -16.5 -46 -21.5q27 -3 39 -17t12 -43v-35q0 -22 6 -45h-71q-4 16 -4 40v40q0 32 -33 32h-40v-112h-70v280h128q43 0 69 -21t26 -55q0 -26 -16 -42.5zM285 478h44q17 0 26.5 7.5t9.5 20.5t-9.5 20.5t-26.5 7.5h-44
v-56z" />
    <glyph glyph-name="macron" unicode="&#xaf;" horiz-adv-x="401" 
d="M351 566h-301v91h301v-91z" />
    <glyph glyph-name="degree" unicode="&#xb0;" horiz-adv-x="444" 
d="M131 356.5q-41 22.5 -65 62t-24 88.5t24 88.5t65 62t91 22.5t91 -22.5t65 -62t24 -88.5t-24 -88.5t-65 -62t-91 -22.5t-91 22.5zM278 449q22 23 22 58t-22 58t-56 23t-56 -23t-22 -58t22 -58t56 -23t56 23z" />
    <glyph glyph-name="plusminus" unicode="&#xb1;" horiz-adv-x="570" 
d="M341 591v-155h188v-110h-188v-156h-112v156h-188v110h188v155h112zM529 2h-488v110h488v-110z" />
    <glyph glyph-name="uni00B2" unicode="&#xb2;" horiz-adv-x="471" 
d="M420 385v-95h-379q3 67 33.5 117.5t95.5 95.5l59 40q66 45 66 96q0 27 -17 43t-44 16q-29 0 -47.5 -18t-19.5 -51h-121q3 76 53.5 120t134.5 44q83 0 133 -42t50 -112q0 -48 -29.5 -91.5t-92.5 -87.5l-57 -40q-28 -20 -40 -35h222z" />
    <glyph glyph-name="uni00B3" unicode="&#xb3;" horiz-adv-x="484" 
d="M414.5 505.5q22.5 -30.5 22.5 -70.5q0 -45 -24.5 -80t-68 -54.5t-99.5 -19.5q-95 0 -147.5 44t-54.5 121h123q3 -33 23.5 -51t54.5 -18q32 0 51.5 17t19.5 45t-19.5 43.5t-54.5 15.5h-44v94h41q30 0 48.5 14t18.5 38t-18 39t-46 15q-32 0 -50.5 -17t-20.5 -44h-121
q5 75 57.5 115.5t134.5 40.5t133 -39t51 -101q0 -35 -20 -62.5t-53 -41.5q40 -13 62.5 -43.5z" />
    <glyph glyph-name="acute" unicode="&#xb4;" horiz-adv-x="308" 
d="M154 541h-104l62 141h146z" />
    <glyph glyph-name="uni00B5" unicode="&#xb5;" horiz-adv-x="585" 
d="M376 474h138v-474h-134v75q-20 -43 -56.5 -65t-84.5 -22q-15 0 -30 3v-191h-138v674h138v-271q0 -50 20.5 -77.5t59.5 -27.5q40 0 63.5 29t23.5 79v268z" />
    <glyph glyph-name="paragraph" unicode="&#xb6;" horiz-adv-x="574" 
d="M45 613.5q27 41.5 75.5 64t112.5 22.5h82v-700h-94v336q-92 4 -147.5 53.5t-55.5 128.5q0 54 27 95.5zM399 0v700h94v-700h-94z" />
    <glyph glyph-name="periodcentered" unicode="&#xb7;" horiz-adv-x="266" 
d="M210 272h-154v154h154v-154z" />
    <glyph glyph-name="cedilla" unicode="&#xb8;" horiz-adv-x="331" 
d="M184 -42q42 1 69.5 -20.5t27.5 -59.5q0 -41 -33 -65.5t-85 -24.5q-32 0 -62.5 10.5t-50.5 28.5l38 54q32 -26 72 -26q19 0 31.5 8t12.5 21q0 14 -11 20.5t-29 6.5t-36 -8l-37 33l66 74h65v-10z" />
    <glyph glyph-name="uni00B9" unicode="&#xb9;" horiz-adv-x="331" 
d="M17 648l111 136h117v-494h-119v367l-48 -61z" />
    <glyph glyph-name="ordmasculine" unicode="&#xba;" horiz-adv-x="472" 
d="M130 303q-46 25 -71.5 70.5t-25.5 104.5q0 90 55.5 144.5t147.5 54.5t147.5 -54.5t55.5 -144.5t-55.5 -145t-147.5 -55q-60 0 -106 25zM297.5 399q23.5 30 23.5 79t-23.5 79t-61.5 30t-61.5 -30t-23.5 -79t23.5 -79t61.5 -30t61.5 30z" />
    <glyph glyph-name="guillemotright" unicode="&#xbb;" horiz-adv-x="543" 
d="M165 50h-125l105 194l-105 194h125l106 -194zM396 50h-125l105 194l-105 194h125l106 -194z" />
    <glyph glyph-name="onequarter" unicode="&#xbc;" horiz-adv-x="834" 
d="M13 556l91 112h96v-401h-98v296l-39 -49zM646 623l-468 -635l-77 58l468 634zM759 176h53v-76h-53v-100h-94v100h-196v81l159 220h131v-225zM665 176v147q-8 -14 -17 -26l-71 -98q-8 -12 -19 -23h107z" />
    <glyph glyph-name="onehalf" unicode="&#xbd;" horiz-adv-x="843" 
d="M13 556l91 112h96v-401h-98v296l-39 -49zM646 623l-468 -635l-77 58l468 634zM808 78v-78h-309q2 55 27.5 96t77.5 77l47 33q54 38 54 76q0 21 -14 34.5t-35 13.5q-24 0 -38 -15.5t-15 -39.5h-100q2 62 43 97.5t110 35.5q68 0 108.5 -34t40.5 -91q0 -40 -24 -75t-75 -70
l-46 -32q-19 -14 -32 -28h180z" />
    <glyph glyph-name="threequarters" unicode="&#xbe;" horiz-adv-x="950" 
d="M332.5 441.5q18.5 -24.5 18.5 -57.5q0 -55 -43.5 -89.5t-112.5 -34.5q-76 0 -119.5 35t-45.5 99h102q2 -27 18.5 -41t43.5 -14q25 0 40.5 13.5t15.5 35.5t-15.5 34.5t-43.5 12.5h-35v77h33q24 0 38.5 11.5t14.5 30.5t-14.5 31t-36.5 12q-25 0 -39.5 -14t-16.5 -35h-100
q4 59 46 93t110 34q67 0 108.5 -31.5t41.5 -82.5q0 -28 -16 -50.5t-43 -33.5q32 -11 50.5 -35.5zM764 623l-468 -635l-77 58l468 634zM877 176h53v-76h-53v-100h-94v100h-196v81l159 220h131v-225zM783 176v147q-8 -14 -17 -26l-71 -98q-8 -12 -19 -23h107z" />
    <glyph glyph-name="questiondown" unicode="&#xbf;" horiz-adv-x="518" 
d="M354 416h-154v154h154v-154zM146 -118.5q-52 23.5 -81 67.5t-29 102q0 54 23 97.5t70 79.5l29 22q30 23 44 44.5t16 55.5h125q1 -51 -16 -89t-54 -70l-44 -38q-50 -43 -50 -100q0 -36 24.5 -58.5t62.5 -22.5q45 0 70 27t26 71h139q0 -63 -29.5 -111t-82.5 -74.5
t-124 -26.5q-67 0 -119 23.5z" />
    <glyph glyph-name="Agrave" unicode="&#xc0;" horiz-adv-x="717" 
d="M712 0h-154l-58 159h-288l-57 -159h-150l271 700h165zM255 280h202l-68 187q-18 47 -34 108q-11 -41 -34 -108zM411 767h-105l-103 141h145z" />
    <glyph glyph-name="Aacute" unicode="&#xc1;" horiz-adv-x="717" 
d="M712 0h-154l-58 159h-288l-57 -159h-150l271 700h165zM255 280h202l-68 187q-18 47 -34 108q-11 -41 -34 -108zM410 767h-104l62 141h146z" />
    <glyph glyph-name="Acircumflex" unicode="&#xc2;" horiz-adv-x="717" 
d="M712 0h-154l-58 159h-288l-57 -159h-150l271 700h165zM255 280h202l-68 187q-18 47 -34 108q-11 -41 -34 -108zM171 765l113 145h148l113 -145h-120l-25 32q-21 27 -42 60q-21 -33 -42 -60l-25 -32h-120z" />
    <glyph glyph-name="Atilde" unicode="&#xc3;" horiz-adv-x="717" 
d="M712 0h-154l-58 159h-288l-57 -159h-150l271 700h165zM255 280h202l-68 187q-18 47 -34 108q-11 -41 -34 -108zM398 778.5q-17 5.5 -41 15.5q-34 15 -52 15q-14 0 -21.5 -8.5t-7.5 -22.5h-93q-2 59 23.5 91.5t73.5 32.5q21 0 38 -5.5t41 -15.5q34 -15 52 -15
q14 0 21.5 8.5t7.5 22.5h93q2 -59 -23.5 -91.5t-73.5 -32.5q-21 0 -38 5.5z" />
    <glyph glyph-name="Adieresis" unicode="&#xc4;" horiz-adv-x="717" 
d="M712 0h-154l-58 159h-288l-57 -159h-150l271 700h165zM255 280h202l-68 187q-18 47 -34 108q-11 -41 -34 -108zM318 776h-123v123h123v-123zM520 776h-122v123h122v-123z" />
    <glyph glyph-name="Aring" unicode="&#xc5;" horiz-adv-x="717" 
d="M712 0h-154l-58 159h-288l-57 -159h-150l271 700h165zM255 280h202l-68 187q-18 47 -34 108q-11 -41 -34 -108zM268 781.5q-35 30.5 -35 79.5t35 80t90 31t89.5 -31t34.5 -80t-35 -79.5t-89 -30.5q-55 0 -90 30.5zM390.5 828q12.5 13 12.5 33t-12.5 33t-32.5 13t-33 -13
t-13 -33t13 -33t33 -13t32.5 13z" />
    <glyph glyph-name="AE" unicode="&#xc6;" horiz-adv-x="952" 
d="M572 304v-180h335v-124h-479v159h-216l-81 -159h-151l368 700h555v-124h-331v-148h288v-124h-288zM275 280h153v311q-21 -52 -52 -113z" />
    <glyph glyph-name="Ccedilla" unicode="&#xc7;" horiz-adv-x="746" 
d="M497.5 144.5q44.5 32.5 65.5 86.5h152q-14 -68 -56.5 -121t-105 -84.5t-136.5 -36.5l-28 -31q42 1 69.5 -20.5t27.5 -59.5q0 -41 -33 -65.5t-85 -24.5q-32 0 -62.5 10.5t-50.5 28.5l38 54q32 -26 72 -26q19 0 31.5 8t12.5 21q0 14 -11 20.5t-29 6.5t-36 -8l-37 33l48 54
q-89 9 -158 56.5t-107.5 126t-38.5 177.5q0 107 46 189t127.5 127.5t183.5 45.5q85 0 153 -29.5t111.5 -84t55.5 -127.5h-150q-16 52 -61 84.5t-109 32.5q-61 0 -108 -29.5t-73 -83.5t-26 -125t25 -125t70 -83.5t104 -29.5q64 0 108.5 32.5z" />
    <glyph glyph-name="Egrave" unicode="&#xc8;" horiz-adv-x="602" 
d="M222 304v-180h335v-124h-479v700h475v-124h-331v-148h288v-124h-288zM373 767h-105l-103 141h145z" />
    <glyph glyph-name="Eacute" unicode="&#xc9;" horiz-adv-x="602" 
d="M222 304v-180h335v-124h-479v700h475v-124h-331v-148h288v-124h-288zM372 767h-104l62 141h146z" />
    <glyph glyph-name="Ecircumflex" unicode="&#xca;" horiz-adv-x="602" 
d="M222 304v-180h335v-124h-479v700h475v-124h-331v-148h288v-124h-288zM133 765l113 145h148l113 -145h-120l-25 32q-21 27 -42 60q-21 -33 -42 -60l-25 -32h-120z" />
    <glyph glyph-name="Edieresis" unicode="&#xcb;" horiz-adv-x="602" 
d="M222 304v-180h335v-124h-479v700h475v-124h-331v-148h288v-124h-288zM280 776h-123v123h123v-123zM482 776h-122v123h122v-123z" />
    <glyph glyph-name="Igrave" unicode="&#xcc;" horiz-adv-x="300" 
d="M222 0h-144v700h144v-700zM203 767h-105l-103 141h145z" />
    <glyph glyph-name="Iacute" unicode="&#xcd;" horiz-adv-x="300" 
d="M222 0h-144v700h144v-700zM202 767h-104l62 141h146z" />
    <glyph glyph-name="Icircumflex" unicode="&#xce;" horiz-adv-x="300" 
d="M222 0h-144v700h144v-700zM-37 765l113 145h148l113 -145h-120l-25 32q-21 27 -42 60q-21 -33 -42 -60l-25 -32h-120z" />
    <glyph glyph-name="Idieresis" unicode="&#xcf;" horiz-adv-x="300" 
d="M222 0h-144v700h144v-700zM110 776h-123v123h123v-123zM312 776h-122v123h122v-123z" />
    <glyph glyph-name="Eth" unicode="&#xd0;" horiz-adv-x="775" 
d="M565.5 658q81.5 -42 125 -121t43.5 -187t-43.5 -187t-125 -121t-194.5 -42h-270v308h-84v104h84v288h270q113 0 194.5 -42zM366 124q106 0 162 58.5t56 167.5t-56 167.5t-162 58.5h-121v-164h167v-104h-167v-184h121z" />
    <glyph glyph-name="Ntilde" unicode="&#xd1;" horiz-adv-x="757" 
d="M78 0v700h199l271 -531q-2 48 -2 120v411h133v-700h-185l-285 559q2 -48 2 -120v-439h-133zM419 778.5q-17 5.5 -41 15.5q-34 15 -52 15q-14 0 -21.5 -8.5t-7.5 -22.5h-93q-2 59 23.5 91.5t73.5 32.5q21 0 38 -5.5t41 -15.5q34 -15 52 -15q14 0 21.5 8.5t7.5 22.5h93
q2 -59 -23.5 -91.5t-73.5 -32.5q-21 0 -38 5.5z" />
    <glyph glyph-name="Ograve" unicode="&#xd2;" horiz-adv-x="798" 
d="M212 33.5q-81 45.5 -126.5 127.5t-45.5 189t45.5 189t126.5 127.5t186 45.5t186.5 -45.5t127.5 -127.5t46 -189t-46 -189t-127.5 -127.5t-186.5 -45.5t-186 45.5zM508 142q48 30 74 84t26 124t-26 124t-74 84t-110 30t-109 -30t-73 -84t-26 -124t26 -124t73 -84t109 -30
t110 30zM452 767h-105l-103 141h145z" />
    <glyph glyph-name="Oacute" unicode="&#xd3;" horiz-adv-x="798" 
d="M212 33.5q-81 45.5 -126.5 127.5t-45.5 189t45.5 189t126.5 127.5t186 45.5t186.5 -45.5t127.5 -127.5t46 -189t-46 -189t-127.5 -127.5t-186.5 -45.5t-186 45.5zM508 142q48 30 74 84t26 124t-26 124t-74 84t-110 30t-109 -30t-73 -84t-26 -124t26 -124t73 -84t109 -30
t110 30zM451 767h-104l62 141h146z" />
    <glyph glyph-name="Ocircumflex" unicode="&#xd4;" horiz-adv-x="798" 
d="M212 33.5q-81 45.5 -126.5 127.5t-45.5 189t45.5 189t126.5 127.5t186 45.5t186.5 -45.5t127.5 -127.5t46 -189t-46 -189t-127.5 -127.5t-186.5 -45.5t-186 45.5zM508 142q48 30 74 84t26 124t-26 124t-74 84t-110 30t-109 -30t-73 -84t-26 -124t26 -124t73 -84t109 -30
t110 30zM212 765l113 145h148l113 -145h-120l-25 32q-21 27 -42 60q-21 -33 -42 -60l-25 -32h-120z" />
    <glyph glyph-name="Otilde" unicode="&#xd5;" horiz-adv-x="798" 
d="M212 33.5q-81 45.5 -126.5 127.5t-45.5 189t45.5 189t126.5 127.5t186 45.5t186.5 -45.5t127.5 -127.5t46 -189t-46 -189t-127.5 -127.5t-186.5 -45.5t-186 45.5zM508 142q48 30 74 84t26 124t-26 124t-74 84t-110 30t-109 -30t-73 -84t-26 -124t26 -124t73 -84t109 -30
t110 30zM439 778.5q-17 5.5 -41 15.5q-34 15 -52 15q-14 0 -21.5 -8.5t-7.5 -22.5h-93q-2 59 23.5 91.5t73.5 32.5q21 0 38 -5.5t41 -15.5q34 -15 52 -15q14 0 21.5 8.5t7.5 22.5h93q2 -59 -23.5 -91.5t-73.5 -32.5q-21 0 -38 5.5z" />
    <glyph glyph-name="Odieresis" unicode="&#xd6;" horiz-adv-x="798" 
d="M212 33.5q-81 45.5 -126.5 127.5t-45.5 189t45.5 189t126.5 127.5t186 45.5t186.5 -45.5t127.5 -127.5t46 -189t-46 -189t-127.5 -127.5t-186.5 -45.5t-186 45.5zM508 142q48 30 74 84t26 124t-26 124t-74 84t-110 30t-109 -30t-73 -84t-26 -124t26 -124t73 -84t109 -30
t110 30zM359 776h-123v123h123v-123zM561 776h-122v123h122v-123z" />
    <glyph glyph-name="multiply" unicode="&#xd7;" horiz-adv-x="533" 
d="M267 223l-150 -150l-78 78l150 150l-150 150l78 77l149 -150l150 150l78 -78l-150 -149l149 -150l-78 -77z" />
    <glyph glyph-name="Oslash" unicode="&#xd8;" horiz-adv-x="798" 
d="M669 600q43 -48 66 -111.5t23 -138.5q0 -107 -46 -189t-127.5 -127.5t-186.5 -45.5q-99 0 -180 42l-61 -78l-88 70l60 77q-43 47 -66 111.5t-23 139.5q0 107 45.5 189t126.5 127.5t186 45.5q102 0 182 -43l61 78l88 -71zM221 215l276 349q-43 24 -99 24q-62 0 -109 -30
t-73 -84t-26 -124q0 -76 31 -135zM508 142q48 30 74 84t26 124q0 76 -31 133l-276 -348q44 -23 97 -23q62 0 110 30z" />
    <glyph glyph-name="Ugrave" unicode="&#xd9;" horiz-adv-x="740" 
d="M211 22.5q-67 34.5 -103.5 99t-36.5 154.5v424h144v-414q0 -83 40.5 -128.5t114.5 -45.5q75 0 115.5 45.5t40.5 128.5v414h143v-418q0 -91 -36.5 -157.5t-104 -101.5t-158.5 -35q-92 0 -159 34.5zM423 767h-105l-103 141h145z" />
    <glyph glyph-name="Uacute" unicode="&#xda;" horiz-adv-x="740" 
d="M211 22.5q-67 34.5 -103.5 99t-36.5 154.5v424h144v-414q0 -83 40.5 -128.5t114.5 -45.5q75 0 115.5 45.5t40.5 128.5v414h143v-418q0 -91 -36.5 -157.5t-104 -101.5t-158.5 -35q-92 0 -159 34.5zM422 767h-104l62 141h146z" />
    <glyph glyph-name="Ucircumflex" unicode="&#xdb;" horiz-adv-x="740" 
d="M211 22.5q-67 34.5 -103.5 99t-36.5 154.5v424h144v-414q0 -83 40.5 -128.5t114.5 -45.5q75 0 115.5 45.5t40.5 128.5v414h143v-418q0 -91 -36.5 -157.5t-104 -101.5t-158.5 -35q-92 0 -159 34.5zM183 765l113 145h148l113 -145h-120l-25 32q-21 27 -42 60
q-21 -33 -42 -60l-25 -32h-120z" />
    <glyph glyph-name="Udieresis" unicode="&#xdc;" horiz-adv-x="740" 
d="M211 22.5q-67 34.5 -103.5 99t-36.5 154.5v424h144v-414q0 -83 40.5 -128.5t114.5 -45.5q75 0 115.5 45.5t40.5 128.5v414h143v-418q0 -91 -36.5 -157.5t-104 -101.5t-158.5 -35q-92 0 -159 34.5zM330 776h-123v123h123v-123zM532 776h-122v123h122v-123z" />
    <glyph glyph-name="Yacute" unicode="&#xdd;" horiz-adv-x="683" 
d="M677 700l-263 -419v-281h-144v278l-264 422h161l133 -219q23 -36 45 -78q28 53 44 78l132 219h156zM397 767h-104l62 141h146z" />
    <glyph glyph-name="Thorn" unicode="&#xde;" horiz-adv-x="649" 
d="M360 578q122 0 188.5 -57t66.5 -158t-66.5 -158t-188.5 -57h-138v-148h-144v700h144v-122h138zM351 269q55 0 84.5 24.5t29.5 69.5t-29.5 69.5t-84.5 24.5h-129v-188h129z" />
    <glyph glyph-name="germandbls" unicode="&#xdf;" horiz-adv-x="567" 
d="M499.5 320q34.5 -46 34.5 -111q0 -97 -64.5 -153t-173.5 -56h-49v112h32q55 0 84.5 27.5t29.5 78.5q0 50 -29.5 77.5t-84.5 27.5h-32v110h34q39 0 63.5 23.5t24.5 61.5q0 37 -23 60.5t-59 23.5q-41 0 -64.5 -25t-23.5 -68v-509h-138v506q0 95 61.5 150.5t164.5 55.5
q64 0 114.5 -23t78.5 -65t28 -98q0 -50 -28 -88.5t-75 -55.5q60 -16 94.5 -62z" />
    <glyph glyph-name="agrave" unicode="&#xe0;" horiz-adv-x="524" 
d="M468 91q0 -51 4 -91h-127q-1 17 -1 52v6q-47 -70 -146 -70q-75 0 -121 40.5t-46 103.5q0 64 47.5 102t138.5 49l67 8q51 7 51 42q0 25 -19 41t-50 16q-34 0 -55.5 -16.5t-25.5 -45.5h-137q9 73 67.5 115.5t147.5 42.5q96 0 150.5 -49t54.5 -137v-209zM334 227
q-8 -8 -19.5 -13t-30.5 -9l-45 -9q-67 -13 -67 -58q0 -24 18.5 -39t47.5 -15q43 0 69.5 26.5t26.5 69.5v47zM318 541h-105l-103 141h145z" />
    <glyph glyph-name="aacute" unicode="&#xe1;" horiz-adv-x="524" 
d="M468 91q0 -51 4 -91h-127q-1 17 -1 52v6q-47 -70 -146 -70q-75 0 -121 40.5t-46 103.5q0 64 47.5 102t138.5 49l67 8q51 7 51 42q0 25 -19 41t-50 16q-34 0 -55.5 -16.5t-25.5 -45.5h-137q9 73 67.5 115.5t147.5 42.5q96 0 150.5 -49t54.5 -137v-209zM334 227
q-8 -8 -19.5 -13t-30.5 -9l-45 -9q-67 -13 -67 -58q0 -24 18.5 -39t47.5 -15q43 0 69.5 26.5t26.5 69.5v47zM317 541h-104l62 141h146z" />
    <glyph glyph-name="acircumflex" unicode="&#xe2;" horiz-adv-x="524" 
d="M468 91q0 -51 4 -91h-127q-1 17 -1 52v6q-47 -70 -146 -70q-75 0 -121 40.5t-46 103.5q0 64 47.5 102t138.5 49l67 8q51 7 51 42q0 25 -19 41t-50 16q-34 0 -55.5 -16.5t-25.5 -45.5h-137q9 73 67.5 115.5t147.5 42.5q96 0 150.5 -49t54.5 -137v-209zM334 227
q-8 -8 -19.5 -13t-30.5 -9l-45 -9q-67 -13 -67 -58q0 -24 18.5 -39t47.5 -15q43 0 69.5 26.5t26.5 69.5v47zM78 539l113 145h148l113 -145h-120l-25 32q-21 27 -42 60q-21 -33 -42 -60l-25 -32h-120z" />
    <glyph glyph-name="atilde" unicode="&#xe3;" horiz-adv-x="524" 
d="M468 91q0 -51 4 -91h-127q-1 17 -1 52v6q-47 -70 -146 -70q-75 0 -121 40.5t-46 103.5q0 64 47.5 102t138.5 49l67 8q51 7 51 42q0 25 -19 41t-50 16q-34 0 -55.5 -16.5t-25.5 -45.5h-137q9 73 67.5 115.5t147.5 42.5q96 0 150.5 -49t54.5 -137v-209zM334 227
q-8 -8 -19.5 -13t-30.5 -9l-45 -9q-67 -13 -67 -58q0 -24 18.5 -39t47.5 -15q43 0 69.5 26.5t26.5 69.5v47zM305 552.5q-17 5.5 -41 15.5q-34 15 -52 15q-14 0 -21.5 -8.5t-7.5 -22.5h-93q-2 59 23.5 91.5t73.5 32.5q21 0 38 -5.5t41 -15.5q34 -15 52 -15q14 0 21.5 8.5
t7.5 22.5h93q2 -59 -23.5 -91.5t-73.5 -32.5q-21 0 -38 5.5z" />
    <glyph glyph-name="adieresis" unicode="&#xe4;" horiz-adv-x="524" 
d="M468 91q0 -51 4 -91h-127q-1 17 -1 52v6q-47 -70 -146 -70q-75 0 -121 40.5t-46 103.5q0 64 47.5 102t138.5 49l67 8q51 7 51 42q0 25 -19 41t-50 16q-34 0 -55.5 -16.5t-25.5 -45.5h-137q9 73 67.5 115.5t147.5 42.5q96 0 150.5 -49t54.5 -137v-209zM334 227
q-8 -8 -19.5 -13t-30.5 -9l-45 -9q-67 -13 -67 -58q0 -24 18.5 -39t47.5 -15q43 0 69.5 26.5t26.5 69.5v47zM225 550h-123v123h123v-123zM427 550h-122v123h122v-123z" />
    <glyph glyph-name="aring" unicode="&#xe5;" horiz-adv-x="524" 
d="M468 91q0 -51 4 -91h-127q-1 17 -1 52v6q-47 -70 -146 -70q-75 0 -121 40.5t-46 103.5q0 64 47.5 102t138.5 49l67 8q51 7 51 42q0 25 -19 41t-50 16q-34 0 -55.5 -16.5t-25.5 -45.5h-137q9 73 67.5 115.5t147.5 42.5q96 0 150.5 -49t54.5 -137v-209zM334 227
q-8 -8 -19.5 -13t-30.5 -9l-45 -9q-67 -13 -67 -58q0 -24 18.5 -39t47.5 -15q43 0 69.5 26.5t26.5 69.5v47zM175 555.5q-35 30.5 -35 79.5t35 80t90 31t89.5 -31t34.5 -80t-35 -79.5t-89 -30.5q-55 0 -90 30.5zM297.5 602q12.5 13 12.5 33t-12.5 33t-32.5 13t-33 -13
t-13 -33t13 -33t33 -13t32.5 13z" />
    <glyph glyph-name="ae" unicode="&#xe6;" horiz-adv-x="841" 
d="M806 201h-338q4 -51 32 -78t74 -27q32 0 55.5 14.5t32.5 39.5h138q-15 -75 -76.5 -118.5t-152.5 -43.5q-60 0 -107.5 21.5t-77.5 62.5q-28 -41 -73.5 -62.5t-103.5 -21.5q-81 0 -129.5 40t-48.5 105q0 63 48 101t138 49l67 8q51 7 51 42q0 25 -19.5 41t-49.5 16
q-34 0 -55.5 -16.5t-25.5 -45.5h-137q9 73 67 115.5t146 42.5q104 0 156 -54q29 26 68 40t83 14q117 0 177.5 -67.5t60.5 -182.5v-35zM671 293q-1 43 -28.5 68t-69.5 25q-40 0 -69 -23.5t-35 -69.5h202zM334 225q-12 -12 -50 -20l-45 -9q-67 -13 -67 -58q0 -24 18.5 -39
t47.5 -15q43 0 69.5 26.5t26.5 69.5v45z" />
    <glyph glyph-name="ccedilla" unicode="&#xe7;" horiz-adv-x="544" 
d="M516 165q-10 -73 -65.5 -120.5t-139.5 -55.5l-28 -31q42 1 69.5 -20.5t27.5 -59.5q0 -41 -33 -65.5t-85 -24.5q-32 0 -62.5 10.5t-50.5 28.5l38 54q32 -26 72 -26q19 0 31.5 8t12.5 21q0 14 -11 20.5t-29 6.5t-36 -8l-37 33l49 55q-93 13 -149.5 80t-56.5 166
q0 73 32 129.5t88.5 88t129.5 31.5q97 0 160.5 -48.5t71.5 -129.5h-138q-8 32 -31.5 50t-59.5 18q-50 0 -80.5 -38t-30.5 -101t30 -101t80 -38q35 0 59.5 17.5t33.5 49.5h138z" />
    <glyph glyph-name="egrave" unicode="&#xe8;" horiz-adv-x="545" 
d="M510 201h-338q4 -51 32 -78t74 -27q32 0 55.5 14.5t32.5 39.5h138q-15 -75 -76.5 -118.5t-152.5 -43.5q-72 0 -126.5 31t-84.5 87.5t-30 130.5q0 73 31 129.5t85 88t122 31.5q117 0 177.5 -67.5t60.5 -182.5v-35zM208 362.5q-29 -23.5 -35 -69.5h202q-1 43 -28.5 68
t-69.5 25q-40 0 -69 -23.5zM330 541h-105l-103 141h145z" />
    <glyph glyph-name="eacute" unicode="&#xe9;" horiz-adv-x="545" 
d="M510 201h-338q4 -51 32 -78t74 -27q32 0 55.5 14.5t32.5 39.5h138q-15 -75 -76.5 -118.5t-152.5 -43.5q-72 0 -126.5 31t-84.5 87.5t-30 130.5q0 73 31 129.5t85 88t122 31.5q117 0 177.5 -67.5t60.5 -182.5v-35zM208 362.5q-29 -23.5 -35 -69.5h202q-1 43 -28.5 68
t-69.5 25q-40 0 -69 -23.5zM329 541h-104l62 141h146z" />
    <glyph glyph-name="ecircumflex" unicode="&#xea;" horiz-adv-x="545" 
d="M510 201h-338q4 -51 32 -78t74 -27q32 0 55.5 14.5t32.5 39.5h138q-15 -75 -76.5 -118.5t-152.5 -43.5q-72 0 -126.5 31t-84.5 87.5t-30 130.5q0 73 31 129.5t85 88t122 31.5q117 0 177.5 -67.5t60.5 -182.5v-35zM208 362.5q-29 -23.5 -35 -69.5h202q-1 43 -28.5 68
t-69.5 25q-40 0 -69 -23.5zM90 539l113 145h148l113 -145h-120l-25 32q-21 27 -42 60q-21 -33 -42 -60l-25 -32h-120z" />
    <glyph glyph-name="edieresis" unicode="&#xeb;" horiz-adv-x="545" 
d="M510 201h-338q4 -51 32 -78t74 -27q32 0 55.5 14.5t32.5 39.5h138q-15 -75 -76.5 -118.5t-152.5 -43.5q-72 0 -126.5 31t-84.5 87.5t-30 130.5q0 73 31 129.5t85 88t122 31.5q117 0 177.5 -67.5t60.5 -182.5v-35zM208 362.5q-29 -23.5 -35 -69.5h202q-1 43 -28.5 68
t-69.5 25q-40 0 -69 -23.5zM237 550h-123v123h123v-123zM439 550h-122v123h122v-123z" />
    <glyph glyph-name="igrave" unicode="&#xec;" horiz-adv-x="260" 
d="M199 0h-138v474h138v-474zM183 541h-105l-103 141h145z" />
    <glyph glyph-name="iacute" unicode="&#xed;" horiz-adv-x="260" 
d="M199 0h-138v474h138v-474zM182 541h-104l62 141h146z" />
    <glyph glyph-name="icircumflex" unicode="&#xee;" horiz-adv-x="260" 
d="M199 0h-138v474h138v-474zM-57 539l113 145h148l113 -145h-120l-25 32q-21 27 -42 60q-21 -33 -42 -60l-25 -32h-120z" />
    <glyph glyph-name="idieresis" unicode="&#xef;" horiz-adv-x="260" 
d="M199 0h-138v474h138v-474zM90 550h-123v123h123v-123zM292 550h-122v123h122v-123z" />
    <glyph glyph-name="eth" unicode="&#xf0;" horiz-adv-x="554" 
d="M390 582q60 -68 93 -147.5t33 -167.5q0 -130 -65.5 -204.5t-179.5 -74.5q-69 0 -123 30.5t-83.5 85t-29.5 126.5q0 69 26.5 121.5t74.5 81.5t111 29q78 0 127 -54q-33 62 -100 125l-126 -54l-33 79l84 36q-29 21 -77 49l93 77q62 -35 108 -74l116 50l34 -78zM351.5 134
q27.5 36 27.5 95q0 58 -27.5 93.5t-73.5 35.5t-73.5 -35.5t-27.5 -93.5q0 -59 27.5 -95t73.5 -36t73.5 36z" />
    <glyph glyph-name="ntilde" unicode="&#xf1;" horiz-adv-x="560" 
d="M457.5 435.5q46.5 -50.5 46.5 -143.5v-292h-138v271q0 50 -20.5 77.5t-59.5 27.5q-40 0 -63.5 -29t-23.5 -79v-268h-138v474h134v-75q20 43 56.5 65t84.5 22q75 0 121.5 -50.5zM321 552.5q-17 5.5 -41 15.5q-34 15 -52 15q-14 0 -21.5 -8.5t-7.5 -22.5h-93
q-2 59 23.5 91.5t73.5 32.5q21 0 38 -5.5t41 -15.5q34 -15 52 -15q14 0 21.5 8.5t7.5 22.5h93q2 -59 -23.5 -91.5t-73.5 -32.5q-21 0 -38 5.5z" />
    <glyph glyph-name="ograve" unicode="&#xf2;" horiz-adv-x="572" 
d="M154 19q-57 31 -88.5 87.5t-31.5 130.5t31.5 130.5t88.5 87.5t132 31t132 -31t88.5 -87.5t31.5 -130.5t-31.5 -130.5t-88.5 -87.5t-132 -31t-132 31zM366 136q30 38 30 101t-30 101t-80 38t-80 -38t-30 -101t30 -101t80 -38t80 38zM339 540h-105l-103 141h145z" />
    <glyph glyph-name="oacute" unicode="&#xf3;" horiz-adv-x="572" 
d="M154 19q-57 31 -88.5 87.5t-31.5 130.5t31.5 130.5t88.5 87.5t132 31t132 -31t88.5 -87.5t31.5 -130.5t-31.5 -130.5t-88.5 -87.5t-132 -31t-132 31zM366 136q30 38 30 101t-30 101t-80 38t-80 -38t-30 -101t30 -101t80 -38t80 38zM338 540h-104l62 141h146z" />
    <glyph glyph-name="ocircumflex" unicode="&#xf4;" horiz-adv-x="572" 
d="M154 19q-57 31 -88.5 87.5t-31.5 130.5t31.5 130.5t88.5 87.5t132 31t132 -31t88.5 -87.5t31.5 -130.5t-31.5 -130.5t-88.5 -87.5t-132 -31t-132 31zM366 136q30 38 30 101t-30 101t-80 38t-80 -38t-30 -101t30 -101t80 -38t80 38zM99 538l113 145h148l113 -145h-120
l-25 32q-21 27 -42 60q-21 -33 -42 -60l-25 -32h-120z" />
    <glyph glyph-name="otilde" unicode="&#xf5;" horiz-adv-x="572" 
d="M154 19q-57 31 -88.5 87.5t-31.5 130.5t31.5 130.5t88.5 87.5t132 31t132 -31t88.5 -87.5t31.5 -130.5t-31.5 -130.5t-88.5 -87.5t-132 -31t-132 31zM366 136q30 38 30 101t-30 101t-80 38t-80 -38t-30 -101t30 -101t80 -38t80 38zM326 551.5q-17 5.5 -41 15.5
q-34 15 -52 15q-14 0 -21.5 -8.5t-7.5 -22.5h-93q-2 59 23.5 91.5t73.5 32.5q21 0 38 -5.5t41 -15.5q34 -15 52 -15q14 0 21.5 8.5t7.5 22.5h93q2 -59 -23.5 -91.5t-73.5 -32.5q-21 0 -38 5.5z" />
    <glyph glyph-name="odieresis" unicode="&#xf6;" horiz-adv-x="572" 
d="M154 19q-57 31 -88.5 87.5t-31.5 130.5t31.5 130.5t88.5 87.5t132 31t132 -31t88.5 -87.5t31.5 -130.5t-31.5 -130.5t-88.5 -87.5t-132 -31t-132 31zM366 136q30 38 30 101t-30 101t-80 38t-80 -38t-30 -101t30 -101t80 -38t80 38zM246 549h-123v123h123v-123zM448 549
h-122v123h122v-123z" />
    <glyph glyph-name="divide" unicode="&#xf7;" horiz-adv-x="570" 
d="M350 425h-130v132h130v-132zM534 244h-498v110h498v-110zM350 42h-130v132h130v-132z" />
    <glyph glyph-name="oslash" unicode="&#xf8;" horiz-adv-x="572" 
d="M482 402q56 -69 56 -165q0 -73 -32 -130t-89.5 -88t-130.5 -31q-68 0 -122 27l-40 -49l-72 57l39 48q-57 67 -57 166q0 73 32 130t89.5 88t130.5 31q68 0 124 -28l40 49l70 -59zM183 182l150 183q-22 11 -47 11q-50 0 -80 -38t-30 -101q0 -31 7 -55zM366 136
q30 38 30 101q0 28 -6 52l-149 -181q19 -10 45 -10q50 0 80 38z" />
    <glyph glyph-name="ugrave" unicode="&#xf9;" horiz-adv-x="560" 
d="M361 474h138v-474h-134v75q-20 -43 -56.5 -65t-84.5 -22q-75 0 -121.5 50.5t-46.5 143.5v292h138v-271q0 -50 20.5 -77.5t59.5 -27.5q40 0 63.5 29t23.5 79v268zM332 541h-105l-103 141h145z" />
    <glyph glyph-name="uacute" unicode="&#xfa;" horiz-adv-x="560" 
d="M361 474h138v-474h-134v75q-20 -43 -56.5 -65t-84.5 -22q-75 0 -121.5 50.5t-46.5 143.5v292h138v-271q0 -50 20.5 -77.5t59.5 -27.5q40 0 63.5 29t23.5 79v268zM331 541h-104l62 141h146z" />
    <glyph glyph-name="ucircumflex" unicode="&#xfb;" horiz-adv-x="560" 
d="M361 474h138v-474h-134v75q-20 -43 -56.5 -65t-84.5 -22q-75 0 -121.5 50.5t-46.5 143.5v292h138v-271q0 -50 20.5 -77.5t59.5 -27.5q40 0 63.5 29t23.5 79v268zM92 539l113 145h148l113 -145h-120l-25 32q-21 27 -42 60q-21 -33 -42 -60l-25 -32h-120z" />
    <glyph glyph-name="udieresis" unicode="&#xfc;" horiz-adv-x="560" 
d="M361 474h138v-474h-134v75q-20 -43 -56.5 -65t-84.5 -22q-75 0 -121.5 50.5t-46.5 143.5v292h138v-271q0 -50 20.5 -77.5t59.5 -27.5q40 0 63.5 29t23.5 79v268zM239 550h-123v123h123v-123zM441 550h-122v123h122v-123z" />
    <glyph glyph-name="yacute" unicode="&#xfd;" horiz-adv-x="515" 
d="M59 -200v114h39q61 0 80 52l15 39l-188 469h153l80 -239q14 -44 24 -80q16 59 23 80l74 239h142l-203 -554q-22 -61 -65.5 -90.5t-109.5 -29.5h-64zM314 541h-104l62 141h146z" />
    <glyph glyph-name="thorn" unicode="&#xfe;" horiz-adv-x="586" 
d="M448 454q48 -32 75.5 -89t27.5 -128t-27.5 -128t-75.5 -89t-108 -32q-48 0 -84.5 20t-56.5 57v-265h-138v900h138v-291q20 37 56.5 57t84.5 20q60 0 108 -32zM379 136.5q30 38.5 30 100.5t-30 100.5t-79 38.5q-48 0 -77.5 -38.5t-29.5 -100.5t29.5 -100.5t77.5 -38.5
q49 0 79 38.5z" />
    <glyph glyph-name="ydieresis" unicode="&#xff;" horiz-adv-x="515" 
d="M59 -200v114h39q61 0 80 52l15 39l-188 469h153l80 -239q14 -44 24 -80q16 59 23 80l74 239h142l-203 -554q-22 -61 -65.5 -90.5t-109.5 -29.5h-64zM222 550h-123v123h123v-123zM424 550h-122v123h122v-123z" />
    <glyph glyph-name="Amacron" unicode="&#x100;" horiz-adv-x="717" 
d="M712 0h-154l-58 159h-288l-57 -159h-150l271 700h165zM255 280h202l-68 187q-18 47 -34 108q-11 -41 -34 -108zM508 788h-301v91h301v-91z" />
    <glyph glyph-name="amacron" unicode="&#x101;" horiz-adv-x="524" 
d="M468 91q0 -51 4 -91h-127q-1 17 -1 52v6q-47 -70 -146 -70q-75 0 -121 40.5t-46 103.5q0 64 47.5 102t138.5 49l67 8q51 7 51 42q0 25 -19 41t-50 16q-34 0 -55.5 -16.5t-25.5 -45.5h-137q9 73 67.5 115.5t147.5 42.5q96 0 150.5 -49t54.5 -137v-209zM334 227
q-8 -8 -19.5 -13t-30.5 -9l-45 -9q-67 -13 -67 -58q0 -24 18.5 -39t47.5 -15q43 0 69.5 26.5t26.5 69.5v47zM415 562h-301v91h301v-91z" />
    <glyph glyph-name="Abreve" unicode="&#x102;" horiz-adv-x="717" 
d="M712 0h-154l-58 159h-288l-57 -159h-150l271 700h165zM255 280h202l-68 187q-18 47 -34 108q-11 -41 -34 -108zM244.5 804.5q-44.5 39.5 -46.5 106.5h97q1 -28 18.5 -45t45.5 -17t45.5 17t18.5 45h97q-2 -67 -46.5 -106.5t-114.5 -39.5t-114.5 39.5z" />
    <glyph glyph-name="abreve" unicode="&#x103;" horiz-adv-x="524" 
d="M468 91q0 -51 4 -91h-127q-1 17 -1 52v6q-47 -70 -146 -70q-75 0 -121 40.5t-46 103.5q0 64 47.5 102t138.5 49l67 8q51 7 51 42q0 25 -19 41t-50 16q-34 0 -55.5 -16.5t-25.5 -45.5h-137q9 73 67.5 115.5t147.5 42.5q96 0 150.5 -49t54.5 -137v-209zM334 227
q-8 -8 -19.5 -13t-30.5 -9l-45 -9q-67 -13 -67 -58q0 -24 18.5 -39t47.5 -15q43 0 69.5 26.5t26.5 69.5v47zM151.5 578.5q-44.5 39.5 -46.5 106.5h97q1 -28 18.5 -45t45.5 -17t45.5 17t18.5 45h97q-2 -67 -46.5 -106.5t-114.5 -39.5t-114.5 39.5z" />
    <glyph glyph-name="Aogonek" unicode="&#x104;" horiz-adv-x="717" 
d="M713 -121v-85q-23 -6 -51 -6q-63 0 -96 28t-33 76q0 33 21 61t60 47h-56l-58 159h-288l-57 -159h-150l271 700h165l271 -700q-42 -13 -62 -33.5t-20 -44.5q0 -21 14 -33.5t39 -12.5q12 0 30 3zM255 280h202l-68 187q-18 47 -34 108q-11 -41 -34 -108z" />
    <glyph glyph-name="aogonek" unicode="&#x105;" horiz-adv-x="524" 
d="M477 -121v-85q-23 -6 -51 -6q-63 0 -96 28t-33 76q0 33 21 61t60 47h-33q-1 17 -1 52v6q-47 -70 -146 -70q-75 0 -121 40.5t-46 103.5q0 64 47.5 102t138.5 49l67 8q51 7 51 42q0 25 -19 41t-50 16q-34 0 -55.5 -16.5t-25.5 -45.5h-137q9 73 67.5 115.5t147.5 42.5
q96 0 150.5 -49t54.5 -137v-209q0 -50 4 -90l4 -1q-42 -13 -62 -33.5t-20 -44.5q0 -21 14 -33.5t39 -12.5q12 0 30 3zM334 227q-8 -8 -19.5 -13t-30.5 -9l-45 -9q-67 -13 -67 -58q0 -24 18.5 -39t47.5 -15q43 0 69.5 26.5t26.5 69.5v47z" />
    <glyph glyph-name="Cacute" unicode="&#x106;" horiz-adv-x="746" 
d="M209 33.5q-79 45.5 -124 127.5t-45 189t46 189t127.5 127.5t183.5 45.5q85 0 153 -29.5t111.5 -84t55.5 -127.5h-150q-16 52 -61 84.5t-109 32.5q-61 0 -108 -29.5t-73 -83.5t-26 -125t25 -125t70 -83.5t104 -29.5q64 0 108.5 32.5t65.5 86.5h152q-15 -72 -62 -127.5
t-116 -85.5t-150 -30q-99 0 -178 45.5zM449 767h-104l62 141h146z" />
    <glyph glyph-name="cacute" unicode="&#x107;" horiz-adv-x="544" 
d="M152 19.5q-56 31.5 -87.5 88t-31.5 129.5t32 129.5t88.5 88t129.5 31.5q97 0 160.5 -48.5t71.5 -129.5h-138q-8 32 -31.5 50t-59.5 18q-50 0 -80.5 -38t-30.5 -101t30 -101t80 -38q35 0 59.5 17.5t33.5 49.5h138q-11 -80 -76 -128.5t-160 -48.5q-72 0 -128 31.5zM337 541
h-104l62 141h146z" />
    <glyph glyph-name="Ccircumflex" unicode="&#x108;" horiz-adv-x="746" 
d="M209 33.5q-79 45.5 -124 127.5t-45 189t46 189t127.5 127.5t183.5 45.5q85 0 153 -29.5t111.5 -84t55.5 -127.5h-150q-16 52 -61 84.5t-109 32.5q-61 0 -108 -29.5t-73 -83.5t-26 -125t25 -125t70 -83.5t104 -29.5q64 0 108.5 32.5t65.5 86.5h152q-15 -72 -62 -127.5
t-116 -85.5t-150 -30q-99 0 -178 45.5zM210 765l113 145h148l113 -145h-120l-25 32q-21 27 -42 60q-21 -33 -42 -60l-25 -32h-120z" />
    <glyph glyph-name="ccircumflex" unicode="&#x109;" horiz-adv-x="544" 
d="M152 19.5q-56 31.5 -87.5 88t-31.5 129.5t32 129.5t88.5 88t129.5 31.5q97 0 160.5 -48.5t71.5 -129.5h-138q-8 32 -31.5 50t-59.5 18q-50 0 -80.5 -38t-30.5 -101t30 -101t80 -38q35 0 59.5 17.5t33.5 49.5h138q-11 -80 -76 -128.5t-160 -48.5q-72 0 -128 31.5zM98 539
l113 145h148l113 -145h-120l-25 32q-21 27 -42 60q-21 -33 -42 -60l-25 -32h-120z" />
    <glyph glyph-name="Cdotaccent" unicode="&#x10a;" horiz-adv-x="746" 
d="M209 33.5q-79 45.5 -124 127.5t-45 189t46 189t127.5 127.5t183.5 45.5q85 0 153 -29.5t111.5 -84t55.5 -127.5h-150q-16 52 -61 84.5t-109 32.5q-61 0 -108 -29.5t-73 -83.5t-26 -125t25 -125t70 -83.5t104 -29.5q64 0 108.5 32.5t65.5 86.5h152q-15 -72 -62 -127.5
t-116 -85.5t-150 -30q-99 0 -178 45.5zM468 768h-142v139h142v-139z" />
    <glyph glyph-name="cdotaccent" unicode="&#x10b;" horiz-adv-x="544" 
d="M152 19.5q-56 31.5 -87.5 88t-31.5 129.5t32 129.5t88.5 88t129.5 31.5q97 0 160.5 -48.5t71.5 -129.5h-138q-8 32 -31.5 50t-59.5 18q-50 0 -80.5 -38t-30.5 -101t30 -101t80 -38q35 0 59.5 17.5t33.5 49.5h138q-11 -80 -76 -128.5t-160 -48.5q-72 0 -128 31.5zM356 542
h-142v139h142v-139z" />
    <glyph glyph-name="Ccaron" unicode="&#x10c;" horiz-adv-x="746" 
d="M209 33.5q-79 45.5 -124 127.5t-45 189t46 189t127.5 127.5t183.5 45.5q85 0 153 -29.5t111.5 -84t55.5 -127.5h-150q-16 52 -61 84.5t-109 32.5q-61 0 -108 -29.5t-73 -83.5t-26 -125t25 -125t70 -83.5t104 -29.5q64 0 108.5 32.5t65.5 86.5h152q-15 -72 -62 -127.5
t-116 -85.5t-150 -30q-99 0 -178 45.5zM323 765l-113 145h120l25 -32q21 -27 42 -60q21 33 42 60l25 32h120l-113 -145h-148z" />
    <glyph glyph-name="ccaron" unicode="&#x10d;" horiz-adv-x="544" 
d="M152 19.5q-56 31.5 -87.5 88t-31.5 129.5t32 129.5t88.5 88t129.5 31.5q97 0 160.5 -48.5t71.5 -129.5h-138q-8 32 -31.5 50t-59.5 18q-50 0 -80.5 -38t-30.5 -101t30 -101t80 -38q35 0 59.5 17.5t33.5 49.5h138q-11 -80 -76 -128.5t-160 -48.5q-72 0 -128 31.5zM211 539
l-113 145h120l25 -32q21 -27 42 -60q21 33 42 60l25 32h120l-113 -145h-148z" />
    <glyph glyph-name="Dcaron" unicode="&#x10e;" horiz-adv-x="752" 
d="M542.5 658q81.5 -42 125 -121t43.5 -187t-43.5 -187t-125 -121t-194.5 -42h-270v700h270q113 0 194.5 -42zM343 124q106 0 162 58.5t56 167.5t-56 167.5t-162 58.5h-121v-452h121zM269 765l-113 145h120l25 -32q21 -27 42 -60q21 33 42 60l25 32h120l-113 -145h-148z" />
    <glyph glyph-name="dcaron" unicode="&#x10f;" horiz-adv-x="649" 
d="M387 700h138v-700h-134v67q-20 -38 -57 -58.5t-86 -20.5q-63 0 -111.5 31t-75 87.5t-26.5 130.5q0 71 27.5 128t75.5 89t108 32q48 0 84.5 -20t56.5 -57v291zM363.5 136.5q29.5 38.5 29.5 100.5t-29.5 100.5t-77.5 38.5q-49 0 -79 -38.5t-30 -100.5t30 -100.5t79 -38.5
q48 0 77.5 38.5zM581 700h126v-127q0 -59 -32 -91.5t-93 -34.5v56q31 4 47 20.5t16 49.5v1h-64v126z" />
    <glyph glyph-name="Dcroat" unicode="&#x110;" horiz-adv-x="775" 
d="M565.5 658q81.5 -42 125 -121t43.5 -187t-43.5 -187t-125 -121t-194.5 -42h-270v308h-84v104h84v288h270q113 0 194.5 -42zM366 124q106 0 162 58.5t56 167.5t-56 167.5t-162 58.5h-121v-164h167v-104h-167v-184h121z" />
    <glyph glyph-name="dcroat" unicode="&#x111;" horiz-adv-x="585" 
d="M593 623v-86h-68v-537h-134v67q-20 -38 -57 -58.5t-86 -20.5q-63 0 -111.5 31t-75 87.5t-26.5 130.5q0 71 27.5 128t75.5 89t108 32q48 0 84.5 -20t56.5 -57v128h-158v86h158v77h138v-77h68zM363.5 136.5q29.5 38.5 29.5 100.5t-29.5 100.5t-77.5 38.5q-49 0 -79 -38.5
t-30 -100.5t30 -100.5t79 -38.5q48 0 77.5 38.5z" />
    <glyph glyph-name="Emacron" unicode="&#x112;" horiz-adv-x="602" 
d="M222 304v-180h335v-124h-479v700h475v-124h-331v-148h288v-124h-288zM470 788h-301v91h301v-91z" />
    <glyph glyph-name="emacron" unicode="&#x113;" horiz-adv-x="545" 
d="M510 201h-338q4 -51 32 -78t74 -27q32 0 55.5 14.5t32.5 39.5h138q-15 -75 -76.5 -118.5t-152.5 -43.5q-72 0 -126.5 31t-84.5 87.5t-30 130.5q0 73 31 129.5t85 88t122 31.5q117 0 177.5 -67.5t60.5 -182.5v-35zM208 362.5q-29 -23.5 -35 -69.5h202q-1 43 -28.5 68
t-69.5 25q-40 0 -69 -23.5zM427 562h-301v91h301v-91z" />
    <glyph glyph-name="Ebreve" unicode="&#x114;" horiz-adv-x="602" 
d="M222 304v-180h335v-124h-479v700h475v-124h-331v-148h288v-124h-288zM206.5 804.5q-44.5 39.5 -46.5 106.5h97q1 -28 18.5 -45t45.5 -17t45.5 17t18.5 45h97q-2 -67 -46.5 -106.5t-114.5 -39.5t-114.5 39.5z" />
    <glyph glyph-name="ebreve" unicode="&#x115;" horiz-adv-x="545" 
d="M510 201h-338q4 -51 32 -78t74 -27q32 0 55.5 14.5t32.5 39.5h138q-15 -75 -76.5 -118.5t-152.5 -43.5q-72 0 -126.5 31t-84.5 87.5t-30 130.5q0 73 31 129.5t85 88t122 31.5q117 0 177.5 -67.5t60.5 -182.5v-35zM208 362.5q-29 -23.5 -35 -69.5h202q-1 43 -28.5 68
t-69.5 25q-40 0 -69 -23.5zM163.5 578.5q-44.5 39.5 -46.5 106.5h97q1 -28 18.5 -45t45.5 -17t45.5 17t18.5 45h97q-2 -67 -46.5 -106.5t-114.5 -39.5t-114.5 39.5z" />
    <glyph glyph-name="Edotaccent" unicode="&#x116;" horiz-adv-x="602" 
d="M222 304v-180h335v-124h-479v700h475v-124h-331v-148h288v-124h-288zM391 768h-142v139h142v-139z" />
    <glyph glyph-name="edotaccent" unicode="&#x117;" horiz-adv-x="545" 
d="M510 201h-338q4 -51 32 -78t74 -27q32 0 55.5 14.5t32.5 39.5h138q-15 -75 -76.5 -118.5t-152.5 -43.5q-72 0 -126.5 31t-84.5 87.5t-30 130.5q0 73 31 129.5t85 88t122 31.5q117 0 177.5 -67.5t60.5 -182.5v-35zM208 362.5q-29 -23.5 -35 -69.5h202q-1 43 -28.5 68
t-69.5 25q-40 0 -69 -23.5zM348 542h-142v139h142v-139z" />
    <glyph glyph-name="Eogonek" unicode="&#x118;" horiz-adv-x="602" 
d="M558 -121v-85q-23 -6 -51 -6q-63 0 -96 28t-33 76q0 33 21 61t60 47h-381v700h475v-124h-331v-148h288v-124h-288v-180h335v-124q-42 -13 -62 -33.5t-20 -44.5q0 -21 14 -33.5t39 -12.5q12 0 30 3z" />
    <glyph glyph-name="eogonek" unicode="&#x119;" horiz-adv-x="545" 
d="M510 201h-338q4 -51 32 -78t74 -27q32 0 55.5 14.5t32.5 39.5h138q-9 -52 -47.5 -91.5t-97.5 -60.5q-80 -27 -80 -76q0 -21 14 -33.5t39 -12.5q12 0 30 3v-85q-23 -6 -51 -6q-63 0 -96 28t-33 76q0 29 17 54.5t50 43.5q-98 8 -156.5 75t-58.5 172q0 73 31 129.5t85 88
t122 31.5q117 0 177.5 -67.5t60.5 -182.5v-35zM375 293q-1 43 -28.5 68t-69.5 25q-40 0 -69 -23.5t-35 -69.5h202z" />
    <glyph glyph-name="Ecaron" unicode="&#x11a;" horiz-adv-x="602" 
d="M222 304v-180h335v-124h-479v700h475v-124h-331v-148h288v-124h-288zM246 765l-113 145h120l25 -32q21 -27 42 -60q21 33 42 60l25 32h120l-113 -145h-148z" />
    <glyph glyph-name="ecaron" unicode="&#x11b;" horiz-adv-x="545" 
d="M510 201h-338q4 -51 32 -78t74 -27q32 0 55.5 14.5t32.5 39.5h138q-15 -75 -76.5 -118.5t-152.5 -43.5q-72 0 -126.5 31t-84.5 87.5t-30 130.5q0 73 31 129.5t85 88t122 31.5q117 0 177.5 -67.5t60.5 -182.5v-35zM208 362.5q-29 -23.5 -35 -69.5h202q-1 43 -28.5 68
t-69.5 25q-40 0 -69 -23.5zM203 539l-113 145h120l25 -32q21 -27 42 -60q21 33 42 60l25 32h120l-113 -145h-148z" />
    <glyph glyph-name="Gcircumflex" unicode="&#x11c;" horiz-adv-x="776" 
d="M455 222v124h258v-346h-125v93q-31 -50 -86.5 -77.5t-127.5 -27.5q-96 0 -172 46.5t-119 129t-43 186.5q0 107 46 189t127.5 127.5t185.5 45.5q83 0 150.5 -29.5t110 -83.5t53.5 -125h-150q-17 53 -60.5 83.5t-105.5 30.5q-61 0 -108 -29t-73 -83t-26 -126
q0 -68 27 -122.5t75 -85t109 -30.5q64 0 110.5 28t66.5 82h-123zM210 765l113 145h148l113 -145h-120l-25 32q-21 27 -42 60q-21 -33 -42 -60l-25 -32h-120z" />
    <glyph glyph-name="gcircumflex" unicode="&#x11d;" horiz-adv-x="579" 
d="M385 474h134v-477q0 -102 -65 -155.5t-176 -53.5q-101 0 -161.5 46t-66.5 126h138q7 -32 31.5 -49t63.5 -17q47 0 72.5 25.5t25.5 74.5v83q-20 -35 -55 -54t-83 -19q-60 0 -107.5 31t-74 85.5t-26.5 122.5q0 72 29 127t78.5 85.5t110.5 30.5q92 0 132 -73v61zM358 147
q29 37 29 96t-29 96t-75 37q-47 0 -76.5 -37.5t-29.5 -95.5t29.5 -95.5t76.5 -37.5q46 0 75 37zM106 539l113 145h148l113 -145h-120l-25 32q-21 27 -42 60q-21 -33 -42 -60l-25 -32h-120z" />
    <glyph glyph-name="Gbreve" unicode="&#x11e;" horiz-adv-x="776" 
d="M455 222v124h258v-346h-125v93q-31 -50 -86.5 -77.5t-127.5 -27.5q-96 0 -172 46.5t-119 129t-43 186.5q0 107 46 189t127.5 127.5t185.5 45.5q83 0 150.5 -29.5t110 -83.5t53.5 -125h-150q-17 53 -60.5 83.5t-105.5 30.5q-61 0 -108 -29t-73 -83t-26 -126
q0 -68 27 -122.5t75 -85t109 -30.5q64 0 110.5 28t66.5 82h-123zM283.5 804.5q-44.5 39.5 -46.5 106.5h97q1 -28 18.5 -45t45.5 -17t45.5 17t18.5 45h97q-2 -67 -46.5 -106.5t-114.5 -39.5t-114.5 39.5z" />
    <glyph glyph-name="gbreve" unicode="&#x11f;" horiz-adv-x="579" 
d="M385 474h134v-477q0 -102 -65 -155.5t-176 -53.5q-101 0 -161.5 46t-66.5 126h138q7 -32 31.5 -49t63.5 -17q47 0 72.5 25.5t25.5 74.5v83q-20 -35 -55 -54t-83 -19q-60 0 -107.5 31t-74 85.5t-26.5 122.5q0 72 29 127t78.5 85.5t110.5 30.5q92 0 132 -73v61zM358 147
q29 37 29 96t-29 96t-75 37q-47 0 -76.5 -37.5t-29.5 -95.5t29.5 -95.5t76.5 -37.5q46 0 75 37zM179.5 578.5q-44.5 39.5 -46.5 106.5h97q1 -28 18.5 -45t45.5 -17t45.5 17t18.5 45h97q-2 -67 -46.5 -106.5t-114.5 -39.5t-114.5 39.5z" />
    <glyph glyph-name="Gdotaccent" unicode="&#x120;" horiz-adv-x="776" 
d="M455 222v124h258v-346h-125v93q-31 -50 -86.5 -77.5t-127.5 -27.5q-96 0 -172 46.5t-119 129t-43 186.5q0 107 46 189t127.5 127.5t185.5 45.5q83 0 150.5 -29.5t110 -83.5t53.5 -125h-150q-17 53 -60.5 83.5t-105.5 30.5q-61 0 -108 -29t-73 -83t-26 -126
q0 -68 27 -122.5t75 -85t109 -30.5q64 0 110.5 28t66.5 82h-123zM468 768h-142v139h142v-139z" />
    <glyph glyph-name="gdotaccent" unicode="&#x121;" horiz-adv-x="579" 
d="M385 474h134v-477q0 -102 -65 -155.5t-176 -53.5q-101 0 -161.5 46t-66.5 126h138q7 -32 31.5 -49t63.5 -17q47 0 72.5 25.5t25.5 74.5v83q-20 -35 -55 -54t-83 -19q-60 0 -107.5 31t-74 85.5t-26.5 122.5q0 72 29 127t78.5 85.5t110.5 30.5q92 0 132 -73v61zM358 147
q29 37 29 96t-29 96t-75 37q-47 0 -76.5 -37.5t-29.5 -95.5t29.5 -95.5t76.5 -37.5q46 0 75 37zM364 542h-142v139h142v-139z" />
    <glyph glyph-name="uni0122" unicode="&#x122;" horiz-adv-x="776" 
d="M455 222v124h258v-346h-125v93q-31 -50 -86.5 -77.5t-127.5 -27.5q-96 0 -172 46.5t-119 129t-43 186.5q0 107 46 189t127.5 127.5t185.5 45.5q83 0 150.5 -29.5t110 -83.5t53.5 -125h-150q-17 53 -60.5 83.5t-105.5 30.5q-61 0 -108 -29t-73 -83t-26 -126
q0 -68 27 -122.5t75 -85t109 -30.5q64 0 110.5 28t66.5 82h-123zM336 -65h126v-127q0 -59 -32 -91.5t-93 -34.5v56q31 4 47 20.5t16 49.5v1h-64v126z" />
    <glyph glyph-name="uni0123" unicode="&#x123;" horiz-adv-x="579" 
d="M385 474h134v-477q0 -102 -65 -155.5t-176 -53.5q-101 0 -161.5 46t-66.5 126h138q7 -32 31.5 -49t63.5 -17q47 0 72.5 25.5t25.5 74.5v83q-20 -35 -55 -54t-83 -19q-60 0 -107.5 31t-74 85.5t-26.5 122.5q0 72 29 127t78.5 85.5t110.5 30.5q92 0 132 -73v61zM358 147
q29 37 29 96t-29 96t-75 37q-47 0 -76.5 -37.5t-29.5 -95.5t29.5 -95.5t76.5 -37.5q46 0 75 37zM292 668h64v-126h-126v127q0 59 32 91.5t93 34.5v-56q-31 -4 -47 -20.5t-16 -49.5v-1z" />
    <glyph glyph-name="Hcircumflex" unicode="&#x124;" horiz-adv-x="737" 
d="M515 428v272h144v-700h-144v304h-293v-304h-144v700h144v-272h293zM181 765l113 145h148l113 -145h-120l-25 32q-21 27 -42 60q-21 -33 -42 -60l-25 -32h-120z" />
    <glyph glyph-name="hcircumflex" unicode="&#x125;" horiz-adv-x="560" 
d="M457.5 436q46.5 -50 46.5 -142v-294h-138v274q0 49 -20 75.5t-56 26.5q-42 0 -66.5 -32t-24.5 -88v-256h-138v700h138v-288q21 36 57 55t80 19q75 0 121.5 -50zM105 759l113 145h148l113 -145h-120l-25 32q-21 27 -42 60q-21 -33 -42 -60l-25 -32h-120z" />
    <glyph glyph-name="Hbar" unicode="&#x126;" horiz-adv-x="783" 
d="M682 611h78v-104h-78v-507h-144v304h-293v-304h-144v507h-78v104h78v89h144v-89h293v89h144v-89zM245 428h293v79h-293v-79z" />
    <glyph glyph-name="hbar" unicode="&#x127;" horiz-adv-x="560" 
d="M457.5 436q46.5 -50 46.5 -142v-294h-138v274q0 49 -20 75.5t-56 26.5q-42 0 -66.5 -32t-24.5 -88v-256h-138v537h-68v86h68v77h138v-77h158v-86h-158v-125q21 36 57 55t80 19q75 0 121.5 -50z" />
    <glyph glyph-name="Itilde" unicode="&#x128;" horiz-adv-x="300" 
d="M222 0h-144v700h144v-700zM190 778.5q-17 5.5 -41 15.5q-34 15 -52 15q-14 0 -21.5 -8.5t-7.5 -22.5h-93q-2 59 23.5 91.5t73.5 32.5q21 0 38 -5.5t41 -15.5q34 -15 52 -15q14 0 21.5 8.5t7.5 22.5h93q2 -59 -23.5 -91.5t-73.5 -32.5q-21 0 -38 5.5z" />
    <glyph glyph-name="itilde" unicode="&#x129;" horiz-adv-x="260" 
d="M199 0h-138v474h138v-474zM170 552.5q-17 5.5 -41 15.5q-34 15 -52 15q-14 0 -21.5 -8.5t-7.5 -22.5h-93q-2 59 23.5 91.5t73.5 32.5q21 0 38 -5.5t41 -15.5q34 -15 52 -15q14 0 21.5 8.5t7.5 22.5h93q2 -59 -23.5 -91.5t-73.5 -32.5q-21 0 -38 5.5z" />
    <glyph glyph-name="Imacron" unicode="&#x12a;" horiz-adv-x="300" 
d="M222 0h-144v700h144v-700zM300 788h-301v91h301v-91z" />
    <glyph glyph-name="imacron" unicode="&#x12b;" horiz-adv-x="260" 
d="M199 0h-138v474h138v-474zM280 562h-301v91h301v-91z" />
    <glyph glyph-name="Ibreve" unicode="&#x12c;" horiz-adv-x="300" 
d="M222 0h-144v700h144v-700zM36.5 804.5q-44.5 39.5 -46.5 106.5h97q1 -28 18.5 -45t45.5 -17t45.5 17t18.5 45h97q-2 -67 -46.5 -106.5t-114.5 -39.5t-114.5 39.5z" />
    <glyph glyph-name="ibreve" unicode="&#x12d;" horiz-adv-x="260" 
d="M199 0h-138v474h138v-474zM16.5 578.5q-44.5 39.5 -46.5 106.5h97q1 -28 18.5 -45t45.5 -17t45.5 17t18.5 45h97q-2 -67 -46.5 -106.5t-114.5 -39.5t-114.5 39.5z" />
    <glyph glyph-name="Iogonek" unicode="&#x12e;" horiz-adv-x="300" 
d="M223 -121v-85q-23 -6 -51 -6q-63 0 -96 28t-33 76q0 33 21 61t60 47h-46v700h144v-700q-42 -13 -62 -33.5t-20 -44.5q0 -21 14 -33.5t39 -12.5q12 0 30 3z" />
    <glyph glyph-name="iogonek" unicode="&#x12f;" horiz-adv-x="260" 
d="M59 542v139h142v-139h-142zM131 -111.5q14 -12.5 39 -12.5q12 0 30 3v-85q-23 -6 -51 -6q-63 0 -96 28t-33 76q0 33 21 61t60 47h-40v474h138v-474q-42 -13 -62 -33.5t-20 -44.5q0 -21 14 -33.5z" />
    <glyph glyph-name="Idotaccent" unicode="&#x130;" horiz-adv-x="300" 
d="M222 0h-144v700h144v-700zM221 768h-142v139h142v-139z" />
    <glyph glyph-name="dotlessi" unicode="&#x131;" horiz-adv-x="260" 
d="M199 0h-138v474h138v-474z" />
    <glyph glyph-name="IJ" unicode="&#x132;" horiz-adv-x="843" 
d="M222 0h-144v700h144v-700zM376 46q-58 58 -58 168h138q1 -51 23 -78.5t63 -27.5q40 0 62 27.5t22 80.5v484h144v-484q0 -109 -61 -168.5t-167 -59.5q-108 0 -166 58z" />
    <glyph glyph-name="ij" unicode="&#x133;" horiz-adv-x="520" 
d="M199 0h-138v474h138v-474zM201 542h-142v139h142v-139zM245 -200v112h33q43 0 43 45v517h138v-539q0 -67 -31 -101t-109 -34h-74zM461 542h-142v139h142v-139z" />
    <glyph glyph-name="Jcircumflex" unicode="&#x134;" horiz-adv-x="543" 
d="M76 46q-58 58 -58 168h138q1 -51 23 -78.5t63 -27.5q40 0 62 27.5t22 80.5v484h144v-484q0 -109 -61 -168.5t-167 -59.5q-108 0 -166 58zM211 765l113 145h148l113 -145h-120l-25 32q-21 27 -42 60q-21 -33 -42 -60l-25 -32h-120z" />
    <glyph glyph-name="jcircumflex" unicode="&#x135;" horiz-adv-x="260" 
d="M-15 -200v112h33q43 0 43 45v517h138v-539q0 -67 -31 -101t-109 -34h-74zM-57 539l113 145h148l113 -145h-120l-25 32q-21 27 -42 60q-21 -33 -42 -60l-25 -32h-120z" />
    <glyph glyph-name="uni0136" unicode="&#x136;" horiz-adv-x="693" 
d="M703 0h-182l-241 320l-58 -57v-263h-144v700h144v-276l278 276h187l-298 -290zM283 -65h126v-127q0 -59 -32 -91.5t-93 -34.5v56q31 4 47 20.5t16 49.5v1h-64v126z" />
    <glyph glyph-name="uni0137" unicode="&#x137;" horiz-adv-x="529" 
d="M534 0h-168l-141 194l-26 -26v-168h-138v700h138v-390l156 164h172l-201 -193zM199 -65h126v-127q0 -59 -32 -91.5t-93 -34.5v56q31 4 47 20.5t16 49.5v1h-64v126z" />
    <glyph glyph-name="kgreenlandic" unicode="&#x138;" horiz-adv-x="527" 
d="M530 0h-164l-141 194l-26 -26v-168h-138v474h138v-164l156 164h172l-202 -194z" />
    <glyph glyph-name="Lacute" unicode="&#x139;" horiz-adv-x="556" 
d="M222 700v-574l308 -3v-126l-452 3v700h144zM202 767h-104l62 141h146z" />
    <glyph glyph-name="lacute" unicode="&#x13a;" horiz-adv-x="260" 
d="M199 0h-138v700h138v-700zM182 767h-104l62 141h146z" />
    <glyph glyph-name="uni013B" unicode="&#x13b;" horiz-adv-x="556" 
d="M222 700v-574l308 -3v-126l-452 3v700h144zM248 -65h126v-127q0 -59 -32 -91.5t-93 -34.5v56q31 4 47 20.5t16 49.5v1h-64v126z" />
    <glyph glyph-name="uni013C" unicode="&#x13c;" horiz-adv-x="260" 
d="M199 0h-138v700h138v-700zM67 -65h126v-127q0 -59 -32 -91.5t-93 -34.5v56q31 4 47 20.5t16 49.5v1h-64v126z" />
    <glyph glyph-name="Lcaron" unicode="&#x13d;" horiz-adv-x="558" 
d="M222 700v-574l308 -3v-126l-452 3v700h144zM309 700h126v-127q0 -59 -32 -91.5t-93 -34.5v56q31 4 47 20.5t16 49.5v1h-64v126z" />
    <glyph glyph-name="lcaron" unicode="&#x13e;" horiz-adv-x="323" 
d="M199 0h-138v700h138v-700zM255 700h126v-127q0 -59 -32 -91.5t-93 -34.5v56q31 4 47 20.5t16 49.5v1h-64v126z" />
    <glyph glyph-name="Ldot" unicode="&#x13f;" horiz-adv-x="561" 
d="M222 700v-574l308 -3v-126l-452 3v700h144zM356 444h144v-144h-144v144z" />
    <glyph glyph-name="ldot" unicode="&#x140;" horiz-adv-x="432" 
d="M199 0h-138v700h138v-700zM423 272h-154v154h154v-154z" />
    <glyph glyph-name="Lslash" unicode="&#x141;" horiz-adv-x="608" 
d="M272 306v-180l308 -3v-126l-452 3v224l-94 -53v120l94 53v356h144v-274l193 110v-120z" />
    <glyph glyph-name="lslash" unicode="&#x142;" horiz-adv-x="362" 
d="M252 406l83 48v-108l-83 -47v-299h-138v220l-84 -48v107l84 48v373h138v-294z" />
    <glyph glyph-name="Nacute" unicode="&#x143;" horiz-adv-x="757" 
d="M78 0v700h199l271 -531q-2 48 -2 120v411h133v-700h-185l-285 559q2 -48 2 -120v-439h-133zM431 767h-104l62 141h146z" />
    <glyph glyph-name="nacute" unicode="&#x144;" horiz-adv-x="560" 
d="M457.5 435.5q46.5 -50.5 46.5 -143.5v-292h-138v271q0 50 -20.5 77.5t-59.5 27.5q-40 0 -63.5 -29t-23.5 -79v-268h-138v474h134v-75q20 43 56.5 65t84.5 22q75 0 121.5 -50.5zM333 541h-104l62 141h146z" />
    <glyph glyph-name="uni0145" unicode="&#x145;" horiz-adv-x="757" 
d="M78 0v700h199l271 -531q-2 48 -2 120v411h133v-700h-185l-285 559q2 -48 2 -120v-439h-133zM316 -65h126v-127q0 -59 -32 -91.5t-93 -34.5v56q31 4 47 20.5t16 49.5v1h-64v126z" />
    <glyph glyph-name="uni0146" unicode="&#x146;" horiz-adv-x="560" 
d="M457.5 435.5q46.5 -50.5 46.5 -143.5v-292h-138v271q0 50 -20.5 77.5t-59.5 27.5q-40 0 -63.5 -29t-23.5 -79v-268h-138v474h134v-75q20 43 56.5 65t84.5 22q75 0 121.5 -50.5zM218 -65h126v-127q0 -59 -32 -91.5t-93 -34.5v56q31 4 47 20.5t16 49.5v1h-64v126z" />
    <glyph glyph-name="Ncaron" unicode="&#x147;" horiz-adv-x="757" 
d="M78 0v700h199l271 -531q-2 48 -2 120v411h133v-700h-185l-285 559q2 -48 2 -120v-439h-133zM305 765l-113 145h120l25 -32q21 -27 42 -60q21 33 42 60l25 32h120l-113 -145h-148z" />
    <glyph glyph-name="ncaron" unicode="&#x148;" horiz-adv-x="560" 
d="M457.5 435.5q46.5 -50.5 46.5 -143.5v-292h-138v271q0 50 -20.5 77.5t-59.5 27.5q-40 0 -63.5 -29t-23.5 -79v-268h-138v474h134v-75q20 43 56.5 65t84.5 22q75 0 121.5 -50.5zM207 539l-113 145h120l25 -32q21 -27 42 -60q21 33 42 60l25 32h120l-113 -145h-148z" />
    <glyph glyph-name="Eng" unicode="&#x14a;" horiz-adv-x="757" 
d="M422 -200v120h68q56 0 56 55v42l-337 540q2 -39 2 -98v-459h-133v700h190l280 -450q-2 38 -2 98v352h133v-755q0 -77 -36 -111t-117 -34h-104z" />
    <glyph glyph-name="eng" unicode="&#x14b;" horiz-adv-x="560" 
d="M457.5 435.5q46.5 -50.5 46.5 -143.5v-357q0 -67 -31 -101t-109 -34h-74v112h33q43 0 43 45v314q0 50 -20.5 77.5t-59.5 27.5q-40 0 -63.5 -29t-23.5 -79v-268h-138v474h134v-75q20 43 56.5 65t84.5 22q75 0 121.5 -50.5z" />
    <glyph glyph-name="Omacron" unicode="&#x14c;" horiz-adv-x="798" 
d="M212 33.5q-81 45.5 -126.5 127.5t-45.5 189t45.5 189t126.5 127.5t186 45.5t186.5 -45.5t127.5 -127.5t46 -189t-46 -189t-127.5 -127.5t-186.5 -45.5t-186 45.5zM508 142q48 30 74 84t26 124t-26 124t-74 84t-110 30t-109 -30t-73 -84t-26 -124t26 -124t73 -84t109 -30
t110 30zM549 788h-301v91h301v-91z" />
    <glyph glyph-name="omacron" unicode="&#x14d;" horiz-adv-x="572" 
d="M154 19q-57 31 -88.5 87.5t-31.5 130.5t31.5 130.5t88.5 87.5t132 31t132 -31t88.5 -87.5t31.5 -130.5t-31.5 -130.5t-88.5 -87.5t-132 -31t-132 31zM366 136q30 38 30 101t-30 101t-80 38t-80 -38t-30 -101t30 -101t80 -38t80 38zM436 561h-301v91h301v-91z" />
    <glyph glyph-name="Obreve" unicode="&#x14e;" horiz-adv-x="798" 
d="M212 33.5q-81 45.5 -126.5 127.5t-45.5 189t45.5 189t126.5 127.5t186 45.5t186.5 -45.5t127.5 -127.5t46 -189t-46 -189t-127.5 -127.5t-186.5 -45.5t-186 45.5zM508 142q48 30 74 84t26 124t-26 124t-74 84t-110 30t-109 -30t-73 -84t-26 -124t26 -124t73 -84t109 -30
t110 30zM285.5 804.5q-44.5 39.5 -46.5 106.5h97q1 -28 18.5 -45t45.5 -17t45.5 17t18.5 45h97q-2 -67 -46.5 -106.5t-114.5 -39.5t-114.5 39.5z" />
    <glyph glyph-name="obreve" unicode="&#x14f;" horiz-adv-x="572" 
d="M154 19q-57 31 -88.5 87.5t-31.5 130.5t31.5 130.5t88.5 87.5t132 31t132 -31t88.5 -87.5t31.5 -130.5t-31.5 -130.5t-88.5 -87.5t-132 -31t-132 31zM366 136q30 38 30 101t-30 101t-80 38t-80 -38t-30 -101t30 -101t80 -38t80 38zM172.5 577.5q-44.5 39.5 -46.5 106.5
h97q1 -28 18.5 -45t45.5 -17t45.5 17t18.5 45h97q-2 -67 -46.5 -106.5t-114.5 -39.5t-114.5 39.5z" />
    <glyph glyph-name="Ohungarumlaut" unicode="&#x150;" horiz-adv-x="798" 
d="M212 33.5q-81 45.5 -126.5 127.5t-45.5 189t45.5 189t126.5 127.5t186 45.5t186.5 -45.5t127.5 -127.5t46 -189t-46 -189t-127.5 -127.5t-186.5 -45.5t-186 45.5zM508 142q48 30 74 84t26 124t-26 124t-74 84t-110 30t-109 -30t-73 -84t-26 -124t26 -124t73 -84t109 -30
t110 30zM362 767h-97l65 141h120zM533 767h-98l64 141h122z" />
    <glyph glyph-name="ohungarumlaut" unicode="&#x151;" horiz-adv-x="572" 
d="M154 19q-57 31 -88.5 87.5t-31.5 130.5t31.5 130.5t88.5 87.5t132 31t132 -31t88.5 -87.5t31.5 -130.5t-31.5 -130.5t-88.5 -87.5t-132 -31t-132 31zM366 136q30 38 30 101t-30 101t-80 38t-80 -38t-30 -101t30 -101t80 -38t80 38zM249 540h-97l65 141h120zM420 540h-98
l64 141h122z" />
    <glyph glyph-name="OE" unicode="&#x152;" horiz-adv-x="1131" 
d="M209 34.5q-80 46.5 -125 129t-45 186.5t45 186.5t125 129t180 46.5q71 0 129 -27t89 -74v89h475v-124h-331v-148h288v-124h-288v-180h335v-124h-479v89q-31 -47 -89 -74t-129 -27q-100 0 -180 46.5zM507 142q48 30 74 84t26 124t-26 124t-74 84t-110 30t-109 -30t-73 -84
t-26 -124t26 -124t73 -84t109 -30t110 30z" />
    <glyph glyph-name="oe" unicode="&#x153;" horiz-adv-x="907" 
d="M154 19q-57 31 -88.5 87.5t-31.5 130.5t31.5 130.5t88.5 87.5t132 31q114 0 181 -70q31 34 74 52t93 18q117 0 177.5 -67.5t60.5 -182.5v-35h-338q4 -51 32 -78t74 -27q32 0 55.5 14.5t32.5 39.5h138q-16 -76 -76.5 -119t-152.5 -43q-52 0 -95.5 17.5t-75.5 50.5
q-33 -33 -79 -50.5t-101 -17.5q-75 0 -132 31zM737 293q-1 43 -28.5 68t-69.5 25q-40 0 -69 -23.5t-35 -69.5h202zM366 136q30 38 30 101t-30 101t-80 38t-80 -38t-30 -101t30 -101t80 -38t80 38z" />
    <glyph glyph-name="Racute" unicode="&#x154;" horiz-adv-x="668" 
d="M596 121q0 -43 3.5 -66.5t12.5 -54.5h-148q-5 23 -7.5 47t-2.5 66v89q0 45 -20.5 65.5t-64.5 20.5h-147v-288h-144v700h315q69 0 120 -24.5t78.5 -67t27.5 -97.5q0 -61 -37 -103t-99 -56q61 -10 87 -45.5t26 -105.5v-80zM366 408q49 0 76 23t27 63t-27 63t-76 23h-144
v-172h144zM371 767h-104l62 141h146z" />
    <glyph glyph-name="racute" unicode="&#x155;" horiz-adv-x="378" 
d="M193 379q18 57 61.5 84t103.5 23v-131q-82 3 -120.5 -33t-38.5 -122v-200h-138v474h132v-95zM263 541h-104l62 141h146z" />
    <glyph glyph-name="uni0156" unicode="&#x156;" horiz-adv-x="668" 
d="M596 121q0 -43 3.5 -66.5t12.5 -54.5h-148q-5 23 -7.5 47t-2.5 66v89q0 45 -20.5 65.5t-64.5 20.5h-147v-288h-144v700h315q69 0 120 -24.5t78.5 -67t27.5 -97.5q0 -61 -37 -103t-99 -56q61 -10 87 -45.5t26 -105.5v-80zM366 408q49 0 76 23t27 63t-27 63t-76 23h-144
v-172h144zM273 -65h126v-127q0 -59 -32 -91.5t-93 -34.5v56q31 4 47 20.5t16 49.5v1h-64v126z" />
    <glyph glyph-name="uni0157" unicode="&#x157;" horiz-adv-x="378" 
d="M193 379q18 57 61.5 84t103.5 23v-131q-82 3 -120.5 -33t-38.5 -122v-200h-138v474h132v-95zM67 -65h126v-127q0 -59 -32 -91.5t-93 -34.5v56q31 4 47 20.5t16 49.5v1h-64v126z" />
    <glyph glyph-name="Rcaron" unicode="&#x158;" horiz-adv-x="668" 
d="M596 121q0 -43 3.5 -66.5t12.5 -54.5h-148q-5 23 -7.5 47t-2.5 66v89q0 45 -20.5 65.5t-64.5 20.5h-147v-288h-144v700h315q69 0 120 -24.5t78.5 -67t27.5 -97.5q0 -61 -37 -103t-99 -56q61 -10 87 -45.5t26 -105.5v-80zM366 408q49 0 76 23t27 63t-27 63t-76 23h-144
v-172h144zM245 765l-113 145h120l25 -32q21 -27 42 -60q21 33 42 60l25 32h120l-113 -145h-148z" />
    <glyph glyph-name="rcaron" unicode="&#x159;" horiz-adv-x="378" 
d="M193 379q18 57 61.5 84t103.5 23v-131q-82 3 -120.5 -33t-38.5 -122v-200h-138v474h132v-95zM137 539l-113 145h120l25 -32q21 -27 42 -60q21 33 42 60l25 32h120l-113 -145h-148z" />
    <glyph glyph-name="Sacute" unicode="&#x15a;" horiz-adv-x="640" 
d="M114.5 49q-76.5 61 -82.5 172h148q5 -53 44.5 -84t103.5 -31q58 0 91.5 25t33.5 68q0 62 -92 83l-113 25q-95 21 -145.5 73t-50.5 129q0 59 32.5 105t92 72t137.5 26q82 0 144.5 -26t98 -74.5t37.5 -113.5h-146q-4 46 -40.5 72t-92.5 26q-52 0 -83.5 -23.5t-31.5 -59.5
q0 -62 86 -80l125 -27q91 -19 140.5 -72t49.5 -129q0 -65 -34.5 -114t-97 -76t-143.5 -27q-135 0 -211.5 61zM367 767h-104l62 141h146z" />
    <glyph glyph-name="sacute" unicode="&#x15b;" horiz-adv-x="490" 
d="M88.5 32.5q-56.5 44.5 -61.5 118.5h132q5 -30 28.5 -47.5t60.5 -17.5q34 0 53 13.5t19 36.5q0 33 -52 44l-85 17q-140 28 -140 143q0 42 25.5 75.5t70.5 52t102 18.5q92 0 146.5 -39.5t60.5 -109.5h-128q-5 26 -26 40.5t-53 14.5q-31 0 -49 -12.5t-18 -32.5q0 -34 45 -43
l89 -17q150 -29 150 -143q0 -71 -57.5 -113.5t-153.5 -42.5q-102 0 -158.5 44.5zM292 541h-104l62 141h146z" />
    <glyph glyph-name="Scircumflex" unicode="&#x15c;" horiz-adv-x="640" 
d="M114.5 49q-76.5 61 -82.5 172h148q5 -53 44.5 -84t103.5 -31q58 0 91.5 25t33.5 68q0 62 -92 83l-113 25q-95 21 -145.5 73t-50.5 129q0 59 32.5 105t92 72t137.5 26q82 0 144.5 -26t98 -74.5t37.5 -113.5h-146q-4 46 -40.5 72t-92.5 26q-52 0 -83.5 -23.5t-31.5 -59.5
q0 -62 86 -80l125 -27q91 -19 140.5 -72t49.5 -129q0 -65 -34.5 -114t-97 -76t-143.5 -27q-135 0 -211.5 61zM128 765l113 145h148l113 -145h-120l-25 32q-21 27 -42 60q-21 -33 -42 -60l-25 -32h-120z" />
    <glyph glyph-name="scircumflex" unicode="&#x15d;" horiz-adv-x="490" 
d="M88.5 32.5q-56.5 44.5 -61.5 118.5h132q5 -30 28.5 -47.5t60.5 -17.5q34 0 53 13.5t19 36.5q0 33 -52 44l-85 17q-140 28 -140 143q0 42 25.5 75.5t70.5 52t102 18.5q92 0 146.5 -39.5t60.5 -109.5h-128q-5 26 -26 40.5t-53 14.5q-31 0 -49 -12.5t-18 -32.5q0 -34 45 -43
l89 -17q150 -29 150 -143q0 -71 -57.5 -113.5t-153.5 -42.5q-102 0 -158.5 44.5zM53 539l113 145h148l113 -145h-120l-25 32q-21 27 -42 60q-21 -33 -42 -60l-25 -32h-120z" />
    <glyph glyph-name="Scedilla" unicode="&#x15e;" horiz-adv-x="640" 
d="M534 55q-67 -58 -178 -66l-28 -31q42 1 69.5 -20.5t27.5 -59.5q0 -41 -33 -65.5t-85 -24.5q-32 0 -62.5 10.5t-50.5 28.5l38 54q32 -26 72 -26q19 0 31.5 8t12.5 21q0 14 -11 20.5t-29 6.5t-36 -8l-37 33l48 54q-115 9 -180.5 69t-70.5 162h148q5 -53 44.5 -84t103.5 -31
q58 0 91.5 25t33.5 68q0 62 -92 83l-113 25q-95 21 -145.5 73t-50.5 129q0 59 32.5 105t92 72t137.5 26q82 0 144.5 -26t98 -74.5t37.5 -113.5h-146q-4 46 -40.5 72t-92.5 26q-52 0 -83.5 -23.5t-31.5 -59.5q0 -62 86 -80l125 -27q91 -19 140.5 -72t49.5 -129
q0 -92 -67 -150z" />
    <glyph glyph-name="scedilla" unicode="&#x15f;" horiz-adv-x="490" 
d="M408.5 36.5q-49.5 -41.5 -135.5 -47.5l-28 -31q42 1 69.5 -20.5t27.5 -59.5q0 -41 -33 -65.5t-85 -24.5q-32 0 -62.5 10.5t-50.5 28.5l38 54q32 -26 72 -26q19 0 31.5 8t12.5 21q0 14 -11 20.5t-29 6.5t-36 -8l-37 33l49 55q-81 10 -125.5 52.5t-48.5 107.5h132
q5 -30 28.5 -47.5t60.5 -17.5q34 0 53 13.5t19 36.5q0 33 -52 44l-85 17q-140 28 -140 143q0 42 25.5 75.5t70.5 52t102 18.5q92 0 146.5 -39.5t60.5 -109.5h-128q-5 26 -26 40.5t-53 14.5q-31 0 -49 -12.5t-18 -32.5q0 -34 45 -43l89 -17q150 -29 150 -143
q0 -66 -49.5 -107.5z" />
    <glyph glyph-name="Scaron" unicode="&#x160;" horiz-adv-x="640" 
d="M114.5 49q-76.5 61 -82.5 172h148q5 -53 44.5 -84t103.5 -31q58 0 91.5 25t33.5 68q0 62 -92 83l-113 25q-95 21 -145.5 73t-50.5 129q0 59 32.5 105t92 72t137.5 26q82 0 144.5 -26t98 -74.5t37.5 -113.5h-146q-4 46 -40.5 72t-92.5 26q-52 0 -83.5 -23.5t-31.5 -59.5
q0 -62 86 -80l125 -27q91 -19 140.5 -72t49.5 -129q0 -65 -34.5 -114t-97 -76t-143.5 -27q-135 0 -211.5 61zM241 765l-113 145h120l25 -32q21 -27 42 -60q21 33 42 60l25 32h120l-113 -145h-148z" />
    <glyph glyph-name="scaron" unicode="&#x161;" horiz-adv-x="490" 
d="M88.5 32.5q-56.5 44.5 -61.5 118.5h132q5 -30 28.5 -47.5t60.5 -17.5q34 0 53 13.5t19 36.5q0 33 -52 44l-85 17q-140 28 -140 143q0 42 25.5 75.5t70.5 52t102 18.5q92 0 146.5 -39.5t60.5 -109.5h-128q-5 26 -26 40.5t-53 14.5q-31 0 -49 -12.5t-18 -32.5q0 -34 45 -43
l89 -17q150 -29 150 -143q0 -71 -57.5 -113.5t-153.5 -42.5q-102 0 -158.5 44.5zM166 539l-113 145h120l25 -32q21 -27 42 -60q21 33 42 60l25 32h120l-113 -145h-148z" />
    <glyph glyph-name="uni0162" unicode="&#x162;" horiz-adv-x="595" 
d="M370 -1h-34l-38 -42q42 1 69.5 -20.5t27.5 -59.5q0 -41 -33 -65.5t-85 -24.5q-32 0 -62.5 10.5t-50.5 28.5l38 54q32 -26 72 -26q19 0 31.5 8t12.5 21q0 14 -11 20.5t-29 6.5t-36 -8l-37 33l57 64h-36v575h-204v126h551v-126h-203v-575z" />
    <glyph glyph-name="uni0163" unicode="&#x163;" horiz-adv-x="376" 
d="M339 368h-109v-206q0 -25 11.5 -37.5t40.5 -12.5h57v-112h-91l-38 -42q42 1 69.5 -20.5t27.5 -59.5q0 -41 -33 -65.5t-85 -24.5q-32 0 -62.5 10.5t-50.5 28.5l38 54q32 -26 72 -26q19 0 31.5 8t12.5 21q0 14 -11 20.5t-29 6.5t-36 -8l-37 33l62 70q-87 21 -87 129v233
h-62v106h62v163h138v-163h109v-106z" />
    <glyph glyph-name="Tcaron" unicode="&#x164;" horiz-adv-x="595" 
d="M22 700h551v-126h-203v-575h-144v575h-204v126zM224 764l-113 145h120l25 -32q21 -27 42 -60q21 33 42 60l25 32h120l-113 -145h-148z" />
    <glyph glyph-name="tcaron" unicode="&#x165;" horiz-adv-x="376" 
d="M339 368h-109v-206q0 -25 11.5 -37.5t40.5 -12.5h57v-112h-109q-70 0 -104 33.5t-34 101.5v233h-62v106h62v163h138v-163h109v-106zM277 774h126v-127q0 -59 -32 -91.5t-93 -34.5v56q31 4 47 20.5t16 49.5v1h-64v126z" />
    <glyph glyph-name="Tbar" unicode="&#x166;" horiz-adv-x="613" 
d="M582 700v-126h-203v-172h155v-104h-155v-299h-144v299h-155v104h155v172h-204v126h551z" />
    <glyph glyph-name="tbar" unicode="&#x167;" horiz-adv-x="380" 
d="M341 368h-109v-74h109v-86h-109v-46q0 -25 11.5 -37.5t40.5 -12.5h57v-112h-109q-70 0 -104 33.5t-34 101.5v73h-62v86h62v74h-62v106h62v163h138v-163h109v-106z" />
    <glyph glyph-name="Utilde" unicode="&#x168;" horiz-adv-x="740" 
d="M211 22.5q-67 34.5 -103.5 99t-36.5 154.5v424h144v-414q0 -83 40.5 -128.5t114.5 -45.5q75 0 115.5 45.5t40.5 128.5v414h143v-418q0 -91 -36.5 -157.5t-104 -101.5t-158.5 -35q-92 0 -159 34.5zM410 778.5q-17 5.5 -41 15.5q-34 15 -52 15q-14 0 -21.5 -8.5t-7.5 -22.5
h-93q-2 59 23.5 91.5t73.5 32.5q21 0 38 -5.5t41 -15.5q34 -15 52 -15q14 0 21.5 8.5t7.5 22.5h93q2 -59 -23.5 -91.5t-73.5 -32.5q-21 0 -38 5.5z" />
    <glyph glyph-name="utilde" unicode="&#x169;" horiz-adv-x="560" 
d="M361 474h138v-474h-134v75q-20 -43 -56.5 -65t-84.5 -22q-75 0 -121.5 50.5t-46.5 143.5v292h138v-271q0 -50 20.5 -77.5t59.5 -27.5q40 0 63.5 29t23.5 79v268zM319 552.5q-17 5.5 -41 15.5q-34 15 -52 15q-14 0 -21.5 -8.5t-7.5 -22.5h-93q-2 59 23.5 91.5t73.5 32.5
q21 0 38 -5.5t41 -15.5q34 -15 52 -15q14 0 21.5 8.5t7.5 22.5h93q2 -59 -23.5 -91.5t-73.5 -32.5q-21 0 -38 5.5z" />
    <glyph glyph-name="Umacron" unicode="&#x16a;" horiz-adv-x="740" 
d="M211 22.5q-67 34.5 -103.5 99t-36.5 154.5v424h144v-414q0 -83 40.5 -128.5t114.5 -45.5q75 0 115.5 45.5t40.5 128.5v414h143v-418q0 -91 -36.5 -157.5t-104 -101.5t-158.5 -35q-92 0 -159 34.5zM520 788h-301v91h301v-91z" />
    <glyph glyph-name="umacron" unicode="&#x16b;" horiz-adv-x="560" 
d="M361 474h138v-474h-134v75q-20 -43 -56.5 -65t-84.5 -22q-75 0 -121.5 50.5t-46.5 143.5v292h138v-271q0 -50 20.5 -77.5t59.5 -27.5q40 0 63.5 29t23.5 79v268zM429 562h-301v91h301v-91z" />
    <glyph glyph-name="Ubreve" unicode="&#x16c;" horiz-adv-x="740" 
d="M211 22.5q-67 34.5 -103.5 99t-36.5 154.5v424h144v-414q0 -83 40.5 -128.5t114.5 -45.5q75 0 115.5 45.5t40.5 128.5v414h143v-418q0 -91 -36.5 -157.5t-104 -101.5t-158.5 -35q-92 0 -159 34.5zM256.5 804.5q-44.5 39.5 -46.5 106.5h97q1 -28 18.5 -45t45.5 -17
t45.5 17t18.5 45h97q-2 -67 -46.5 -106.5t-114.5 -39.5t-114.5 39.5z" />
    <glyph glyph-name="ubreve" unicode="&#x16d;" horiz-adv-x="560" 
d="M361 474h138v-474h-134v75q-20 -43 -56.5 -65t-84.5 -22q-75 0 -121.5 50.5t-46.5 143.5v292h138v-271q0 -50 20.5 -77.5t59.5 -27.5q40 0 63.5 29t23.5 79v268zM165.5 578.5q-44.5 39.5 -46.5 106.5h97q1 -28 18.5 -45t45.5 -17t45.5 17t18.5 45h97q-2 -67 -46.5 -106.5
t-114.5 -39.5t-114.5 39.5z" />
    <glyph glyph-name="Uring" unicode="&#x16e;" horiz-adv-x="740" 
d="M211 22.5q-67 34.5 -103.5 99t-36.5 154.5v424h144v-414q0 -83 40.5 -128.5t114.5 -45.5q75 0 115.5 45.5t40.5 128.5v414h143v-418q0 -91 -36.5 -157.5t-104 -101.5t-158.5 -35q-92 0 -159 34.5zM280 781.5q-35 30.5 -35 79.5t35 80t90 31t89.5 -31t34.5 -80t-35 -79.5
t-89 -30.5q-55 0 -90 30.5zM402.5 828q12.5 13 12.5 33t-12.5 33t-32.5 13t-33 -13t-13 -33t13 -33t33 -13t32.5 13z" />
    <glyph glyph-name="uring" unicode="&#x16f;" horiz-adv-x="560" 
d="M361 474h138v-474h-134v75q-20 -43 -56.5 -65t-84.5 -22q-75 0 -121.5 50.5t-46.5 143.5v292h138v-271q0 -50 20.5 -77.5t59.5 -27.5q40 0 63.5 29t23.5 79v268zM189 555.5q-35 30.5 -35 79.5t35 80t90 31t89.5 -31t34.5 -80t-35 -79.5t-89 -30.5q-55 0 -90 30.5z
M311.5 602q12.5 13 12.5 33t-12.5 33t-32.5 13t-33 -13t-13 -33t13 -33t33 -13t32.5 13z" />
    <glyph glyph-name="Uhungarumlaut" unicode="&#x170;" horiz-adv-x="740" 
d="M211 22.5q-67 34.5 -103.5 99t-36.5 154.5v424h144v-414q0 -83 40.5 -128.5t114.5 -45.5q75 0 115.5 45.5t40.5 128.5v414h143v-418q0 -91 -36.5 -157.5t-104 -101.5t-158.5 -35q-92 0 -159 34.5zM333 767h-97l65 141h120zM504 767h-98l64 141h122z" />
    <glyph glyph-name="uhungarumlaut" unicode="&#x171;" horiz-adv-x="560" 
d="M361 474h138v-474h-134v75q-20 -43 -56.5 -65t-84.5 -22q-75 0 -121.5 50.5t-46.5 143.5v292h138v-271q0 -50 20.5 -77.5t59.5 -27.5q40 0 63.5 29t23.5 79v268zM242 541h-97l65 141h120zM413 541h-98l64 141h122z" />
    <glyph glyph-name="Uogonek" unicode="&#x172;" horiz-adv-x="740" 
d="M526 700h143v-418q0 -108 -49.5 -177.5t-145.5 -106.5q-76 -29 -76 -76q0 -21 14 -33.5t39 -12.5q12 0 30 3v-85q-23 -6 -51 -6q-63 0 -96 28t-33 76q0 28 15.5 53t44.5 43q-136 3 -213 79t-77 209v424h144v-414q0 -83 40.5 -128.5t114.5 -45.5q75 0 115.5 45.5
t40.5 128.5v414z" />
    <glyph glyph-name="uogonek" unicode="&#x173;" horiz-adv-x="560" 
d="M498 0q-42 -13 -62 -33.5t-20 -44.5q0 -21 14 -33.5t39 -12.5q12 0 30 3v-85q-23 -6 -51 -6q-63 0 -96 28t-33 76q0 33 21 61t60 47h-35v75q-20 -43 -56.5 -65t-84.5 -22q-75 0 -121.5 50.5t-46.5 143.5v292h138v-271q0 -50 20.5 -77.5t59.5 -27.5q40 0 63.5 29t23.5 79
v268h138v-474h-1z" />
    <glyph glyph-name="Wcircumflex" unicode="&#x174;" horiz-adv-x="992" 
d="M197 0l-178 700h146l95 -413q10 -44 30 -142q11 55 31 142l97 413h164l97 -413q20 -87 31 -142q20 98 30 142l95 413h138l-178 -700h-172l-106 446q-11 44 -21 96q-11 -52 -21 -96l-107 -446h-171zM309 765l113 145h148l113 -145h-120l-25 32q-21 27 -42 60
q-21 -33 -42 -60l-25 -32h-120z" />
    <glyph glyph-name="wcircumflex" unicode="&#x175;" horiz-adv-x="757" 
d="M140 0l-118 474h138l51 -262l15 -89q14 62 21 89l67 262h139l67 -262q7 -27 21 -89l15 89l51 262h128l-118 -474h-155l-67 268q-10 44 -16 76q-6 -32 -16 -76l-68 -268h-155zM189 539l113 145h148l113 -145h-120l-25 32q-21 27 -42 60q-21 -33 -42 -60l-25 -32h-120z" />
    <glyph glyph-name="Ycircumflex" unicode="&#x176;" horiz-adv-x="683" 
d="M677 700l-263 -419v-281h-144v278l-264 422h161l133 -219q23 -36 45 -78q28 53 44 78l132 219h156zM158 765l113 145h148l113 -145h-120l-25 32q-21 27 -42 60q-21 -33 -42 -60l-25 -32h-120z" />
    <glyph glyph-name="ycircumflex" unicode="&#x177;" horiz-adv-x="515" 
d="M59 -200v114h39q61 0 80 52l15 39l-188 469h153l80 -239q14 -44 24 -80q16 59 23 80l74 239h142l-203 -554q-22 -61 -65.5 -90.5t-109.5 -29.5h-64zM75 539l113 145h148l113 -145h-120l-25 32q-21 27 -42 60q-21 -33 -42 -60l-25 -32h-120z" />
    <glyph glyph-name="Ydieresis" unicode="&#x178;" horiz-adv-x="683" 
d="M677 700l-263 -419v-281h-144v278l-264 422h161l133 -219q23 -36 45 -78q28 53 44 78l132 219h156zM305 776h-123v123h123v-123zM507 776h-122v123h122v-123z" />
    <glyph glyph-name="Zacute" unicode="&#x179;" horiz-adv-x="638" 
d="M589 580l-379 -456h392v-124h-563v121l379 455h-372l-1 124h544v-120zM373 767h-104l62 141h146z" />
    <glyph glyph-name="zacute" unicode="&#x17a;" horiz-adv-x="482" 
d="M437 370l-239 -262h248v-108h-408v104l239 262h-236v108h396v-104zM293 541h-104l62 141h146z" />
    <glyph glyph-name="Zdotaccent" unicode="&#x17b;" horiz-adv-x="638" 
d="M589 580l-379 -456h392v-124h-563v121l379 455h-372l-1 124h544v-120zM392 768h-142v139h142v-139z" />
    <glyph glyph-name="zdotaccent" unicode="&#x17c;" horiz-adv-x="482" 
d="M437 370l-239 -262h248v-108h-408v104l239 262h-236v108h396v-104zM312 542h-142v139h142v-139z" />
    <glyph glyph-name="Zcaron" unicode="&#x17d;" horiz-adv-x="638" 
d="M589 580l-379 -456h392v-124h-563v121l379 455h-372l-1 124h544v-120zM247 765l-113 145h120l25 -32q21 -27 42 -60q21 33 42 60l25 32h120l-113 -145h-148z" />
    <glyph glyph-name="zcaron" unicode="&#x17e;" horiz-adv-x="482" 
d="M437 370l-239 -262h248v-108h-408v104l239 262h-236v108h396v-104zM167 539l-113 145h120l25 -32q21 -27 42 -60q21 33 42 60l25 32h120l-113 -145h-148z" />
    <glyph glyph-name="florin" unicode="&#x192;" horiz-adv-x="459" 
d="M389 590q-30 0 -44 -12t-18 -40l-14 -97h116v-106h-131l-46 -319q-10 -70 -47 -101t-111 -31h-70v110h40q30 0 44 12t18 40l42 289h-114v106h129l18 127q10 70 47 101t111 31h70v-110h-40z" />
    <glyph glyph-name="uni01B5" unicode="&#x1b5;" horiz-adv-x="646" 
d="M370 311l-155 -187h392v-124h-563v121l158 190h-131v104h218l134 161h-372l-1 124h544v-120l-137 -165h101v-104h-188z" />
    <glyph glyph-name="uni01B6" unicode="&#x1b6;" horiz-adv-x="487" 
d="M283 198l-82 -90h248v-108h-408v104l86 94h-68v85h146l75 83h-236v108h396v-104l-79 -87h65v-85h-143z" />
    <glyph glyph-name="AEacute" unicode="&#x1fc;" horiz-adv-x="952" 
d="M572 304v-180h335v-124h-479v159h-216l-81 -159h-151l368 700h555v-124h-331v-148h288v-124h-288zM275 280h153v311q-21 -52 -52 -113zM672 767h-104l62 141h146z" />
    <glyph glyph-name="aeacute" unicode="&#x1fd;" horiz-adv-x="841" 
d="M806 201h-338q4 -51 32 -78t74 -27q32 0 55.5 14.5t32.5 39.5h138q-15 -75 -76.5 -118.5t-152.5 -43.5q-60 0 -107.5 21.5t-77.5 62.5q-28 -41 -73.5 -62.5t-103.5 -21.5q-81 0 -129.5 40t-48.5 105q0 63 48 101t138 49l67 8q51 7 51 42q0 25 -19.5 41t-49.5 16
q-34 0 -55.5 -16.5t-25.5 -45.5h-137q9 73 67 115.5t146 42.5q104 0 156 -54q29 26 68 40t83 14q117 0 177.5 -67.5t60.5 -182.5v-35zM671 293q-1 43 -28.5 68t-69.5 25q-40 0 -69 -23.5t-35 -69.5h202zM334 225q-12 -12 -50 -20l-45 -9q-67 -13 -67 -58q0 -24 18.5 -39
t47.5 -15q43 0 69.5 26.5t26.5 69.5v45zM469 541h-104l62 141h146z" />
    <glyph glyph-name="uni0218" unicode="&#x218;" horiz-adv-x="640" 
d="M114.5 49q-76.5 61 -82.5 172h148q5 -53 44.5 -84t103.5 -31q58 0 91.5 25t33.5 68q0 62 -92 83l-113 25q-95 21 -145.5 73t-50.5 129q0 59 32.5 105t92 72t137.5 26q82 0 144.5 -26t98 -74.5t37.5 -113.5h-146q-4 46 -40.5 72t-92.5 26q-52 0 -83.5 -23.5t-31.5 -59.5
q0 -62 86 -80l125 -27q91 -19 140.5 -72t49.5 -129q0 -65 -34.5 -114t-97 -76t-143.5 -27q-135 0 -211.5 61zM265 -65h126v-127q0 -59 -32 -91.5t-93 -34.5v56q31 4 47 20.5t16 49.5v1h-64v126z" />
    <glyph glyph-name="uni0219" unicode="&#x219;" horiz-adv-x="490" 
d="M88.5 32.5q-56.5 44.5 -61.5 118.5h132q5 -30 28.5 -47.5t60.5 -17.5q34 0 53 13.5t19 36.5q0 33 -52 44l-85 17q-140 28 -140 143q0 42 25.5 75.5t70.5 52t102 18.5q92 0 146.5 -39.5t60.5 -109.5h-128q-5 26 -26 40.5t-53 14.5q-31 0 -49 -12.5t-18 -32.5q0 -34 45 -43
l89 -17q150 -29 150 -143q0 -71 -57.5 -113.5t-153.5 -42.5q-102 0 -158.5 44.5zM182 -65h126v-127q0 -59 -32 -91.5t-93 -34.5v56q31 4 47 20.5t16 49.5v1h-64v126z" />
    <glyph glyph-name="uni021A" unicode="&#x21a;" horiz-adv-x="595" 
d="M22 700h551v-126h-203v-575h-144v575h-204v126zM235 -66h126v-127q0 -59 -32 -91.5t-93 -34.5v56q31 4 47 20.5t16 49.5v1h-64v126z" />
    <glyph glyph-name="uni021B" unicode="&#x21b;" horiz-adv-x="376" 
d="M339 368h-109v-206q0 -25 11.5 -37.5t40.5 -12.5h57v-112h-109q-70 0 -104 33.5t-34 101.5v233h-62v106h62v163h138v-163h109v-106zM147 -65h126v-127q0 -59 -32 -91.5t-93 -34.5v56q31 4 47 20.5t16 49.5v1h-64v126z" />
    <glyph glyph-name="uni0237" unicode="&#x237;" horiz-adv-x="260" 
d="M-15 -200v112h33q43 0 43 45v517h138v-539q0 -67 -31 -101t-109 -34h-74z" />
    <glyph glyph-name="circumflex" unicode="&#x2c6;" horiz-adv-x="474" 
d="M50 539l113 145h148l113 -145h-120l-25 32q-21 27 -42 60q-21 -33 -42 -60l-25 -32h-120z" />
    <glyph glyph-name="caron" unicode="&#x2c7;" horiz-adv-x="473" 
d="M163 539l-113 145h120l25 -32q21 -27 42 -60q21 33 42 60l25 32h120l-113 -145h-148z" />
    <glyph glyph-name="uni02C9" unicode="&#x2c9;" horiz-adv-x="301" 
d="M301 566h-301v91h301v-91z" />
    <glyph glyph-name="breve" unicode="&#x2d8;" horiz-adv-x="422" 
d="M96.5 578.5q-44.5 39.5 -46.5 106.5h97q1 -28 18.5 -45t45.5 -17t45.5 17t18.5 45h97q-2 -67 -46.5 -106.5t-114.5 -39.5t-114.5 39.5z" />
    <glyph glyph-name="dotaccent" unicode="&#x2d9;" horiz-adv-x="242" 
d="M192 542h-142v139h142v-139z" />
    <glyph glyph-name="ring" unicode="&#x2da;" horiz-adv-x="326" 
d="M85 555.5q-35 30.5 -35 79.5t35 80t90 31t89.5 -31t34.5 -80t-35 -79.5t-89 -30.5q-55 0 -90 30.5zM207.5 602q12.5 13 12.5 33t-12.5 33t-32.5 13t-33 -13t-13 -33t13 -33t33 -13t32.5 13z" />
    <glyph glyph-name="ogonek" unicode="&#x2db;" horiz-adv-x="259" 
d="M83 -184q-33 28 -33 76q0 43 34.5 76.5t95.5 48.5l49 -17q-42 -13 -62 -33.5t-20 -44.5q0 -21 14 -33.5t39 -12.5q12 0 30 3v-85q-23 -6 -51 -6q-63 0 -96 28z" />
    <glyph glyph-name="tilde" unicode="&#x2dc;" horiz-adv-x="445" 
d="M265 552.5q-17 5.5 -41 15.5q-34 15 -52 15q-14 0 -21.5 -8.5t-7.5 -22.5h-93q-2 59 23.5 91.5t73.5 32.5q21 0 38 -5.5t41 -15.5q34 -15 52 -15q14 0 21.5 8.5t7.5 22.5h93q2 -59 -23.5 -91.5t-73.5 -32.5q-21 0 -38 5.5z" />
    <glyph glyph-name="hungarumlaut" unicode="&#x2dd;" horiz-adv-x="456" 
d="M147 541h-97l65 141h120zM318 541h-98l64 141h122z" />
    <glyph glyph-name="gravecomb" unicode="&#x300;" horiz-adv-x="0" 
d="M0 541h-105l-103 141h145z" />
    <glyph glyph-name="acutecomb" unicode="&#x301;" horiz-adv-x="0" 
d="M-104 541h-104l62 141h146z" />
    <glyph glyph-name="uni0302" unicode="&#x302;" horiz-adv-x="0" 
d="M-374 539l113 145h148l113 -145h-120l-25 32q-21 27 -42 60q-21 -33 -42 -60l-25 -32h-120z" />
    <glyph glyph-name="tildecomb" unicode="&#x303;" horiz-adv-x="0" 
d="M-135 552.5q-17 5.5 -41 15.5q-34 15 -52 15q-14 0 -21.5 -8.5t-7.5 -22.5h-93q-2 59 23.5 91.5t73.5 32.5q21 0 38 -5.5t41 -15.5q34 -15 52 -15q14 0 21.5 8.5t7.5 22.5h93q2 -59 -23.5 -91.5t-73.5 -32.5q-21 0 -38 5.5z" />
    <glyph glyph-name="uni0304" unicode="&#x304;" horiz-adv-x="0" 
d="M0 566h-301v91h301v-91z" />
    <glyph glyph-name="uni0306" unicode="&#x306;" horiz-adv-x="0" 
d="M-275.5 578.5q-44.5 39.5 -46.5 106.5h97q1 -28 18.5 -45t45.5 -17t45.5 17t18.5 45h97q-2 -67 -46.5 -106.5t-114.5 -39.5t-114.5 39.5z" />
    <glyph glyph-name="uni0307" unicode="&#x307;" horiz-adv-x="0" 
d="M0 542h-142v139h142v-139z" />
    <glyph glyph-name="uni0308" unicode="&#x308;" horiz-adv-x="0" 
d="M-202 550h-123v123h123v-123zM0 550h-122v123h122v-123z" />
    <glyph glyph-name="uni030A" unicode="&#x30a;" horiz-adv-x="0" 
d="M-214 555.5q-35 30.5 -35 79.5t35 80t90 31t89.5 -31t34.5 -80t-35 -79.5t-89 -30.5q-55 0 -90 30.5zM-91.5 602q12.5 13 12.5 33t-12.5 33t-32.5 13t-33 -13t-13 -33t13 -33t33 -13t32.5 13z" />
    <glyph glyph-name="uni030B" unicode="&#x30b;" horiz-adv-x="0" 
d="M-259 541h-97l65 141h120zM-88 541h-98l64 141h122z" />
    <glyph glyph-name="uni030C" unicode="&#x30c;" horiz-adv-x="0" 
d="M-261 539l-113 145h120l25 -32q21 -27 42 -60q21 33 42 60l25 32h120l-113 -145h-148z" />
    <glyph glyph-name="uni0312" unicode="&#x312;" horiz-adv-x="0" 
d="M-64 668h64v-126h-126v127q0 59 32 91.5t93 34.5v-56q-31 -4 -47 -20.5t-16 -49.5v-1z" />
    <glyph glyph-name="uni0326" unicode="&#x326;" horiz-adv-x="0" 
d="M-126 -65h126v-127q0 -59 -32 -91.5t-93 -34.5v56q31 4 47 20.5t16 49.5v1h-64v126z" />
    <glyph glyph-name="uni0327" unicode="&#x327;" horiz-adv-x="0" 
d="M-97 -42q42 1 69.5 -20.5t27.5 -59.5q0 -41 -33 -65.5t-85 -24.5q-32 0 -62.5 10.5t-50.5 28.5l38 54q32 -26 72 -26q19 0 31.5 8t12.5 21q0 14 -11 20.5t-29 6.5t-36 -8l-37 33l66 74h65v-10z" />
    <glyph glyph-name="uni0328" unicode="&#x328;" horiz-adv-x="0" 
d="M-147 -184q-33 28 -33 76q0 43 34.5 76.5t95.5 48.5l49 -17q-42 -13 -62 -33.5t-20 -44.5q0 -21 14 -33.5t39 -12.5q12 0 30 3v-85q-23 -6 -51 -6q-63 0 -96 28z" />
    <glyph glyph-name="uni0394" unicode="&#x394;" horiz-adv-x="676" 
d="M651 0h-626v125l233 575h160l233 -575v-125zM167 124h342l-141 359q-16 39 -30 85q-14 -46 -30 -85z" />
    <glyph glyph-name="uni03A9" unicode="&#x3a9;" horiz-adv-x="796" 
d="M708.5 224q-43.5 -69 -116.5 -104h139v-120h-296v140q78 19 123.5 80.5t45.5 148.5q0 64 -26 113.5t-73 77.5t-107 28t-107 -28t-73 -77.5t-26 -113.5q0 -87 45.5 -148.5t123.5 -80.5v-140h-296v120h139q-73 35 -116.5 104t-43.5 160q0 94 45 169t125.5 117t183.5 42
t183.5 -42t125.5 -117t45 -169q0 -91 -43.5 -160z" />
    <glyph glyph-name="uni03BC" unicode="&#x3bc;" horiz-adv-x="565" 
d="M366 474h138v-474h-134v75q-20 -43 -56.5 -65t-84.5 -22q-15 0 -30 3v-191h-138v674h138v-271q0 -50 20.5 -77.5t59.5 -27.5q40 0 63.5 29t23.5 79v268z" />
    <glyph glyph-name="pi" unicode="&#x3c0;" horiz-adv-x="627" 
d="M585 364h-80v-210q0 -22 10.5 -32t32.5 -10h37v-112h-93q-64 0 -94.5 29.5t-30.5 91.5v243h-124v-364h-138v364h-80v110h560v-110z" />
    <glyph glyph-name="uni0E3F" unicode="&#xe3f;" horiz-adv-x="631" 
d="M535.5 57q-59.5 -50 -165.5 -56v-94h-104v93h-188v668h188v92h104v-92q60 -3 106 -26t71.5 -61.5t25.5 -86.5q0 -54 -31.5 -92t-85.5 -52q66 -13 102.5 -55t36.5 -103q0 -85 -59.5 -135zM266 555h-51v-154h51v154zM416 526q-16 19 -46 26v-148q30 7 46 26t16 48t-16 48z
M215 289v-176h51v176h-51zM370 115q39 5 61 28t22 58t-22 58t-61 28v-172z" />
    <glyph glyph-name="Wgrave" unicode="&#x1e80;" horiz-adv-x="992" 
d="M197 0l-178 700h146l95 -413q10 -44 30 -142q11 55 31 142l97 413h164l97 -413q20 -87 31 -142q20 98 30 142l95 413h138l-178 -700h-172l-106 446q-11 44 -21 96q-11 -52 -21 -96l-107 -446h-171zM578 767h-105l-103 141h145z" />
    <glyph glyph-name="wgrave" unicode="&#x1e81;" horiz-adv-x="757" 
d="M140 0l-118 474h138l51 -262l15 -89q14 62 21 89l67 262h139l67 -262q7 -27 21 -89l15 89l51 262h128l-118 -474h-155l-67 268q-10 44 -16 76q-6 -32 -16 -76l-68 -268h-155zM429 541h-105l-103 141h145z" />
    <glyph glyph-name="Wacute" unicode="&#x1e82;" horiz-adv-x="992" 
d="M197 0l-178 700h146l95 -413q10 -44 30 -142q11 55 31 142l97 413h164l97 -413q20 -87 31 -142q20 98 30 142l95 413h138l-178 -700h-172l-106 446q-11 44 -21 96q-11 -52 -21 -96l-107 -446h-171zM577 767h-104l62 141h146z" />
    <glyph glyph-name="wacute" unicode="&#x1e83;" horiz-adv-x="757" 
d="M140 0l-118 474h138l51 -262l15 -89q14 62 21 89l67 262h139l67 -262q7 -27 21 -89l15 89l51 262h128l-118 -474h-155l-67 268q-10 44 -16 76q-6 -32 -16 -76l-68 -268h-155zM428 541h-104l62 141h146z" />
    <glyph glyph-name="Wdieresis" unicode="&#x1e84;" horiz-adv-x="992" 
d="M197 0l-178 700h146l95 -413q10 -44 30 -142q11 55 31 142l97 413h164l97 -413q20 -87 31 -142q20 98 30 142l95 413h138l-178 -700h-172l-106 446q-11 44 -21 96q-11 -52 -21 -96l-107 -446h-171zM485 776h-123v123h123v-123zM687 776h-122v123h122v-123z" />
    <glyph glyph-name="wdieresis" unicode="&#x1e85;" horiz-adv-x="757" 
d="M140 0l-118 474h138l51 -262l15 -89q14 62 21 89l67 262h139l67 -262q7 -27 21 -89l15 89l51 262h128l-118 -474h-155l-67 268q-10 44 -16 76q-6 -32 -16 -76l-68 -268h-155zM336 550h-123v123h123v-123zM538 550h-122v123h122v-123z" />
    <glyph glyph-name="uni1E9E" unicode="&#x1e9e;" horiz-adv-x="739" 
d="M602 370q56 -33 83 -78t27 -104q0 -58 -28.5 -103.5t-79.5 -71t-116 -25.5q-103 0 -162.5 54t-60.5 155h142q1 -43 23.5 -66t61.5 -23q34 0 55 21.5t21 55.5q0 51 -62 85l-69 38q-50 28 -74.5 63t-24.5 81q0 41 20 72.5t55 51.5h-191v-576h-144v700h553v-124h-13
q-68 0 -104 -23t-36 -67q0 -22 14 -40.5t46 -37.5z" />
    <glyph glyph-name="Ygrave" unicode="&#x1ef2;" horiz-adv-x="683" 
d="M677 700l-263 -419v-281h-144v278l-264 422h161l133 -219q23 -36 45 -78q28 53 44 78l132 219h156zM398 767h-105l-103 141h145z" />
    <glyph glyph-name="ygrave" unicode="&#x1ef3;" horiz-adv-x="515" 
d="M59 -200v114h39q61 0 80 52l15 39l-188 469h153l80 -239q14 -44 24 -80q16 59 23 80l74 239h142l-203 -554q-22 -61 -65.5 -90.5t-109.5 -29.5h-64zM315 541h-105l-103 141h145z" />
    <glyph glyph-name="endash" unicode="&#x2013;" horiz-adv-x="590" 
d="M543 214h-496v120h496v-120z" />
    <glyph glyph-name="emdash" unicode="&#x2014;" horiz-adv-x="915" 
d="M868 215h-821v118h821v-118z" />
    <glyph glyph-name="quoteleft" unicode="&#x2018;" horiz-adv-x="254" 
d="M199 641q-36 -4 -55 -26.5t-19 -60.5v-17h74v-149h-148v166q0 68 38 107t110 45v-65z" />
    <glyph glyph-name="quoteright" unicode="&#x2019;" horiz-adv-x="247" 
d="M55 700h148v-166q0 -68 -38 -107t-110 -45v65q36 4 55 26.5t19 60.5v17h-74v149z" />
    <glyph glyph-name="quotesinglbase" unicode="&#x201a;" horiz-adv-x="258" 
d="M50 149h148v-166q0 -68 -38 -107t-110 -45v65q36 4 55 26.5t19 60.5v17h-74v149z" />
    <glyph glyph-name="quotedblleft" unicode="&#x201c;" horiz-adv-x="465" 
d="M51 554q0 68 38 107t110 45v-65q-36 -4 -55 -26.5t-19 -60.5v-17h74v-149h-148v166zM410 641q-36 -4 -55 -26.5t-19 -60.5v-17h74v-149h-148v166q0 68 38 107t110 45v-65z" />
    <glyph glyph-name="quotedblright" unicode="&#x201d;" horiz-adv-x="458" 
d="M55 551v149h148v-166q0 -68 -38 -107t-110 -45v65q36 4 55 26.5t19 60.5v17h-74zM266 700h148v-166q0 -68 -38 -107t-110 -45v65q36 4 55 26.5t19 60.5v17h-74v149z" />
    <glyph glyph-name="quotedblbase" unicode="&#x201e;" horiz-adv-x="469" 
d="M49 0v149h148v-166q0 -68 -38 -107t-110 -45v65q36 4 55 26.5t19 60.5v17h-74zM260 149h148v-166q0 -68 -38 -107t-110 -45v65q36 4 55 26.5t19 60.5v17h-74v149z" />
    <glyph glyph-name="dagger" unicode="&#x2020;" horiz-adv-x="449" 
d="M282 630h132v-108h-132v-310h-116v310h-130v108h130v152h116v-152z" />
    <glyph glyph-name="daggerdbl" unicode="&#x2021;" horiz-adv-x="472" 
d="M423 630v-100h-129v-66h129v-100h-129v-152h-116v152h-129v100h129v66h-129v100h129v152h116v-152h129z" />
    <glyph glyph-name="bullet" unicode="&#x2022;" horiz-adv-x="450" 
d="M147 139q-36 21 -57 57t-21 79t21 78.5t57 56t79 20.5t78.5 -20.5t56 -56t20.5 -78.5t-20.5 -79t-56 -57t-78.5 -21t-79 21z" />
    <glyph glyph-name="ellipsis" unicode="&#x2026;" horiz-adv-x="838" 
d="M208 0h-154v154h154v-154zM496 0h-154v154h154v-154zM784 0h-154v154h154v-154z" />
    <glyph glyph-name="perthousand" unicode="&#x2030;" horiz-adv-x="1269" 
d="M108 347q-41 23 -64.5 64t-23.5 92q0 50 23.5 90.5t64.5 63.5t92 23q52 0 93.5 -23t65 -63.5t23.5 -90.5q0 -51 -23.5 -92t-65 -64t-93.5 -23q-51 0 -92 23zM722 619l-498 -631l-77 60l498 632zM255 441q21 24 21 62q0 37 -20.5 60.5t-54.5 23.5q-33 0 -54 -23t-21 -61
q0 -39 21 -62.5t54 -23.5t54 24zM576 11q-41 23 -64.5 64t-23.5 92q0 50 23.5 90.5t64.5 63.5t92 23q52 0 93.5 -23t65 -63.5t23.5 -90.5q0 -51 -23.5 -92t-65 -64t-93.5 -23q-51 0 -92 23zM977 11q-41 23 -64.5 64t-23.5 92q0 50 23.5 90.5t64.5 63.5t92 23t92.5 -23
t65 -63.5t23.5 -90.5q0 -51 -23.5 -92t-64.5 -64t-93 -23q-51 0 -92 23zM723 105q21 24 21 62q0 37 -21 60.5t-54 23.5t-54 -23t-21 -61t20.5 -62t54.5 -24q33 0 54 24zM1124 105q21 24 21 62q0 37 -21 60.5t-54 23.5t-54 -23t-21 -61t20.5 -62t54.5 -24q33 0 54 24z" />
    <glyph glyph-name="guilsinglleft" unicode="&#x2039;" horiz-adv-x="312" 
d="M272 50h-125l-106 194l106 194h125l-105 -194z" />
    <glyph glyph-name="guilsinglright" unicode="&#x203a;" horiz-adv-x="312" 
d="M165 50h-125l105 194l-105 194h125l106 -194z" />
    <glyph glyph-name="uni2042" unicode="&#x2042;" horiz-adv-x="796" 
d="M398 456l-62 -104l-83 60l80 91l-118 28l31 96l112 -47l-11 120h102l-11 -121l111 48l31 -97l-117 -27l80 -91l-83 -60zM198 92l-62 -104l-83 60l80 91l-118 28l31 96l112 -47l-11 120h102l-11 -121l111 48l31 -97l-117 -27l80 -91l-83 -60zM599 92l-62 -104l-83 60
l80 91l-118 28l31 96l112 -47l-11 120h102l-11 -121l111 48l31 -97l-117 -27l80 -91l-83 -60z" />
    <glyph glyph-name="fraction" unicode="&#x2044;" horiz-adv-x="260" 
d="M402 623l-468 -635l-77 58l468 634z" />
    <glyph glyph-name="uni2070" unicode="&#x2070;" horiz-adv-x="510" 
d="M101.5 348q-54.5 67 -54.5 189t54.5 189t153.5 67t153.5 -67t54.5 -189t-54.5 -189t-153.5 -67t-153.5 67zM318.5 419.5q21.5 40.5 21.5 117.5t-21.5 117.5t-63.5 40.5t-64 -40.5t-22 -117.5t22 -117.5t64 -40.5t63.5 40.5z" />
    <glyph glyph-name="uni2074" unicode="&#x2074;" horiz-adv-x="504" 
d="M397 506h66v-92h-66v-124h-114v124h-242v98l198 272h158v-278zM283 506v183q-5 -7 -10.5 -15.5t-10.5 -15.5l-90 -123q-14 -20 -23 -29h134z" />
    <glyph glyph-name="uni2075" unicode="&#x2075;" horiz-adv-x="485" 
d="M396 573q44 -46 44 -117q0 -51 -25 -91t-69.5 -62t-101.5 -22q-89 0 -140 41t-55 117h121q4 -30 23.5 -46t50.5 -16q33 0 53 21t20 56t-20 56t-53 21q-22 0 -39.5 -10t-25.5 -27h-115l4 290h344v-94h-237l-2 -113q41 42 110 42t113 -46z" />
    <glyph glyph-name="uni2076" unicode="&#x2076;" horiz-adv-x="497" 
d="M370.5 590.5q37.5 -20.5 59 -57t21.5 -82.5q0 -49 -25 -87.5t-69 -60.5t-98 -22q-101 0 -157 67.5t-56 188.5q0 122 56 189t156 67q79 0 128 -39t56 -108h-121q-5 25 -21 39t-44 14q-42 0 -66 -37t-26 -109q20 28 51.5 43t71.5 15q46 0 83.5 -20.5zM307.5 396.5
q21.5 20.5 21.5 52.5t-21.5 53t-54.5 21t-54.5 -21t-21.5 -53t21.5 -52.5t54.5 -20.5t54.5 20.5z" />
    <glyph glyph-name="uni2077" unicode="&#x2077;" horiz-adv-x="409" 
d="M27 784h365v-104q-80 -63 -120.5 -159.5t-47.5 -230.5h-136q8 128 54.5 226.5t135.5 168.5h-251v99z" />
    <glyph glyph-name="uni2078" unicode="&#x2078;" horiz-adv-x="493" 
d="M421.5 502.5q25.5 -31.5 25.5 -73.5q0 -66 -55.5 -107t-144.5 -41t-144.5 40.5t-55.5 107.5q0 42 25 73.5t72 47.5q-40 13 -62.5 41.5t-22.5 66.5q0 61 51 98t137 37q85 0 136 -37t51 -98q0 -39 -22.5 -67t-62.5 -41q47 -16 72.5 -47.5zM195.5 684.5
q-19.5 -15.5 -19.5 -40.5t19.5 -40.5t51.5 -15.5q31 0 50.5 15.5t19.5 40.5t-19.5 40.5t-50.5 15.5q-32 0 -51.5 -15.5zM303.5 391.5q21.5 17.5 21.5 46.5t-21.5 46.5t-56.5 17.5t-56.5 -17.5t-21.5 -46.5t21.5 -46.5t56.5 -17.5t56.5 17.5z" />
    <glyph glyph-name="uni2079" unicode="&#x2079;" horiz-adv-x="497" 
d="M395 725.5q56 -67.5 56 -188.5q0 -122 -56 -189t-156 -67q-79 0 -128 39t-56 108h121q5 -25 21 -39t44 -14q42 0 66 37t26 109q-20 -28 -51.5 -43t-71.5 -15q-46 0 -83.5 20.5t-59 57t-21.5 82.5q0 49 25 87.5t69 60.5t98 22q101 0 157 -67.5zM298.5 572q21.5 21 21.5 53
t-21.5 52.5t-54.5 20.5t-54.5 -20.5t-21.5 -52.5t21.5 -53t54.5 -21t54.5 21z" />
    <glyph glyph-name="uni2080" unicode="&#x2080;" horiz-adv-x="510" 
d="M108.5 -100q-54.5 67 -54.5 189t54.5 189t153.5 67t153.5 -67t54.5 -189t-54.5 -189t-153.5 -67t-153.5 67zM325.5 -28.5q21.5 40.5 21.5 117.5t-21.5 117.5t-63.5 40.5t-64 -40.5t-22 -117.5t22 -117.5t64 -40.5t63.5 40.5z" />
    <glyph glyph-name="uni2081" unicode="&#x2081;" horiz-adv-x="332" 
d="M25 200l111 136h117v-494h-119v367l-48 -61z" />
    <glyph glyph-name="uni2082" unicode="&#x2082;" horiz-adv-x="469" 
d="M429 -63v-95h-379q3 67 33.5 117.5t95.5 95.5l59 40q66 45 66 96q0 27 -17 43t-44 16q-29 0 -47.5 -18t-19.5 -51h-121q3 76 53.5 120t134.5 44q83 0 133 -42t50 -112q0 -48 -29.5 -91.5t-92.5 -87.5l-57 -40q-28 -20 -40 -35h222z" />
    <glyph glyph-name="uni2083" unicode="&#x2083;" horiz-adv-x="484" 
d="M420.5 57.5q22.5 -30.5 22.5 -70.5q0 -45 -24.5 -80t-68 -54.5t-99.5 -19.5q-95 0 -147.5 44t-54.5 121h123q3 -33 23.5 -51t54.5 -18q32 0 51.5 17t19.5 45t-19.5 43.5t-54.5 15.5h-44v94h41q30 0 48.5 14t18.5 38t-18 39t-46 15q-32 0 -50.5 -17t-20.5 -44h-121
q5 75 57.5 115.5t134.5 40.5t133 -39t51 -101q0 -35 -20 -62.5t-53 -41.5q40 -13 62.5 -43.5z" />
    <glyph glyph-name="uni2084" unicode="&#x2084;" horiz-adv-x="504" 
d="M402 58h66v-92h-66v-124h-114v124h-242v98l198 272h158v-278zM288 58v183q-5 -7 -10.5 -15.5t-10.5 -15.5l-90 -123q-14 -20 -23 -29h134z" />
    <glyph glyph-name="uni2085" unicode="&#x2085;" horiz-adv-x="483" 
d="M394 125q44 -46 44 -117q0 -51 -25 -91t-69.5 -62t-101.5 -22q-89 0 -140 41t-55 117h121q4 -30 23.5 -46t50.5 -16q33 0 53 21t20 56t-20 56t-53 21q-22 0 -39.5 -10t-25.5 -27h-115l4 290h344v-94h-237l-2 -113q41 42 110 42t113 -46z" />
    <glyph glyph-name="uni2086" unicode="&#x2086;" horiz-adv-x="497" 
d="M373.5 142.5q37.5 -20.5 59 -57t21.5 -82.5q0 -49 -25 -87.5t-69 -60.5t-98 -22q-101 0 -157 67.5t-56 188.5q0 122 56 189t156 67q79 0 128 -39t56 -108h-121q-5 25 -21 39t-44 14q-42 0 -66 -37t-26 -109q20 28 51.5 43t71.5 15q46 0 83.5 -20.5zM310.5 -51.5
q21.5 20.5 21.5 52.5t-21.5 53t-54.5 21t-54.5 -21t-21.5 -53t21.5 -52.5t54.5 -20.5t54.5 20.5z" />
    <glyph glyph-name="uni2087" unicode="&#x2087;" horiz-adv-x="409" 
d="M23 336h365v-104q-80 -63 -120.5 -159.5t-47.5 -230.5h-136q8 128 54.5 226.5t135.5 168.5h-251v99z" />
    <glyph glyph-name="uni2088" unicode="&#x2088;" horiz-adv-x="493" 
d="M425.5 54.5q25.5 -31.5 25.5 -73.5q0 -66 -55.5 -107t-144.5 -41t-144.5 40.5t-55.5 107.5q0 42 25 73.5t72 47.5q-40 13 -62.5 41.5t-22.5 66.5q0 61 51 98t137 37q85 0 136 -37t51 -98q0 -39 -22.5 -67t-62.5 -41q47 -16 72.5 -47.5zM199.5 236.5
q-19.5 -15.5 -19.5 -40.5t19.5 -40.5t51.5 -15.5q31 0 50.5 15.5t19.5 40.5t-19.5 40.5t-50.5 15.5q-32 0 -51.5 -15.5zM307.5 -56.5q21.5 17.5 21.5 46.5t-21.5 46.5t-56.5 17.5t-56.5 -17.5t-21.5 -46.5t21.5 -46.5t56.5 -17.5t56.5 17.5z" />
    <glyph glyph-name="uni2089" unicode="&#x2089;" horiz-adv-x="498" 
d="M398 277.5q56 -67.5 56 -188.5q0 -122 -56 -189t-156 -67q-79 0 -128 39t-56 108h121q5 -25 21 -39t44 -14q42 0 66 37t26 109q-20 -28 -51.5 -43t-71.5 -15q-46 0 -83.5 20.5t-59 57t-21.5 82.5q0 49 25 87.5t69 60.5t98 22q101 0 157 -67.5zM301.5 124q21.5 21 21.5 53
t-21.5 52.5t-54.5 20.5t-54.5 -20.5t-21.5 -52.5t21.5 -53t54.5 -21t54.5 21z" />
    <glyph glyph-name="franc" unicode="&#x20a3;" horiz-adv-x="573" 
d="M541 668v-117h-287v-150h247v-115h-247v-76h168v-97h-168v-113h-138v113h-80v97h80v458h425z" />
    <glyph glyph-name="uni20A8" unicode="&#x20a8;" horiz-adv-x="1037" 
d="M539.5 388q-32.5 -40 -88.5 -55q54 -10 76.5 -43.5t22.5 -99.5v-75q0 -42 3 -63.5t12 -51.5h-144q-5 22 -7.5 45t-2.5 62v84q0 42 -20 62.5t-64 20.5h-110v-274h-139v668h276q66 0 115.5 -23.5t76 -64.5t26.5 -94q0 -58 -32.5 -98zM325 388q47 0 74 22t27 61q0 38 -27 60
t-74 22h-108v-165h108zM865 274q143 -28 143 -136q0 -68 -55 -108.5t-148 -40.5q-98 0 -152 42t-59 113h129q4 -28 26 -44t57 -16q31 0 49 12.5t18 33.5q0 31 -49 41l-80 16q-135 27 -135 137q0 41 24.5 73t68 49.5t98.5 17.5q88 0 140.5 -38t58.5 -105h-125q-5 25 -25 38.5
t-49 13.5t-46 -12t-17 -30q0 -32 42 -40z" />
    <glyph glyph-name="uni20A9" unicode="&#x20a9;" horiz-adv-x="947" 
d="M892 435v-89h-90l-9 -45h99v-89h-117l-42 -212h-163l-39 212h-116l-39 -212h-163l-42 212h-116v89h99l-9 45h-90v89h73l-46 233h126l41 -233h113l43 233h145l43 -233h112l41 233h120l-46 -233h72zM456 435h34q-13 78 -16 99q-10 -60 -18 -99zM345 346h-81l8 -45h65z
M440 346l-8 -45h82l-8 45h-66zM617 301h65l8 45h-81zM320 212h-32l16 -100zM666 212h-32q2 -9 4 -27q5 -25 13 -73z" />
    <glyph glyph-name="uni20AA" unicode="&#x20aa;" horiz-adv-x="720" 
d="M78 0v668h225q92 0 136.5 -38.5t44.5 -119.5v-349h-98v317q0 39 -19 57.5t-57 18.5h-116v-554h-116zM241 0v507h98v-393h116q38 0 57 18.5t19 57.5v478h116v-486q0 -95 -43.5 -138.5t-139.5 -43.5h-223z" />
    <glyph glyph-name="dong" unicode="&#x20ab;" horiz-adv-x="626" 
d="M592 623v-86h-68v-537h-134v67q-20 -38 -57 -58.5t-86 -20.5q-63 0 -111.5 31t-75 87.5t-26.5 130.5q0 71 27.5 128t75.5 89t108 32q48 0 84.5 -20t56.5 -57v128h-158v86h158v77h138v-77h68zM362.5 136.5q29.5 38.5 29.5 100.5t-29.5 100.5t-77.5 38.5q-49 0 -79 -38.5
t-30 -100.5t30 -100.5t79 -38.5q48 0 77.5 38.5zM523 -163h-454v96h454v-96z" />
    <glyph glyph-name="Euro" unicode="&#x20ac;" horiz-adv-x="657" 
d="M616 221q-10 -109 -75 -171t-169 -62q-101 0 -165.5 59.5t-86.5 170.5h-66v91h56v25v25h-56v91h66q22 111 86.5 170.5t166.5 59.5q104 0 167.5 -57t72.5 -160h-141q-5 48 -31 74.5t-68 26.5q-87 0 -113 -114h177l-9 -91h-179v-25v-25h175l-10 -91h-154q26 -114 112 -114
q42 0 68.5 29.5t34.5 87.5h141z" />
    <glyph glyph-name="uni20AD" unicode="&#x20ad;" horiz-adv-x="686" 
d="M652 0h-163l-196 292h-24v-292h-139v292h-80v105h80v271h139v-271h23l182 271h156l-192 -271h171v-105h-162z" />
    <glyph glyph-name="uni20B1" unicode="&#x20b1;" horiz-adv-x="721" 
d="M692 566v-83h-76q1 -6 1 -17v-16h75v-83h-97q-26 -51 -82 -77t-139 -26h-110v-264h-138v367h-84v83h84v33h-84v83h84v102h246q83 0 139.5 -26t82.5 -76h98zM370 377q52 0 80 23t28 66t-28 66t-80 23h-106v-178h106z" />
    <glyph glyph-name="uni20B4" unicode="&#x20b4;" horiz-adv-x="688" 
d="M634 441v-87h-580v87h379q14 22 14 49q0 37 -26 59t-71 22q-44 0 -72.5 -21.5t-32.5 -61.5h-135q7 91 72.5 141.5t169.5 50.5q108 0 169.5 -49.5t61.5 -137.5q0 -28 -8 -52h59zM54 228v87h580v-87h-386q-6 -16 -6 -34q0 -43 29 -68.5t80 -25.5q49 0 78.5 21.5t38.5 59.5
h138q-13 -88 -83 -140.5t-173 -52.5q-74 0 -129.5 25t-85.5 71t-30 107q0 21 3 37h-54z" />
    <glyph glyph-name="uni20B8" unicode="&#x20b8;" horiz-adv-x="548" 
d="M37 557v111h474v-111h-474zM204 381h-167v117h474v-117h-168v-381h-139v381z" />
    <glyph glyph-name="uni20B9" unicode="&#x20b9;" horiz-adv-x="618" 
d="M575 668v-102h-158q46 -21 65 -63h93v-97h-82q-12 -71 -75.5 -113t-160.5 -42h-7l311 -251h-204l-295 251v102h176q92 0 119 53h-295v97h295q-26 53 -119 53h-176v112h513z" />
    <glyph glyph-name="uni20BA" unicode="&#x20ba;" horiz-adv-x="626" 
d="M598 259q-9 -121 -89 -190t-212 -69h-155v189l-89 -44v101l89 44v61l-89 -44v101l89 44v216h139v-148l191 94v-101l-191 -94v-61l191 94v-101l-191 -94v-140h18q145 0 166 142h133z" />
    <glyph glyph-name="uni20BD" unicode="&#x20bd;" horiz-adv-x="645" 
d="M265 275v-61h216v-97h-216v-117h-139v117h-79v97h79v61h-79v102h79v291h253q117 0 180 -51t63 -146q0 -94 -63 -145t-180 -51h-114zM265 555v-178h102q55 0 83.5 22.5t28.5 66.5t-28.5 66.5t-83.5 22.5h-102z" />
    <glyph glyph-name="uni20BF" unicode="&#x20bf;" horiz-adv-x="608" 
d="M529 73q-43 -48 -121 -65v-103h-93v95h-57v-95h-93v95h-90v668h90v95h93v-95h57v95h93v-104q66 -17 104 -61.5t38 -104.5q0 -54 -31.5 -91t-85.5 -52q65 -13 102 -54.5t37 -103.5q0 -71 -43 -119zM316 401q44 0 69 20.5t25 56.5t-25.5 57t-68.5 21h-105v-155h105z
M321 112q51 0 81 23.5t30 64.5q0 42 -30 66t-81 24h-110v-178h110z" />
    <glyph glyph-name="uni2113" unicode="&#x2113;" horiz-adv-x="498" 
d="M471 171q-3 -85 -52.5 -134t-133.5 -49q-72 0 -119 39t-54 118q-43 -12 -78 -16v108q41 8 77 21v256q0 77 45 121.5t123 44.5q79 0 125.5 -44t46.5 -120q0 -92 -59 -179.5t-161 -143.5v-23q0 -36 16 -55t44 -19q26 0 42 18.5t19 56.5h119zM231 325q48 40 74.5 89
t26.5 102q0 29 -13 46t-36 17q-24 0 -38 -16.5t-14 -46.5v-191z" />
    <glyph glyph-name="uni2116" unicode="&#x2116;" horiz-adv-x="1129" 
d="M810 342.5q-42 22.5 -65.5 63t-23.5 92.5t23.5 92.5t65.5 63t95 22.5t95 -22.5t65.5 -63t23.5 -92.5t-23.5 -92.5t-65.5 -63t-95 -22.5t-95 22.5zM533 668h131v-668h-184l-273 533q2 -45 2 -114v-419h-131v668h198l259 -507q-2 46 -2 115v392zM854 560.5
q-19 -23.5 -19 -62.5t19 -62.5t51 -23.5t51 23.5t19 62.5t-19 62.5t-51 23.5t-51 -23.5zM1074 154h-338v111h338v-111z" />
    <glyph glyph-name="uni2117" unicode="&#x2117;" horiz-adv-x="638" 
d="M183.5 217.5q-61.5 35.5 -97 96.5t-35.5 135t35.5 135.5t97 97t135.5 35.5t135.5 -35.5t97 -97t35.5 -135.5t-35.5 -135t-97 -96.5t-135.5 -35.5t-135.5 35.5zM415.5 281.5q43.5 25.5 68.5 69.5t25 98t-25 98.5t-68.5 70t-96.5 25.5t-96.5 -25.5t-68.5 -70t-25 -98.5
t25 -98t68.5 -69.5t96.5 -25.5t96.5 25.5zM224 309v280h121q46 0 73.5 -24.5t27.5 -64.5t-27.5 -64.5t-73.5 -24.5h-51v-102h-70zM335 469q17 0 27 8.5t10 22.5t-10 22.5t-27 8.5h-41v-62h41z" />
    <glyph glyph-name="uni2120" unicode="&#x2120;" horiz-adv-x="991" 
d="M95 313.5q-51 40.5 -55 106.5h115q3 -26 22.5 -41t52.5 -15q28 0 45 11.5t17 30.5q0 31 -44 39l-70 13q-62 11 -94 42.5t-32 81.5q0 56 47 90.5t123 34.5q80 0 129 -36.5t52 -96.5h-113q-4 21 -22 34t-45 13q-25 0 -40.5 -10.5t-15.5 -26.5q0 -28 39 -35l74 -14
q63 -12 96 -44.5t33 -82.5q0 -63 -48.5 -99t-130.5 -36q-84 0 -135 40.5zM452 280v420h173l47 -203l13 -55q2 -14 4 -20q2 6 4 20l13 55l47 203h171v-420h-107v276q0 23 2 73l-82 -349h-102l-82 349q2 -50 2 -73v-276h-103z" />
    <glyph glyph-name="trademark" unicode="&#x2122;" horiz-adv-x="946" 
d="M407 280v420h173l47 -203l13 -55q2 -14 4 -20q2 6 4 20l13 55l47 203h171v-420h-107v276q0 23 2 73l-82 -349h-102l-82 349q2 -50 2 -73v-276h-103zM250 279h-116v319h-110v101h336v-101h-110v-319z" />
    <glyph glyph-name="uni2126" unicode="&#x2126;" horiz-adv-x="800" 
d="M710.5 224q-43.5 -69 -116.5 -104h139v-120h-296v140q78 19 123.5 80.5t45.5 148.5q0 64 -26 113.5t-73 77.5t-107 28t-107 -28t-73 -77.5t-26 -113.5q0 -87 45.5 -148.5t123.5 -80.5v-140h-296v120h139q-73 35 -116.5 104t-43.5 160q0 94 45 169t125.5 117t183.5 42
t183.5 -42t125.5 -117t45 -169q0 -91 -43.5 -160z" />
    <glyph glyph-name="estimated" unicode="&#x212e;" horiz-adv-x="694" 
d="M198 28.5q-68 39.5 -107 107.5t-39 151q0 82 39.5 150.5t108 108t151.5 39.5q81 0 149 -37t107.5 -104t39.5 -152v-26h-466v-163q33 -33 76 -52t92 -19q74 0 134.5 37.5t89.5 98.5h51q-31 -81 -105.5 -130t-169.5 -49q-83 0 -151 39.5zM181 309h340v156
q-31 36 -75.5 56.5t-94.5 20.5t-94 -19.5t-76 -53.5v-160z" />
    <glyph glyph-name="uni2153" unicode="&#x2153;" horiz-adv-x="849" 
d="M13 556l91 112h96v-401h-98v296l-39 -49zM646 623l-468 -635l-77 58l468 634zM798.5 174.5q18.5 -24.5 18.5 -57.5q0 -55 -43.5 -89.5t-112.5 -34.5q-76 0 -119.5 35t-45.5 99h102q2 -27 18.5 -41t43.5 -14q25 0 40.5 13.5t15.5 35.5t-15.5 34.5t-43.5 12.5h-35v77h33
q24 0 38.5 11.5t14.5 30.5t-14.5 31t-36.5 12q-25 0 -39.5 -14t-16.5 -35h-100q4 59 46 93t110 34q67 0 108.5 -31.5t41.5 -82.5q0 -28 -16 -50.5t-43 -33.5q32 -11 50.5 -35.5z" />
    <glyph glyph-name="uni2154" unicode="&#x2154;" horiz-adv-x="973" 
d="M340 345v-78h-309q2 55 27.5 96t77.5 77l47 33q54 38 54 76q0 21 -14 34.5t-35 13.5q-24 0 -38 -15.5t-15 -39.5h-100q2 62 43 97.5t110 35.5q68 0 108.5 -34t40.5 -91q0 -40 -24 -75t-75 -70l-46 -32q-19 -14 -32 -28h180zM773 623l-468 -635l-77 58l468 634z
M925.5 174.5q18.5 -24.5 18.5 -57.5q0 -55 -43.5 -89.5t-112.5 -34.5q-76 0 -119.5 35t-45.5 99h102q2 -27 18.5 -41t43.5 -14q25 0 40.5 13.5t15.5 35.5t-15.5 34.5t-43.5 12.5h-35v77h33q24 0 38.5 11.5t14.5 30.5t-14.5 31t-36.5 12q-25 0 -39.5 -14t-16.5 -35h-100
q4 59 46 93t110 34q67 0 108.5 -31.5t41.5 -82.5q0 -28 -16 -50.5t-43 -33.5q32 -11 50.5 -35.5z" />
    <glyph glyph-name="oneeighth" unicode="&#x215b;" horiz-adv-x="854" 
d="M13 556l91 112h96v-401h-98v296l-39 -49zM646 623l-468 -635l-77 58l468 634zM799.5 173q20.5 -26 20.5 -60q0 -54 -44.5 -87t-117.5 -33t-118 33t-45 87q0 35 20.5 60.5t59.5 37.5q-33 10 -51.5 33t-18.5 54q0 50 41.5 80t111.5 30q69 0 111 -30t42 -80q0 -31 -18.5 -54
t-51.5 -33q38 -12 58.5 -38zM617.5 319q-15.5 -12 -15.5 -32t15.5 -32.5t40.5 -12.5t40.5 12.5t15.5 32.5t-15.5 32t-40.5 12t-40.5 -12zM703 84q17 14 17 36q0 23 -17.5 37t-44.5 14q-28 0 -45 -14t-17 -37q0 -22 17 -36t45 -14t45 14z" />
    <glyph glyph-name="threeeighths" unicode="&#x215c;" horiz-adv-x="969" 
d="M332.5 441.5q18.5 -24.5 18.5 -57.5q0 -55 -43.5 -89.5t-112.5 -34.5q-76 0 -119.5 35t-45.5 99h102q2 -27 18.5 -41t43.5 -14q25 0 40.5 13.5t15.5 35.5t-15.5 34.5t-43.5 12.5h-35v77h33q24 0 38.5 11.5t14.5 30.5t-14.5 31t-36.5 12q-25 0 -39.5 -14t-16.5 -35h-100
q4 59 46 93t110 34q67 0 108.5 -31.5t41.5 -82.5q0 -28 -16 -50.5t-43 -33.5q32 -11 50.5 -35.5zM764 623l-468 -635l-77 58l468 634zM917.5 173q20.5 -26 20.5 -60q0 -54 -44.5 -87t-117.5 -33t-118 33t-45 87q0 35 20.5 60.5t59.5 37.5q-33 10 -51.5 33t-18.5 54
q0 50 41.5 80t111.5 30q69 0 111 -30t42 -80q0 -31 -18.5 -54t-51.5 -33q38 -12 58.5 -38zM735.5 319q-15.5 -12 -15.5 -32t15.5 -32.5t40.5 -12.5t40.5 12.5t15.5 32.5t-15.5 32t-40.5 12t-40.5 -12zM821 84q17 14 17 36q0 23 -17.5 37t-44.5 14q-28 0 -45 -14t-17 -37
q0 -22 17 -36t45 -14t45 14z" />
    <glyph glyph-name="fiveeighths" unicode="&#x215d;" horiz-adv-x="963" 
d="M311.5 496q35.5 -37 35.5 -94q0 -63 -44.5 -102.5t-114.5 -39.5q-73 0 -114 33t-45 95h101q3 -24 18.5 -36.5t39.5 -12.5q26 0 42 16.5t16 44.5t-16 45t-42 17q-18 0 -32 -8.5t-20 -21.5h-95l3 236h281v-78h-192l-2 -91q33 34 89 34t91.5 -37zM759 623l-468 -635l-77 58
l468 634zM912.5 173q20.5 -26 20.5 -60q0 -54 -44.5 -87t-117.5 -33t-118 33t-45 87q0 35 20.5 60.5t59.5 37.5q-33 10 -51.5 33t-18.5 54q0 50 41.5 80t111.5 30q69 0 111 -30t42 -80q0 -31 -18.5 -54t-51.5 -33q38 -12 58.5 -38zM730.5 319q-15.5 -12 -15.5 -32
t15.5 -32.5t40.5 -12.5t40.5 12.5t15.5 32.5t-15.5 32t-40.5 12t-40.5 -12zM816 84q17 14 17 36q0 23 -17.5 37t-44.5 14q-28 0 -45 -14t-17 -37q0 -22 17 -36t45 -14t45 14z" />
    <glyph glyph-name="seveneighths" unicode="&#x215e;" horiz-adv-x="886" 
d="M19 668h298v-86q-66 -51 -98.5 -128.5t-37.5 -186.5h-113q13 210 154 319h-203v82zM682 623l-468 -635l-77 58l468 634zM835.5 173q20.5 -26 20.5 -60q0 -54 -44.5 -87t-117.5 -33t-118 33t-45 87q0 35 20.5 60.5t59.5 37.5q-33 10 -51.5 33t-18.5 54q0 50 41.5 80
t111.5 30q69 0 111 -30t42 -80q0 -31 -18.5 -54t-51.5 -33q38 -12 58.5 -38zM653.5 319q-15.5 -12 -15.5 -32t15.5 -32.5t40.5 -12.5t40.5 12.5t15.5 32.5t-15.5 32t-40.5 12t-40.5 -12zM739 84q17 14 17 36q0 23 -17.5 37t-44.5 14q-28 0 -45 -14t-17 -37q0 -22 17 -36
t45 -14t45 14z" />
    <glyph glyph-name="arrowleft" unicode="&#x2190;" horiz-adv-x="823" 
d="M245 406h526v-113h-525l152 -152l-70 -73l-281 282l281 283l71 -73z" />
    <glyph glyph-name="arrowup" unicode="&#x2191;" horiz-adv-x="615" 
d="M307 724l283 -281l-73 -71l-154 154v-526h-113v525l-152 -152l-73 70z" />
    <glyph glyph-name="arrowright" unicode="&#x2192;" horiz-adv-x="822" 
d="M425 560l70 73l281 -282l-281 -283l-71 73l154 154h-526v113h525z" />
    <glyph glyph-name="arrowdown" unicode="&#x2193;" horiz-adv-x="615" 
d="M365 175l152 152l73 -70l-282 -281l-283 281l73 71l154 -154v526h113v-525z" />
    <glyph glyph-name="arrowboth" unicode="&#x2194;" horiz-adv-x="976" 
d="M382 152l-71 -72l-267 270l267 270l71 -72l-143 -144h498l-143 144l71 72l267 -270l-267 -270l-71 72l144 145h-500z" />
    <glyph glyph-name="arrowupdn" unicode="&#x2195;" horiz-adv-x="536" 
d="M503 210l-236 -234l-235 235l69 69l113 -113v366l-113 -113l-69 69l235 235l236 -234l-68 -70l-113 111v-362l113 111z" />
    <glyph glyph-name="uni2196" unicode="&#x2196;" horiz-adv-x="626" 
d="M230 525l372 -372l-80 -80l-371 371v-214l-101 -3l1 398l398 2l-1 -102h-218z" />
    <glyph glyph-name="uni2197" unicode="&#x2197;" horiz-adv-x="629" 
d="M577 625l2 -398l-102 1v218l-372 -372l-80 80l371 371h-214l-3 101z" />
    <glyph glyph-name="uni2198" unicode="&#x2198;" horiz-adv-x="627" 
d="M476 256v214l101 3l-1 -398l-398 -2l1 102h218l-372 372l80 80z" />
    <glyph glyph-name="uni2199" unicode="&#x2199;" horiz-adv-x="629" 
d="M604 546l-371 -371h214l3 -101l-398 1l-2 398l102 -1v-218l372 372z" />
    <glyph glyph-name="partialdiff" unicode="&#x2202;" horiz-adv-x="580" 
d="M218 719q139 -66 231 -179t92 -268q0 -86 -30 -150t-86.5 -99t-133.5 -35q-74 0 -132 32t-90.5 89.5t-32.5 129.5q0 71 28 127t79 88t117 32q65 0 110 -36q-33 47 -90 89t-142 86zM371.5 141q30.5 37 30.5 98t-30 98t-80 37t-81 -37t-31 -98t30.5 -98t80.5 -37t80.5 37z
" />
    <glyph glyph-name="uni2206" unicode="&#x2206;" horiz-adv-x="676" 
d="M651 0h-626v125l233 575h160l233 -575v-125zM167 124h342l-141 359q-16 39 -30 85q-14 -46 -30 -85z" />
    <glyph glyph-name="product" unicode="&#x220f;" horiz-adv-x="706" 
d="M675 700v-124h-89v-692h-140v692h-186v-692h-140v692h-89v124h644z" />
    <glyph glyph-name="summation" unicode="&#x2211;" horiz-adv-x="556" 
d="M42 700h478v-124h-318l208 -251v-66l-208 -251h318v-124h-478v136l225 272l-225 272v136z" />
    <glyph glyph-name="minus" unicode="&#x2212;" horiz-adv-x="570" 
d="M518 244h-466v110h466v-110z" />
    <glyph glyph-name="uni2215" unicode="&#x2215;" horiz-adv-x="544" 
d="M531 690l-410 -795l-108 54l411 795z" />
    <glyph glyph-name="uni2219" unicode="&#x2219;" horiz-adv-x="360" 
d="M257 274h-154v154h154v-154z" />
    <glyph glyph-name="radical" unicode="&#x221a;" horiz-adv-x="742" 
d="M299 0l-120 315l-99 -43l-40 104l224 98l76 -209q19 -51 34 -101q20 67 32 101l181 518h136l-274 -783h-150z" />
    <glyph glyph-name="infinity" unicode="&#x221e;" horiz-adv-x="870" 
d="M724 464.5q47 -24.5 73.5 -67.5t26.5 -97q0 -55 -26.5 -98.5t-73 -68t-105.5 -24.5q-62 0 -105.5 25.5t-78.5 71.5q-36 -46 -79.5 -71.5t-105.5 -25.5q-59 0 -105.5 24.5t-73 68t-26.5 98.5q0 54 26.5 97t73.5 67.5t105 24.5q62 0 105.5 -25.5t79.5 -71.5
q35 46 78.5 71.5t105.5 25.5q58 0 105 -24.5zM317.5 234.5q28.5 22.5 55.5 64.5q-27 42 -55.5 64.5t-67.5 22.5t-64.5 -24.5t-25.5 -62.5t25.5 -62.5t64.5 -24.5t67.5 22.5zM683.5 236.5q25.5 24.5 25.5 62.5t-25.5 62.5t-64.5 24.5q-38 0 -66.5 -22.5t-56.5 -64.5
q28 -42 56.5 -64.5t66.5 -22.5q39 0 64.5 24.5z" />
    <glyph glyph-name="integral" unicode="&#x222b;" horiz-adv-x="386" 
d="M27 -200v110h44q53 0 53 51v607q0 65 34.5 98.5t101.5 33.5h99v-110h-44q-53 0 -53 -51v-607q0 -65 -34.5 -98.5t-101.5 -33.5h-99z" />
    <glyph glyph-name="approxequal" unicode="&#x2248;" horiz-adv-x="642" 
d="M379.5 329q-30.5 11 -68.5 31q-30 15 -48 22t-36 7q-24 0 -38 -16.5t-14 -43.5h-117q0 83 37.5 127t108.5 44q36 0 65 -10.5t70 -30.5q29 -15 47.5 -22.5t37.5 -7.5q24 0 37.5 16.5t14.5 44.5h117q0 -83 -37.5 -127.5t-108.5 -44.5q-37 0 -67.5 11zM379.5 109
q-30.5 11 -68.5 31q-30 15 -48 22t-36 7q-24 0 -38 -16.5t-14 -43.5h-117q0 83 37.5 127t108.5 44q36 0 65 -10.5t70 -30.5q29 -15 47.5 -22.5t37.5 -7.5q24 0 37.5 16.5t14.5 44.5h117q0 -83 -37.5 -127.5t-108.5 -44.5q-37 0 -67.5 11z" />
    <glyph glyph-name="notequal" unicode="&#x2260;" horiz-adv-x="580" 
d="M528 468v-110h-155l-50 -118h205v-110h-252l-47 -109h-111l47 109h-111v110h158l50 118h-208v110h255l47 109h111l-47 -109h108z" />
    <glyph glyph-name="lessequal" unicode="&#x2264;" horiz-adv-x="563" 
d="M503 137l-454 184v131l454 183v-120l-228 -89q-20 -8 -72 -26l-39 -14q75 -25 111 -39l228 -89v-121zM502 2h-454v110h454v-110z" />
    <glyph glyph-name="greaterequal" unicode="&#x2265;" horiz-adv-x="563" 
d="M60 137v121l228 89q36 14 111 39l-39 14q-52 18 -72 26l-228 89v120l454 -183v-131zM515 2h-454v110h454v-110z" />
    <glyph glyph-name="uni2460" unicode="&#x2460;" horiz-adv-x="927" 
d="M672.5 703.5q94.5 -54.5 149.5 -148t55 -205.5t-55 -205.5t-149.5 -148t-208.5 -54.5t-209 54.5t-150 148t-55 205.5t55 205.5t150 148t209 54.5t208.5 -54.5zM621 78q71 42 112.5 114t41.5 158t-41.5 158t-113 114t-156.5 42q-86 0 -157.5 -42t-113 -114t-41.5 -158
t41.5 -158t113 -114t157.5 -42t157 42zM372 402l-55 47l99 122h107v-441h-108v326z" />
    <glyph glyph-name="uni2461" unicode="&#x2461;" horiz-adv-x="927" 
d="M672.5 703.5q94.5 -54.5 149.5 -148t55 -205.5t-55 -205.5t-149.5 -148t-208.5 -54.5t-209 54.5t-150 148t-55 205.5t55 205.5t150 148t209 54.5t208.5 -54.5zM621 78q71 42 112.5 114t41.5 158t-41.5 158t-113 114t-156.5 42q-86 0 -157.5 -42t-113 -114t-41.5 -158
t41.5 -158t113 -114t157.5 -42t157 42zM459 246q-22 -15 -34 -30h196v-86h-339q2 60 29.5 105t86.5 86l52 36q31 22 44.5 42t13.5 41q0 24 -15 38.5t-39 14.5q-26 0 -41.5 -17.5t-16.5 -43.5h-110q3 68 48 107.5t121 39.5q74 0 119 -38t45 -100q0 -42 -26.5 -80.5
t-82.5 -78.5z" />
    <glyph glyph-name="uni2462" unicode="&#x2462;" horiz-adv-x="926" 
d="M672.5 703.5q94.5 -54.5 149 -148t54.5 -205.5t-54.5 -205.5t-149 -148t-208.5 -54.5t-209 54.5t-150 148t-55 205.5t55 205.5t150 148t209 54.5t208.5 -54.5zM621 78q71 42 112.5 114t41.5 158t-41.5 158t-113 114t-156.5 42q-86 0 -157.5 -42t-113 -114t-41.5 -158
t41.5 -158t113 -114t157.5 -42t157 42zM617.5 321.5q20.5 -27.5 20.5 -62.5q0 -61 -48.5 -99t-124.5 -38q-83 0 -131 39t-50 109h112q2 -29 19.5 -45t48.5 -16q27 0 44.5 15t17.5 40q0 23 -17.5 37t-47.5 14h-39v85h37q27 0 42.5 12.5t15.5 33.5q0 20 -15.5 33.5t-40.5 13.5
q-27 0 -43.5 -14.5t-18.5 -39.5h-110q4 65 50.5 102.5t121.5 37.5q74 0 119.5 -35t45.5 -91q0 -30 -17.5 -55t-46.5 -37q35 -12 55.5 -39.5z" />
    <glyph glyph-name="uni2463" unicode="&#x2463;" horiz-adv-x="927" 
d="M672.5 703.5q94.5 -54.5 149.5 -148t55 -205.5t-55 -205.5t-149.5 -148t-208.5 -54.5t-209 54.5t-150 148t-55 205.5t55 205.5t150 148t209 54.5t208.5 -54.5zM621 78q71 42 112.5 114t41.5 158t-41.5 158t-113 114t-156.5 42q-86 0 -157.5 -42t-113 -114t-41.5 -158
t41.5 -158t113 -114t157.5 -42t157 42zM424 571h145v-248h59v-83h-59v-110h-104v110h-215v89zM465 323v163q-19 -30 -18 -29l-78 -107q-16 -22 -21 -27h117z" />
    <glyph glyph-name="uni2464" unicode="&#x2464;" horiz-adv-x="926" 
d="M672.5 703.5q94.5 -54.5 149 -148t54.5 -205.5t-54.5 -205.5t-149 -148t-208.5 -54.5t-209 54.5t-150 148t-55 205.5t55 205.5t150 148t209 54.5t208.5 -54.5zM621 78q71 42 112.5 114t41.5 158t-41.5 158t-113 114t-156.5 42q-86 0 -157.5 -42t-113 -114t-41.5 -158
t41.5 -158t113 -114t157.5 -42t157 42zM600.5 382.5q39.5 -40.5 39.5 -103.5q0 -70 -49 -113.5t-126 -43.5q-80 0 -125.5 37t-49.5 104h110q4 -26 21 -40t44 -14q29 0 46.5 18.5t17.5 48.5q0 31 -17.5 50t-46.5 19q-20 0 -35 -9t-23 -24h-103l3 259h308v-86h-211l-2 -100
q36 38 99 38q60 0 99.5 -40.5z" />
    <glyph glyph-name="uni2465" unicode="&#x2465;" horiz-adv-x="927" 
d="M672.5 703.5q94.5 -54.5 149.5 -148t55 -205.5t-55 -205.5t-149.5 -148t-208.5 -54.5t-209 54.5t-150 148t-55 205.5t55 205.5t150 148t209 54.5t208.5 -54.5zM621 78q71 42 112.5 114t41.5 158t-41.5 158t-113 114t-156.5 42q-86 0 -157.5 -42t-113 -114t-41.5 -158
t41.5 -158t113 -114t157.5 -42t157 42zM595.5 375.5q41.5 -40.5 41.5 -102.5q0 -43 -22.5 -77.5t-62.5 -54t-89 -19.5q-89 0 -139.5 60t-50.5 168t50.5 168.5t139.5 60.5q70 0 114.5 -34.5t51.5 -96.5h-111q-4 21 -18 33t-39 12q-37 0 -58.5 -33t-22.5 -97q18 25 46 39
t65 14q63 0 104.5 -40.5zM506 225.5q19 18.5 19 46.5t-18.5 46.5t-47.5 18.5t-47.5 -18.5t-18.5 -46.5t19 -46.5t47 -18.5t47 18.5z" />
    <glyph glyph-name="uni2466" unicode="&#x2466;" horiz-adv-x="926" 
d="M672.5 703.5q94.5 -54.5 149 -148t54.5 -205.5t-54.5 -205.5t-149 -148t-208.5 -54.5t-209 54.5t-150 148t-55 205.5t55 205.5t150 148t209 54.5t208.5 -54.5zM621 78q71 42 112.5 114t41.5 158t-41.5 158t-113 114t-156.5 42q-86 0 -157.5 -42t-113 -114t-41.5 -158
t41.5 -158t113 -114t157.5 -42t157 42zM304 481v90h327v-95q-72 -56 -107.5 -140.5t-42.5 -205.5h-124q8 114 49 201.5t121 149.5h-223z" />
    <glyph glyph-name="uni2467" unicode="&#x2467;" horiz-adv-x="927" 
d="M672.5 703.5q94.5 -54.5 149.5 -148t55 -205.5t-55 -205.5t-149.5 -148t-208.5 -54.5t-209 54.5t-150 148t-55 205.5t55 205.5t150 148t209 54.5t208.5 -54.5zM621 78q71 42 112.5 114t41.5 158t-41.5 158t-113 114t-156.5 42q-86 0 -157.5 -42t-113 -114t-41.5 -158
t41.5 -158t113 -114t157.5 -42t157 42zM619.5 318q22.5 -29 22.5 -65q0 -59 -49.5 -95.5t-129.5 -36.5t-129.5 36t-49.5 96q0 36 22 65t65 43q-36 11 -56 36.5t-20 59.5q0 55 46 88t122 33t122 -33t46 -88q0 -35 -20.5 -59.5t-55.5 -36.5q42 -14 64.5 -43zM419 480.5
q-17 -13.5 -17 -35.5q0 -23 16.5 -36.5t44.5 -13.5t44.5 13.5t16.5 36.5q0 21 -17 35t-44 14t-44 -13.5zM513 221q19 16 19 41q0 24 -19 39.5t-50 15.5q-30 0 -49.5 -15t-19.5 -40t19 -41t50 -16t50 16z" />
    <glyph glyph-name="uni2468" unicode="&#x2468;" horiz-adv-x="927" 
d="M672 703.5q95 -54.5 150 -148t55 -205.5t-55 -205.5t-150 -148t-209 -54.5t-208.5 54.5t-149.5 148t-55 205.5t55 205.5t149.5 148t208.5 54.5t209 -54.5zM619 79.5q71 41.5 112.5 113t41.5 157.5t-41.5 157.5t-112.5 113t-156 41.5t-155.5 -41.5t-112 -113t-41.5 -157.5
t41.5 -157.5t112 -113t155.5 -41.5t156 41.5zM604.5 518q50.5 -60 50.5 -168t-50.5 -168.5t-139.5 -60.5q-72 0 -116.5 35t-50.5 97h113q8 -44 56 -44q36 0 57 32t22 95q-35 -52 -110 -52q-64 0 -105 40.5t-41 102.5q0 43 22.5 77.5t62.5 54t89 19.5q90 0 140.5 -60z
M515 382.5q18 17.5 18 45.5q0 27 -18 45t-46 18t-46.5 -18t-18.5 -45q0 -28 18 -45.5t47 -17.5q28 0 46 17.5z" />
    <glyph glyph-name="uni24EA" unicode="&#x24ea;" horiz-adv-x="927" 
d="M255 -3.5q-95 54.5 -150 148t-55 205.5t55 205.5t150 148t209 54.5t208.5 -54.5t149.5 -148t55 -205.5t-55 -205.5t-149.5 -148t-208.5 -54.5t-209 54.5zM621 78q71 42 112.5 114t41.5 158t-41.5 158t-113 114t-156.5 42q-86 0 -157.5 -42t-113 -114t-41.5 -158
t41.5 -158t113 -114t157.5 -42t157 42zM324 182q-49 60 -49 168q0 109 49 169t138 60q88 0 137 -60t49 -169q0 -108 -49 -168t-137 -60q-89 0 -138 60zM518 246.5q19 35.5 19 103.5t-19 104t-56 36t-56 -36t-19 -104q0 -67 19 -103t56 -36t56 35.5z" />
    <glyph glyph-name="uni24FF" unicode="&#x24ff;" horiz-adv-x="927" 
d="M255 -3.5q-95 54.5 -150 148t-55 205.5t55 205.5t150 148t209 54.5t208.5 -54.5t149.5 -148t55 -205.5t-55 -205.5t-149.5 -148t-208.5 -54.5t-209 54.5zM599 182q49 60 49 168q0 109 -49 169t-137 60q-89 0 -138 -60t-49 -169q0 -108 49 -168t138 -60q88 0 137 60z
M406 247q-19 36 -19 103q0 68 19 104t56 36t56 -36t19 -104t-19 -103.5t-56 -35.5t-56 36z" />
    <glyph glyph-name="filledbox" unicode="&#x25a0;" horiz-adv-x="856" 
d="M778 0h-700v700h700v-700z" />
    <glyph glyph-name="uni25A1" unicode="&#x25a1;" horiz-adv-x="856" 
d="M778 0h-700v700h700v-700zM200 583v-466h456v466h-456z" />
    <glyph glyph-name="triagup" unicode="&#x25b2;" horiz-adv-x="896" 
d="M448 752l436 -754h-872z" />
    <glyph glyph-name="uni25B3" unicode="&#x25b3;" horiz-adv-x="896" 
d="M884 -2h-872l436 754zM448 513l-230 -396h460z" />
    <glyph glyph-name="uni25B6" unicode="&#x25b6;" horiz-adv-x="826" 
d="M788 350l-698 -404v807z" />
    <glyph glyph-name="uni25B7" unicode="&#x25b7;" horiz-adv-x="828" 
d="M788 350l-698 -404v807zM209 550v-399l345 199z" />
    <glyph glyph-name="triagdn" unicode="&#x25bc;" horiz-adv-x="898" 
d="M885 700l-436 -754l-436 754h872z" />
    <glyph glyph-name="uni25BD" unicode="&#x25bd;" horiz-adv-x="898" 
d="M885 700l-436 -754l-436 754h872zM219 581l230 -396l230 396h-460z" />
    <glyph glyph-name="uni25C0" unicode="&#x25c0;" horiz-adv-x="826" 
d="M736 753v-807l-698 404z" />
    <glyph glyph-name="uni25C1" unicode="&#x25c1;" horiz-adv-x="828" 
d="M738 753v-807l-698 404zM274 350l346 -200v400z" />
    <glyph glyph-name="lozenge" unicode="&#x25ca;" horiz-adv-x="634" 
d="M387 0h-140l-204 350l204 350h140l204 -350zM355 187l94 163l-94 163q-10 16 -38 73q-12 -27 -37 -72l-95 -164l95 -164q25 -45 37 -72q28 57 38 73z" />
    <glyph glyph-name="circle" unicode="&#x25cb;" horiz-adv-x="856" 
d="M619.5 23q86.5 50 136 136.5t49.5 191.5q0 104 -49.5 190.5t-136 136t-190.5 49.5q-105 0 -191.5 -49.5t-136.5 -136t-50 -190.5q0 -105 50 -191.5t136.5 -136.5t191.5 -50q104 0 190.5 50zM302.5 127q-57.5 34 -90.5 93.5t-33 130.5t33 130t90.5 93t126.5 34t126 -34
t90 -93t33 -130t-33 -130.5t-90 -93.5t-126 -34t-126.5 34z" />
    <glyph glyph-name="uni25CF" unicode="&#x25cf;" horiz-adv-x="854" 
d="M238.5 24q-86.5 51 -137.5 137.5t-51 189.5q0 102 51 188.5t137.5 137t189.5 50.5q102 0 188.5 -50.5t137 -137t50.5 -188.5q0 -103 -50.5 -189.5t-137 -137.5t-188.5 -51q-103 0 -189.5 51z" />
    <glyph glyph-name="uni2661" unicode="&#x2661;" horiz-adv-x="846" 
d="M351 19q-160 135 -237.5 252.5t-77.5 224.5q0 64 26 114t72.5 78.5t105.5 28.5q66 0 113 -32.5t70 -84.5q23 52 70 84.5t113 32.5q59 0 105.5 -28.5t72.5 -78.5t26 -114q0 -107 -77.5 -224.5t-237.5 -252.5l-72 -61zM696 496q0 52 -26 81.5t-71 29.5q-49 0 -77 -34
t-33 -97h-132q-5 63 -33 97t-77 34q-45 0 -71 -29.5t-26 -81.5q0 -162 273 -386q273 224 273 386z" />
    <glyph glyph-name="heart" unicode="&#x2665;" horiz-adv-x="846" 
d="M351 19q-160 135 -237.5 252.5t-77.5 224.5q0 64 26 114t72.5 78.5t105.5 28.5q66 0 113 -32.5t70 -84.5q23 52 70 84.5t113 32.5q59 0 105.5 -28.5t72.5 -78.5t26 -114q0 -107 -77.5 -224.5t-237.5 -252.5l-72 -61z" />
    <glyph glyph-name="uni2713" unicode="&#x2713;" horiz-adv-x="797" 
d="M778 643l-461 -655l-278 358l92 75l181 -237l369 528z" />
    <glyph glyph-name="uni2715" unicode="&#x2715;" horiz-adv-x="756" 
d="M377 267l-267 -267l-82 82l267 267l-267 268l83 83l266 -266l267 266l84 -83l-267 -268l267 -267l-84 -82z" />
    <glyph glyph-name="uni2776" unicode="&#x2776;" horiz-adv-x="927" 
d="M255 -3.5q-95 54.5 -150 148t-55 205.5t55 205.5t150 148t209 54.5t208.5 -54.5t149.5 -148t55 -205.5t-55 -205.5t-149.5 -148t-208.5 -54.5t-209 54.5zM415 456v-326h108v441h-107l-99 -122l55 -47z" />
    <glyph glyph-name="uni2777" unicode="&#x2777;" horiz-adv-x="927" 
d="M255 -3.5q-95 54.5 -150 148t-55 205.5t55 205.5t150 148t209 54.5t208.5 -54.5t149.5 -148t55 -205.5t-55 -205.5t-149.5 -148t-208.5 -54.5t-209 54.5zM621 130v86h-196q12 15 34 30l51 36q56 40 82.5 78.5t26.5 80.5q0 62 -45 100t-119 38q-76 0 -121 -39.5
t-48 -107.5h110q1 26 16.5 43.5t41.5 17.5q24 0 39 -14.5t15 -38.5q0 -21 -13.5 -41t-44.5 -42l-52 -36q-59 -41 -86.5 -86t-29.5 -105h339z" />
    <glyph glyph-name="uni2778" unicode="&#x2778;" horiz-adv-x="926" 
d="M255 -3.5q-95 54.5 -150 148t-55 205.5t55 205.5t150 148t209 54.5t208.5 -54.5t149 -148t54.5 -205.5t-54.5 -205.5t-149 -148t-208.5 -54.5t-209 54.5zM589.5 160q48.5 38 48.5 99q0 35 -20.5 62.5t-55.5 39.5q29 12 46.5 37t17.5 55q0 56 -45.5 91t-119.5 35
q-75 0 -121.5 -37.5t-50.5 -102.5h110q2 25 18.5 39.5t43.5 14.5q25 0 40.5 -13.5t15.5 -33.5q0 -21 -15.5 -33.5t-42.5 -12.5h-37v-85h39q30 0 47.5 -14t17.5 -37q0 -25 -17.5 -40t-44.5 -15q-31 0 -48.5 16t-19.5 45h-112q2 -70 50 -109t131 -39q76 0 124.5 38z" />
    <glyph glyph-name="uni2779" unicode="&#x2779;" horiz-adv-x="927" 
d="M255 -3.5q-95 54.5 -150 148t-55 205.5t55 205.5t150 148t209 54.5t208.5 -54.5t149.5 -148t55 -205.5t-55 -205.5t-149.5 -148t-208.5 -54.5t-209 54.5zM465 240v-110h104v110h59v83h-59v248h-145l-174 -242v-89h215zM348 323q5 5 21 27l78 107q-1 -1 18 29v-163h-117z
" />
    <glyph glyph-name="uni277A" unicode="&#x277a;" horiz-adv-x="926" 
d="M255 -3.5q-95 54.5 -150 148t-55 205.5t55 205.5t150 148t209 54.5t208.5 -54.5t149 -148t54.5 -205.5t-54.5 -205.5t-149 -148t-208.5 -54.5t-209 54.5zM591 165.5q49 43.5 49 113.5q0 63 -39.5 103.5t-99.5 40.5q-63 0 -99 -38l2 100h211v86h-308l-3 -259h103
q8 15 23 24t35 9q29 0 46.5 -19t17.5 -50q0 -30 -17.5 -48.5t-46.5 -18.5q-27 0 -44 14t-21 40h-110q4 -67 49.5 -104t125.5 -37q77 0 126 43.5z" />
    <glyph glyph-name="uni277B" unicode="&#x277b;" horiz-adv-x="927" 
d="M255 -3.5q-95 54.5 -150 148t-55 205.5t55 205.5t150 148t209 54.5t208.5 -54.5t149.5 -148t55 -205.5t-55 -205.5t-149.5 -148t-208.5 -54.5t-209 54.5zM552 141.5q40 19.5 62.5 54t22.5 77.5q0 62 -41.5 102.5t-104.5 40.5q-37 0 -65.5 -13.5t-45.5 -39.5q1 64 22.5 97
t58.5 33q25 0 39 -12t18 -33h111q-7 62 -51.5 96.5t-114.5 34.5q-89 0 -139.5 -60.5t-50.5 -168.5t50.5 -168t139.5 -60q49 0 89 19.5zM412 225.5q-19 18.5 -19 46.5t18.5 46.5t47.5 18.5t47.5 -18.5t18.5 -46.5t-19 -46.5t-47 -18.5t-47 18.5z" />
    <glyph glyph-name="uni277C" unicode="&#x277c;" horiz-adv-x="926" 
d="M255 -3.5q-95 54.5 -150 148t-55 205.5t55 205.5t150 148t209 54.5t208.5 -54.5t149 -148t54.5 -205.5t-54.5 -205.5t-149 -148t-208.5 -54.5t-209 54.5zM481 130q7 121 42.5 205.5t107.5 140.5v95h-327v-90h223q-80 -62 -121 -149.5t-49 -201.5h124z" />
    <glyph glyph-name="uni277D" unicode="&#x277d;" horiz-adv-x="927" 
d="M255 -3.5q-95 54.5 -150 148t-55 205.5t55 205.5t150 148t209 54.5t208.5 -54.5t149.5 -148t55 -205.5t-55 -205.5t-149.5 -148t-208.5 -54.5t-209 54.5zM592.5 157.5q49.5 36.5 49.5 95.5q0 36 -22.5 65t-64.5 43q35 12 55.5 36.5t20.5 59.5q0 55 -46 88t-122 33
t-122 -33t-46 -88q0 -34 20 -59.5t56 -36.5q-43 -14 -65 -43t-22 -65q0 -60 49.5 -96t129.5 -36t129.5 36.5zM418.5 408.5q-16.5 13.5 -16.5 36.5q0 22 17 35.5t44 13.5t44 -14t17 -35q0 -23 -16.5 -36.5t-44.5 -13.5t-44.5 13.5zM413 221q-19 16 -19 41t19.5 40t49.5 15
q31 0 50 -15.5t19 -39.5q0 -25 -19 -41t-50 -16t-50 16z" />
    <glyph glyph-name="uni277E" unicode="&#x277e;" horiz-adv-x="927" 
d="M254.5 -3.5q-94.5 54.5 -149.5 148t-55 205.5t55 205.5t149.5 148t208.5 54.5t209 -54.5t150 -148t55 -205.5t-55 -205.5t-150 -148t-209 -54.5t-208.5 54.5zM603.5 181.5q50.5 60.5 50.5 168.5t-50.5 168t-139.5 60q-49 0 -89 -19.5t-62.5 -54t-22.5 -77.5
q0 -62 41.5 -102.5t104.5 -40.5q37 0 65.5 13.5t45.5 39.5q-1 -64 -22.5 -97t-58.5 -33q-25 0 -39 12t-18 33h-111q7 -62 51.5 -96.5t114.5 -34.5q89 0 139.5 60.5zM420.5 381.5q-18.5 18.5 -18.5 46.5t19 46.5t47 18.5t47 -18.5t19 -46.5t-18.5 -46.5t-47.5 -18.5
t-47.5 18.5z" />
    <glyph glyph-name="uni2940" unicode="&#x2940;" horiz-adv-x="1217" 
d="M478 449l69 -70l-253 -252l-254 252l71 70l128 -131v3q0 115 47.5 204t132.5 138t193 49q94 0 176 -45v-123q-36 30 -81 45.5t-95 15.5q-78 0 -138.5 -35t-94.5 -99.5t-34 -149.5v-8zM1177 321l-71 -70l-129 131v-4q0 -115 -48 -203.5t-133 -137.5t-193 -49
q-91 0 -176 44v123q78 -60 176 -60q78 0 138.5 35t94.5 99.5t34 148.5v8l-132 -135l-69 70l254 251z" />
    <glyph glyph-name="uni2941" unicode="&#x2941;" horiz-adv-x="1217" 
d="M1106 449l71 -70l-254 -252l-253 252l69 70l133 -136v8q0 85 -34 149.5t-94.5 99.5t-138.5 35q-50 0 -95 -15.5t-81 -45.5v123q82 45 176 45q108 0 193 -49t132.5 -138t47.5 -204v-3zM347 378q0 -84 34 -148.5t94.5 -99.5t138.5 -35q98 0 176 60v-123q-85 -44 -176 -44
q-108 0 -193 49t-133 137.5t-48 203.5v4l-129 -131l-71 70l254 251l254 -251l-69 -70l-132 135v-8z" />
    <glyph glyph-name="uniF000" unicode="&#xf000;" horiz-adv-x="1354" 
d="M1317 0h-1266l211 109l-216 124l272 1l-176 231l266 -103l-50 249l191 -201l10 304l143 -302l87 267l69 -267l173 251l-58 -334l199 121l-109 -227l254 -193v-30zM1102.5 72q11.5 12 11.5 28q0 17 -11.5 28.5t-28.5 11.5q-16 0 -28 -11.5t-12 -28.5q0 -16 12 -28t28 -12
q17 0 28.5 12zM1066.5 83.5q-6.5 6.5 -6.5 16.5t6.5 16.5t16.5 6.5t16.5 -6.5t6.5 -16.5t-6.5 -16.5t-16.5 -6.5t-16.5 6.5z" />
    <glyph glyph-name="uniF8FF" unicode="&#xf8ff;" horiz-adv-x="748" 
d="M84.5 6.5q-6.5 6.5 -6.5 15.5v595q0 7 4.5 13.5t11.5 8.5l270 78l10 2l10 -2l270 -78q7 -2 11.5 -8.5t4.5 -13.5v-595q0 -9 -6.5 -15.5t-15.5 -6.5l-7 1l-267 77l-267 -77l-7 -1q-9 0 -15.5 6.5zM352 669l-230 -67q4 -62 35 -114t82.5 -84.5t112.5 -37.5v303zM396 366
q61 5 112.5 37.5t82.5 84.5t35 114l-230 67v-303zM121 51l231 67v204q-73 6 -134 43.5t-97 97.5v-412zM627 463q-37 -60 -97.5 -97.5t-133.5 -43.5v-204l231 -67v412z" />
    <glyph glyph-name="fi" unicode="&#xfb01;" horiz-adv-x="614" 
d="M285 590q-53 0 -53 -51v-65h107v-106h-107v-368h-138v368h-64v106h64v94q0 65 34.5 98.5t101.5 33.5h109v-110h-54zM553 0h-138v474h138v-474zM555 542h-142v139h142v-139z" />
    <glyph glyph-name="fl" unicode="&#xfb02;" horiz-adv-x="614" 
d="M285 590q-53 0 -53 -51v-65h107v-106h-107v-368h-138v368h-64v106h64v94q0 65 34.5 98.5t101.5 33.5h109v-110h-54zM553 0h-138v700h138v-700z" />
    <glyph glyph-name="Q.ss01" horiz-adv-x="798" 
d="M728 193.5q-30 -70.5 -85 -119.5l47 -59l-96 -77l-59 73q-63 -23 -137 -23q-105 0 -186 45.5t-126.5 127.5t-45.5 189t45.5 189t126.5 127.5t186 45.5t186.5 -45.5t127.5 -127.5t46 -189q0 -86 -30 -156.5zM450 118l-64 80l95 77l74 -92q53 65 53 167q0 70 -26 124
t-74 84t-110 30t-109 -30t-73 -84t-26 -124t26 -124t73 -84t109 -30q28 0 52 6z" />
    <glyph glyph-name="R.ss02" horiz-adv-x="670" 
d="M482 0l-175 288h-85v-288h-144v700h307q71 0 124 -25.5t81.5 -72t28.5 -108.5q0 -76 -43.5 -125t-121.5 -66l190 -303h-162zM222 580v-172h144q49 0 76 23t27 63t-27 63t-76 23h-144z" />
    <glyph glyph-name="Racute.ss02" horiz-adv-x="670" 
d="M482 0l-175 288h-85v-288h-144v700h307q71 0 124 -25.5t81.5 -72t28.5 -108.5q0 -76 -43.5 -125t-121.5 -66l190 -303h-162zM222 580v-172h144q49 0 76 23t27 63t-27 63t-76 23h-144zM371 767h-104l62 141h146z" />
    <glyph glyph-name="Rcaron.ss02" horiz-adv-x="670" 
d="M482 0l-175 288h-85v-288h-144v700h307q71 0 124 -25.5t81.5 -72t28.5 -108.5q0 -76 -43.5 -125t-121.5 -66l190 -303h-162zM222 580v-172h144q49 0 76 23t27 63t-27 63t-76 23h-144zM245 765l-113 145h120l25 -32q21 -27 42 -60q21 33 42 60l25 32h120l-113 -145h-148z
" />
    <glyph glyph-name="uni0156.ss02" horiz-adv-x="670" 
d="M482 0l-175 288h-85v-288h-144v700h307q71 0 124 -25.5t81.5 -72t28.5 -108.5q0 -76 -43.5 -125t-121.5 -66l190 -303h-162zM222 580v-172h144q49 0 76 23t27 63t-27 63t-76 23h-144zM275 -65h126v-127q0 -59 -32 -91.5t-93 -34.5v56q31 4 47 20.5t16 49.5v1h-64v126z
" />
    <glyph glyph-name="Adieresis.ss04" horiz-adv-x="717" 
d="M712 0h-154l-58 159h-288l-57 -159h-150l271 700h165zM255 280h202l-68 187q-18 47 -34 108q-11 -41 -34 -108zM205 788q-21 21 -21 50q0 30 21 50.5t52 20.5t52 -20.5t21 -50.5q0 -29 -21 -50t-52 -21t-52 21zM407 788q-21 21 -21 50q0 30 21 50.5t52 20.5t52 -20.5
t21 -50.5q0 -29 -21 -50t-52 -21t-52 21z" />
    <glyph glyph-name="Cdotaccent.ss04" horiz-adv-x="746" 
d="M209 33.5q-79 45.5 -124 127.5t-45 189t46 189t127.5 127.5t183.5 45.5q85 0 153 -29.5t111.5 -84t55.5 -127.5h-150q-16 52 -61 84.5t-109 32.5q-61 0 -108 -29.5t-73 -83.5t-26 -125t25 -125t70 -83.5t104 -29.5q64 0 108.5 32.5t65.5 86.5h152q-15 -72 -62 -127.5
t-116 -85.5t-150 -30q-99 0 -178 45.5zM338.5 780q-23.5 23 -23.5 56q0 34 23.5 57t58.5 23t58.5 -23t23.5 -57q0 -33 -23.5 -56t-58.5 -24q-35 1 -58.5 24z" />
    <glyph glyph-name="Edieresis.ss04" horiz-adv-x="602" 
d="M222 304v-180h335v-124h-479v700h475v-124h-331v-148h288v-124h-288zM167 788q-21 21 -21 50q0 30 21 50.5t52 20.5t52 -20.5t21 -50.5q0 -29 -21 -50t-52 -21t-52 21zM369 788q-21 21 -21 50q0 30 21 50.5t52 20.5t52 -20.5t21 -50.5q0 -29 -21 -50t-52 -21t-52 21z" />
    <glyph glyph-name="Edotaccent.ss04" horiz-adv-x="602" 
d="M222 304v-180h335v-124h-479v700h475v-124h-331v-148h288v-124h-288zM261.5 780q-23.5 23 -23.5 56q0 34 23.5 57t58.5 23t58.5 -23t23.5 -57q0 -33 -23.5 -56t-58.5 -24q-35 1 -58.5 24z" />
    <glyph glyph-name="uni0122.ss04" horiz-adv-x="776" 
d="M455 222v124h258v-346h-125v93q-31 -50 -86.5 -77.5t-127.5 -27.5q-96 0 -172 46.5t-119 129t-43 186.5q0 107 46 189t127.5 127.5t185.5 45.5q83 0 150.5 -29.5t110 -83.5t53.5 -125h-150q-17 53 -60.5 83.5t-105.5 30.5q-61 0 -108 -29t-73 -83t-26 -126
q0 -68 27 -122.5t75 -85t109 -30.5q64 0 110.5 28t66.5 82h-123zM329 -262q28 6 48.5 25t25.5 42l-11 -1q-29 0 -48.5 19.5t-19.5 49.5t21 50t52 20q34 0 55.5 -26t21.5 -69q0 -64 -40 -111t-105 -55v56z" />
    <glyph glyph-name="Gdotaccent.ss04" horiz-adv-x="776" 
d="M455 222v124h258v-346h-125v93q-31 -50 -86.5 -77.5t-127.5 -27.5q-96 0 -172 46.5t-119 129t-43 186.5q0 107 46 189t127.5 127.5t185.5 45.5q83 0 150.5 -29.5t110 -83.5t53.5 -125h-150q-17 53 -60.5 83.5t-105.5 30.5q-61 0 -108 -29t-73 -83t-26 -126
q0 -68 27 -122.5t75 -85t109 -30.5q64 0 110.5 28t66.5 82h-123zM338.5 780q-23.5 23 -23.5 56q0 34 23.5 57t58.5 23t58.5 -23t23.5 -57q0 -33 -23.5 -56t-58.5 -24q-35 1 -58.5 24z" />
    <glyph glyph-name="Idieresis.ss04" horiz-adv-x="300" 
d="M222 0h-144v700h144v-700zM-3 788q-21 21 -21 50q0 30 21 50.5t52 20.5t52 -20.5t21 -50.5q0 -29 -21 -50t-52 -21t-52 21zM199 788q-21 21 -21 50q0 30 21 50.5t52 20.5t52 -20.5t21 -50.5q0 -29 -21 -50t-52 -21t-52 21z" />
    <glyph glyph-name="Idotaccent.ss04" horiz-adv-x="300" 
d="M222 0h-144v700h144v-700zM91.5 780q-23.5 23 -23.5 56q0 34 23.5 57t58.5 23t58.5 -23t23.5 -57q0 -33 -23.5 -56t-58.5 -24q-35 1 -58.5 24z" />
    <glyph glyph-name="uni0136.ss04" horiz-adv-x="693" 
d="M703 0h-182l-241 320l-58 -57v-263h-144v700h144v-276l278 276h187l-298 -290zM276 -262q28 6 48.5 25t25.5 42l-11 -1q-29 0 -48.5 19.5t-19.5 49.5t21 50t52 20q34 0 55.5 -26t21.5 -69q0 -64 -40 -111t-105 -55v56z" />
    <glyph glyph-name="Lcaron.ss04" horiz-adv-x="559" 
d="M222 700v-574l308 -3v-126l-452 3v700h144zM314 503q28 6 48.5 25t25.5 42l-11 -1q-29 0 -48.5 19t-19.5 49t21 50.5t52 20.5q34 0 55.5 -26t21.5 -69q0 -64 -40 -111t-105 -55v56z" />
    <glyph glyph-name="uni013B.ss04" horiz-adv-x="556" 
d="M222 700v-574l308 -3v-126l-452 3v700h144zM241 -262q28 6 48.5 25t25.5 42l-11 -1q-29 0 -48.5 19.5t-19.5 49.5t21 50t52 20q34 0 55.5 -26t21.5 -69q0 -64 -40 -111t-105 -55v56z" />
    <glyph glyph-name="Ldot.ss04" horiz-adv-x="561" 
d="M222 700v-574l308 -3v-126l-452 3v700h144zM358 313.5q-25 24.5 -25 59.5t25 59.5t61 24.5t61 -24.5t25 -59.5t-25 -59.5t-61 -24.5t-61 24.5z" />
    <glyph glyph-name="uni0145.ss04" horiz-adv-x="757" 
d="M78 0v700h199l271 -531q-2 48 -2 120v411h133v-700h-185l-285 559q2 -48 2 -120v-439h-133zM309 -262q28 6 48.5 25t25.5 42l-11 -1q-29 0 -48.5 19.5t-19.5 49.5t21 50t52 20q34 0 55.5 -26t21.5 -69q0 -64 -40 -111t-105 -55v56z" />
    <glyph glyph-name="Odieresis.ss04" horiz-adv-x="798" 
d="M212 33.5q-81 45.5 -126.5 127.5t-45.5 189t45.5 189t126.5 127.5t186 45.5t186.5 -45.5t127.5 -127.5t46 -189t-46 -189t-127.5 -127.5t-186.5 -45.5t-186 45.5zM508 142q48 30 74 84t26 124t-26 124t-74 84t-110 30t-109 -30t-73 -84t-26 -124t26 -124t73 -84t109 -30
t110 30zM246 788q-21 21 -21 50q0 30 21 50.5t52 20.5t52 -20.5t21 -50.5q0 -29 -21 -50t-52 -21t-52 21zM448 788q-21 21 -21 50q0 30 21 50.5t52 20.5t52 -20.5t21 -50.5q0 -29 -21 -50t-52 -21t-52 21z" />
    <glyph glyph-name="uni0156.ss04" horiz-adv-x="668" 
d="M596 121q0 -43 3.5 -66.5t12.5 -54.5h-148q-5 23 -7.5 47t-2.5 66v89q0 45 -20.5 65.5t-64.5 20.5h-147v-288h-144v700h315q69 0 120 -24.5t78.5 -67t27.5 -97.5q0 -61 -37 -103t-99 -56q61 -10 87 -45.5t26 -105.5v-80zM366 408q49 0 76 23t27 63t-27 63t-76 23h-144
v-172h144zM266 -262q28 6 48.5 25t25.5 42l-11 -1q-29 0 -48.5 19.5t-19.5 49.5t21 50t52 20q34 0 55.5 -26t21.5 -69q0 -64 -40 -111t-105 -55v56z" />
    <glyph glyph-name="uni0218.ss04" horiz-adv-x="640" 
d="M114.5 49q-76.5 61 -82.5 172h148q5 -53 44.5 -84t103.5 -31q58 0 91.5 25t33.5 68q0 62 -92 83l-113 25q-95 21 -145.5 73t-50.5 129q0 59 32.5 105t92 72t137.5 26q82 0 144.5 -26t98 -74.5t37.5 -113.5h-146q-4 46 -40.5 72t-92.5 26q-52 0 -83.5 -23.5t-31.5 -59.5
q0 -62 86 -80l125 -27q91 -19 140.5 -72t49.5 -129q0 -65 -34.5 -114t-97 -76t-143.5 -27q-135 0 -211.5 61zM258 -262q28 6 48.5 25t25.5 42l-11 -1q-29 0 -48.5 19.5t-19.5 49.5t21 50t52 20q34 0 55.5 -26t21.5 -69q0 -64 -40 -111t-105 -55v56z" />
    <glyph glyph-name="uni021A.ss04" horiz-adv-x="595" 
d="M22 700h551v-126h-203v-575h-144v575h-204v126zM228 -263q28 6 48.5 25t25.5 42l-11 -1q-29 0 -48.5 19.5t-19.5 49.5t21 50t52 20q34 0 55.5 -26t21.5 -69q0 -64 -40 -111t-105 -55v56z" />
    <glyph glyph-name="Udieresis.ss04" horiz-adv-x="740" 
d="M211 22.5q-67 34.5 -103.5 99t-36.5 154.5v424h144v-414q0 -83 40.5 -128.5t114.5 -45.5q75 0 115.5 45.5t40.5 128.5v414h143v-418q0 -91 -36.5 -157.5t-104 -101.5t-158.5 -35q-92 0 -159 34.5zM217 788q-21 21 -21 50q0 30 21 50.5t52 20.5t52 -20.5t21 -50.5
q0 -29 -21 -50t-52 -21t-52 21zM419 788q-21 21 -21 50q0 30 21 50.5t52 20.5t52 -20.5t21 -50.5q0 -29 -21 -50t-52 -21t-52 21z" />
    <glyph glyph-name="Wdieresis.ss04" horiz-adv-x="992" 
d="M197 0l-178 700h146l95 -413q10 -44 30 -142q11 55 31 142l97 413h164l97 -413q20 -87 31 -142q20 98 30 142l95 413h138l-178 -700h-172l-106 446q-11 44 -21 96q-11 -52 -21 -96l-107 -446h-171zM372 788q-21 21 -21 50q0 30 21 50.5t52 20.5t52 -20.5t21 -50.5
q0 -29 -21 -50t-52 -21t-52 21zM574 788q-21 21 -21 50q0 30 21 50.5t52 20.5t52 -20.5t21 -50.5q0 -29 -21 -50t-52 -21t-52 21z" />
    <glyph glyph-name="Ydieresis.ss04" horiz-adv-x="683" 
d="M677 700l-263 -419v-281h-144v278l-264 422h161l133 -219q23 -36 45 -78q28 53 44 78l132 219h156zM192 788q-21 21 -21 50q0 30 21 50.5t52 20.5t52 -20.5t21 -50.5q0 -29 -21 -50t-52 -21t-52 21zM394 788q-21 21 -21 50q0 30 21 50.5t52 20.5t52 -20.5t21 -50.5
q0 -29 -21 -50t-52 -21t-52 21z" />
    <glyph glyph-name="Zdotaccent.ss04" horiz-adv-x="638" 
d="M589 580l-379 -456h392v-124h-563v121l379 455h-372l-1 124h544v-120zM262.5 780q-23.5 23 -23.5 56q0 34 23.5 57t58.5 23t58.5 -23t23.5 -57q0 -33 -23.5 -56t-58.5 -24q-35 1 -58.5 24z" />
    <glyph glyph-name="uni0122.ss06" horiz-adv-x="776" 
d="M455 222v124h258v-346h-125v93q-31 -50 -86.5 -77.5t-127.5 -27.5q-96 0 -172 46.5t-119 129t-43 186.5q0 107 46 189t127.5 127.5t185.5 45.5q83 0 150.5 -29.5t110 -83.5t53.5 -125h-150q-17 53 -60.5 83.5t-105.5 30.5q-61 0 -108 -29t-73 -83t-26 -126
q0 -68 27 -122.5t75 -85t109 -30.5q64 0 110.5 28t66.5 82h-123zM377 -280h-99l54 212h134z" />
    <glyph glyph-name="uni0136.ss06" horiz-adv-x="693" 
d="M703 0h-182l-241 320l-58 -57v-263h-144v700h144v-276l278 276h187l-298 -290zM324 -280h-99l54 212h134z" />
    <glyph glyph-name="Lcaron.ss06" horiz-adv-x="559" 
d="M222 700v-574l308 -3v-126l-452 3v700h144zM389 488h-95l54 212h130z" />
    <glyph glyph-name="uni013B.ss06" horiz-adv-x="556" 
d="M222 700v-574l308 -3v-126l-452 3v700h144zM289 -280h-99l54 212h134z" />
    <glyph glyph-name="uni0145.ss06" horiz-adv-x="757" 
d="M78 0v700h199l271 -531q-2 48 -2 120v411h133v-700h-185l-285 559q2 -48 2 -120v-439h-133zM357 -280h-99l54 212h134z" />
    <glyph glyph-name="uni0156.ss06" horiz-adv-x="668" 
d="M596 121q0 -43 3.5 -66.5t12.5 -54.5h-148q-5 23 -7.5 47t-2.5 66v89q0 45 -20.5 65.5t-64.5 20.5h-147v-288h-144v700h315q69 0 120 -24.5t78.5 -67t27.5 -97.5q0 -61 -37 -103t-99 -56q61 -10 87 -45.5t26 -105.5v-80zM366 408q49 0 76 23t27 63t-27 63t-76 23h-144
v-172h144zM314 -280h-99l54 212h134z" />
    <glyph glyph-name="uni0218.ss06" horiz-adv-x="640" 
d="M114.5 49q-76.5 61 -82.5 172h148q5 -53 44.5 -84t103.5 -31q58 0 91.5 25t33.5 68q0 62 -92 83l-113 25q-95 21 -145.5 73t-50.5 129q0 59 32.5 105t92 72t137.5 26q82 0 144.5 -26t98 -74.5t37.5 -113.5h-146q-4 46 -40.5 72t-92.5 26q-52 0 -83.5 -23.5t-31.5 -59.5
q0 -62 86 -80l125 -27q91 -19 140.5 -72t49.5 -129q0 -65 -34.5 -114t-97 -76t-143.5 -27q-135 0 -211.5 61zM306 -280h-99l54 212h134z" />
    <glyph glyph-name="uni021A.ss06" horiz-adv-x="595" 
d="M22 700h551v-126h-203v-575h-144v575h-204v126zM276 -281h-99l54 212h134z" />
    <glyph glyph-name="uni0156.ss02.ss06" horiz-adv-x="670" 
d="M482 0l-175 288h-85v-288h-144v700h307q71 0 124 -25.5t81.5 -72t28.5 -108.5q0 -76 -43.5 -125t-121.5 -66l190 -303h-162zM222 580v-172h144q49 0 76 23t27 63t-27 63t-76 23h-144zM316 -280h-99l54 212h134z" />
    <glyph glyph-name="i.loclTRK" horiz-adv-x="260" 
d="M199 0h-138v474h138v-474zM201 542h-142v139h142v-139z" />
    <glyph glyph-name="a.ss03" horiz-adv-x="586" 
d="M391 474h134v-474h-134v67q-20 -38 -57 -58.5t-86 -20.5q-63 0 -111.5 31t-75 87.5t-26.5 130.5t26.5 130.5t75 87.5t111.5 31q49 0 86 -20.5t57 -58.5v67zM363.5 136.5q29.5 38.5 29.5 100.5t-29.5 100.5t-77.5 38.5q-49 0 -79 -38.5t-30 -100.5t30 -100.5t79 -38.5
q48 0 77.5 38.5z" />
    <glyph glyph-name="aacute.ss03" horiz-adv-x="586" 
d="M391 474h134v-474h-134v67q-20 -38 -57 -58.5t-86 -20.5q-63 0 -111.5 31t-75 87.5t-26.5 130.5t26.5 130.5t75 87.5t111.5 31q49 0 86 -20.5t57 -58.5v67zM363.5 136.5q29.5 38.5 29.5 100.5t-29.5 100.5t-77.5 38.5q-49 0 -79 -38.5t-30 -100.5t30 -100.5t79 -38.5
q48 0 77.5 38.5zM347 541h-104l62 141h146z" />
    <glyph glyph-name="abreve.ss03" horiz-adv-x="586" 
d="M391 474h134v-474h-134v67q-20 -38 -57 -58.5t-86 -20.5q-63 0 -111.5 31t-75 87.5t-26.5 130.5t26.5 130.5t75 87.5t111.5 31q49 0 86 -20.5t57 -58.5v67zM363.5 136.5q29.5 38.5 29.5 100.5t-29.5 100.5t-77.5 38.5q-49 0 -79 -38.5t-30 -100.5t30 -100.5t79 -38.5
q48 0 77.5 38.5zM181.5 578.5q-44.5 39.5 -46.5 106.5h97q1 -28 18.5 -45t45.5 -17t45.5 17t18.5 45h97q-2 -67 -46.5 -106.5t-114.5 -39.5t-114.5 39.5z" />
    <glyph glyph-name="acircumflex.ss03" horiz-adv-x="586" 
d="M391 474h134v-474h-134v67q-20 -38 -57 -58.5t-86 -20.5q-63 0 -111.5 31t-75 87.5t-26.5 130.5t26.5 130.5t75 87.5t111.5 31q49 0 86 -20.5t57 -58.5v67zM363.5 136.5q29.5 38.5 29.5 100.5t-29.5 100.5t-77.5 38.5q-49 0 -79 -38.5t-30 -100.5t30 -100.5t79 -38.5
q48 0 77.5 38.5zM108 539l113 145h148l113 -145h-120l-25 32q-21 27 -42 60q-21 -33 -42 -60l-25 -32h-120z" />
    <glyph glyph-name="adieresis.ss03" horiz-adv-x="586" 
d="M391 474h134v-474h-134v67q-20 -38 -57 -58.5t-86 -20.5q-63 0 -111.5 31t-75 87.5t-26.5 130.5t26.5 130.5t75 87.5t111.5 31q49 0 86 -20.5t57 -58.5v67zM363.5 136.5q29.5 38.5 29.5 100.5t-29.5 100.5t-77.5 38.5q-49 0 -79 -38.5t-30 -100.5t30 -100.5t79 -38.5
q48 0 77.5 38.5zM255 550h-123v123h123v-123zM457 550h-122v123h122v-123z" />
    <glyph glyph-name="agrave.ss03" horiz-adv-x="586" 
d="M391 474h134v-474h-134v67q-20 -38 -57 -58.5t-86 -20.5q-63 0 -111.5 31t-75 87.5t-26.5 130.5t26.5 130.5t75 87.5t111.5 31q49 0 86 -20.5t57 -58.5v67zM363.5 136.5q29.5 38.5 29.5 100.5t-29.5 100.5t-77.5 38.5q-49 0 -79 -38.5t-30 -100.5t30 -100.5t79 -38.5
q48 0 77.5 38.5zM348 541h-105l-103 141h145z" />
    <glyph glyph-name="amacron.ss03" horiz-adv-x="586" 
d="M391 474h134v-474h-134v67q-20 -38 -57 -58.5t-86 -20.5q-63 0 -111.5 31t-75 87.5t-26.5 130.5t26.5 130.5t75 87.5t111.5 31q49 0 86 -20.5t57 -58.5v67zM363.5 136.5q29.5 38.5 29.5 100.5t-29.5 100.5t-77.5 38.5q-49 0 -79 -38.5t-30 -100.5t30 -100.5t79 -38.5
q48 0 77.5 38.5zM445 562h-301v91h301v-91z" />
    <glyph glyph-name="aogonek.ss03" horiz-adv-x="586" 
d="M526 -121v-85q-23 -6 -51 -6q-63 0 -96 28t-33 76q0 33 21 61t60 47h-36v67q-20 -38 -57 -58.5t-86 -20.5q-63 0 -111.5 31t-75 87.5t-26.5 130.5t26.5 130.5t75 87.5t111.5 31q49 0 86 -20.5t57 -58.5v67h134v-474q-42 -13 -62 -33.5t-20 -44.5q0 -21 14 -33.5t39 -12.5
q12 0 30 3zM363.5 136.5q29.5 38.5 29.5 100.5t-29.5 100.5t-77.5 38.5q-49 0 -79 -38.5t-30 -100.5t30 -100.5t79 -38.5q48 0 77.5 38.5z" />
    <glyph glyph-name="aring.ss03" horiz-adv-x="586" 
d="M391 474h134v-474h-134v67q-20 -38 -57 -58.5t-86 -20.5q-63 0 -111.5 31t-75 87.5t-26.5 130.5t26.5 130.5t75 87.5t111.5 31q49 0 86 -20.5t57 -58.5v67zM363.5 136.5q29.5 38.5 29.5 100.5t-29.5 100.5t-77.5 38.5q-49 0 -79 -38.5t-30 -100.5t30 -100.5t79 -38.5
q48 0 77.5 38.5zM205 555.5q-35 30.5 -35 79.5t35 80t90 31t89.5 -31t34.5 -80t-35 -79.5t-89 -30.5q-55 0 -90 30.5zM327.5 602q12.5 13 12.5 33t-12.5 33t-32.5 13t-33 -13t-13 -33t13 -33t33 -13t32.5 13z" />
    <glyph glyph-name="atilde.ss03" horiz-adv-x="586" 
d="M391 474h134v-474h-134v67q-20 -38 -57 -58.5t-86 -20.5q-63 0 -111.5 31t-75 87.5t-26.5 130.5t26.5 130.5t75 87.5t111.5 31q49 0 86 -20.5t57 -58.5v67zM363.5 136.5q29.5 38.5 29.5 100.5t-29.5 100.5t-77.5 38.5q-49 0 -79 -38.5t-30 -100.5t30 -100.5t79 -38.5
q48 0 77.5 38.5zM335 552.5q-17 5.5 -41 15.5q-34 15 -52 15q-14 0 -21.5 -8.5t-7.5 -22.5h-93q-2 59 23.5 91.5t73.5 32.5q21 0 38 -5.5t41 -15.5q34 -15 52 -15q14 0 21.5 8.5t7.5 22.5h93q2 -59 -23.5 -91.5t-73.5 -32.5q-21 0 -38 5.5z" />
    <glyph glyph-name="ae.ss03" horiz-adv-x="921" 
d="M885 201h-338q4 -51 32 -78t74 -27q32 0 55.5 14.5t32.5 39.5h138q-8 -47 -38.5 -84t-77 -57.5t-99.5 -20.5t-93.5 15.5t-63.5 45.5v-49h-116v67q-20 -38 -57 -58.5t-86 -20.5q-63 0 -111.5 31t-75 87.5t-26.5 130.5t26.5 130.5t75 87.5t111.5 31q49 0 86 -20.5t57 -58.5
v67h116v-59q24 33 64.5 52t87.5 19q110 0 168 -67.5t58 -182.5v-35zM750 293q-1 43 -28.5 68t-69.5 25q-40 0 -69 -23.5t-35 -69.5h202zM363.5 136.5q29.5 38.5 29.5 100.5t-29.5 100.5t-77.5 38.5q-49 0 -79 -38.5t-30 -100.5t30 -100.5t79 -38.5q48 0 77.5 38.5z" />
    <glyph glyph-name="aeacute.ss03" horiz-adv-x="921" 
d="M885 201h-338q4 -51 32 -78t74 -27q32 0 55.5 14.5t32.5 39.5h138q-8 -47 -38.5 -84t-77 -57.5t-99.5 -20.5t-93.5 15.5t-63.5 45.5v-49h-116v67q-20 -38 -57 -58.5t-86 -20.5q-63 0 -111.5 31t-75 87.5t-26.5 130.5t26.5 130.5t75 87.5t111.5 31q49 0 86 -20.5t57 -58.5
v67h116v-59q24 33 64.5 52t87.5 19q110 0 168 -67.5t58 -182.5v-35zM750 293q-1 43 -28.5 68t-69.5 25q-40 0 -69 -23.5t-35 -69.5h202zM363.5 136.5q29.5 38.5 29.5 100.5t-29.5 100.5t-77.5 38.5q-49 0 -79 -38.5t-30 -100.5t30 -100.5t79 -38.5q48 0 77.5 38.5zM501 541
h-104l62 141h146z" />
    <glyph glyph-name="adieresis.ss04" horiz-adv-x="524" 
d="M468 91q0 -51 4 -91h-127q-1 17 -1 52v6q-47 -70 -146 -70q-75 0 -121 40.5t-46 103.5q0 64 47.5 102t138.5 49l67 8q51 7 51 42q0 25 -19 41t-50 16q-34 0 -55.5 -16.5t-25.5 -45.5h-137q9 73 67.5 115.5t147.5 42.5q96 0 150.5 -49t54.5 -137v-209zM334 227
q-8 -8 -19.5 -13t-30.5 -9l-45 -9q-67 -13 -67 -58q0 -24 18.5 -39t47.5 -15q43 0 69.5 26.5t26.5 69.5v47zM112 562q-21 21 -21 50q0 30 21 50.5t52 20.5t52 -20.5t21 -50.5q0 -29 -21 -50t-52 -21t-52 21zM314 562q-21 21 -21 50q0 30 21 50.5t52 20.5t52 -20.5t21 -50.5
q0 -29 -21 -50t-52 -21t-52 21z" />
    <glyph glyph-name="cdotaccent.ss04" horiz-adv-x="544" 
d="M152 19.5q-56 31.5 -87.5 88t-31.5 129.5t32 129.5t88.5 88t129.5 31.5q97 0 160.5 -48.5t71.5 -129.5h-138q-8 32 -31.5 50t-59.5 18q-50 0 -80.5 -38t-30.5 -101t30 -101t80 -38q35 0 59.5 17.5t33.5 49.5h138q-11 -80 -76 -128.5t-160 -48.5q-72 0 -128 31.5z
M226.5 554q-23.5 23 -23.5 56q0 34 23.5 57t58.5 23t58.5 -23t23.5 -57q0 -33 -23.5 -56t-58.5 -24q-35 1 -58.5 24z" />
    <glyph glyph-name="dcaron.ss04" horiz-adv-x="643" 
d="M387 700h138v-700h-134v67q-20 -38 -57 -58.5t-86 -20.5q-63 0 -111.5 31t-75 87.5t-26.5 130.5q0 71 27.5 128t75.5 89t108 32q48 0 84.5 -20t56.5 -57v291zM363.5 136.5q29.5 38.5 29.5 100.5t-29.5 100.5t-77.5 38.5q-49 0 -79 -38.5t-30 -100.5t30 -100.5t79 -38.5
q48 0 77.5 38.5zM586 503q28 6 48.5 25t25.5 42l-11 -1q-29 0 -48.5 19t-19.5 49t21 50.5t52 20.5q34 0 55.5 -26t21.5 -69q0 -64 -40 -111t-105 -55v56z" />
    <glyph glyph-name="edieresis.ss04" horiz-adv-x="545" 
d="M510 201h-338q4 -51 32 -78t74 -27q32 0 55.5 14.5t32.5 39.5h138q-15 -75 -76.5 -118.5t-152.5 -43.5q-72 0 -126.5 31t-84.5 87.5t-30 130.5q0 73 31 129.5t85 88t122 31.5q117 0 177.5 -67.5t60.5 -182.5v-35zM208 362.5q-29 -23.5 -35 -69.5h202q-1 43 -28.5 68
t-69.5 25q-40 0 -69 -23.5zM124 562q-21 21 -21 50q0 30 21 50.5t52 20.5t52 -20.5t21 -50.5q0 -29 -21 -50t-52 -21t-52 21zM326 562q-21 21 -21 50q0 30 21 50.5t52 20.5t52 -20.5t21 -50.5q0 -29 -21 -50t-52 -21t-52 21z" />
    <glyph glyph-name="edotaccent.ss04" horiz-adv-x="545" 
d="M510 201h-338q4 -51 32 -78t74 -27q32 0 55.5 14.5t32.5 39.5h138q-15 -75 -76.5 -118.5t-152.5 -43.5q-72 0 -126.5 31t-84.5 87.5t-30 130.5q0 73 31 129.5t85 88t122 31.5q117 0 177.5 -67.5t60.5 -182.5v-35zM208 362.5q-29 -23.5 -35 -69.5h202q-1 43 -28.5 68
t-69.5 25q-40 0 -69 -23.5zM218.5 554q-23.5 23 -23.5 56q0 34 23.5 57t58.5 23t58.5 -23t23.5 -57q0 -33 -23.5 -56t-58.5 -24q-35 1 -58.5 24z" />
    <glyph glyph-name="uni0123.ss04" horiz-adv-x="579" 
d="M385 474h134v-477q0 -102 -65 -155.5t-176 -53.5q-101 0 -161.5 46t-66.5 126h138q7 -32 31.5 -49t63.5 -17q47 0 72.5 25.5t25.5 74.5v83q-20 -35 -55 -54t-83 -19q-60 0 -107.5 31t-74 85.5t-26.5 122.5q0 72 29 127t78.5 85.5t110.5 30.5q92 0 132 -73v61zM358 147
q29 37 29 96t-29 96t-75 37q-47 0 -76.5 -37.5t-29.5 -95.5t29.5 -95.5t76.5 -37.5q46 0 75 37zM239.5 556q-21.5 26 -21.5 69q0 64 40 111t105 55v-56q-28 -6 -48.5 -25t-25.5 -42l11 1q29 0 48.5 -19.5t19.5 -49.5t-21 -50t-52 -20q-34 0 -55.5 26z" />
    <glyph glyph-name="gdotaccent.ss04" horiz-adv-x="579" 
d="M385 474h134v-477q0 -102 -65 -155.5t-176 -53.5q-101 0 -161.5 46t-66.5 126h138q7 -32 31.5 -49t63.5 -17q47 0 72.5 25.5t25.5 74.5v83q-20 -35 -55 -54t-83 -19q-60 0 -107.5 31t-74 85.5t-26.5 122.5q0 72 29 127t78.5 85.5t110.5 30.5q92 0 132 -73v61zM358 147
q29 37 29 96t-29 96t-75 37q-47 0 -76.5 -37.5t-29.5 -95.5t29.5 -95.5t76.5 -37.5q46 0 75 37zM234.5 554q-23.5 23 -23.5 56q0 34 23.5 57t58.5 23t58.5 -23t23.5 -57q0 -33 -23.5 -56t-58.5 -24q-35 1 -58.5 24z" />
    <glyph glyph-name="i.ss04" horiz-adv-x="260" 
d="M199 0h-138v474h138v-474zM71.5 554q-23.5 23 -23.5 56q0 34 23.5 57t58.5 23t58.5 -23t23.5 -57q0 -33 -23.5 -56t-58.5 -24q-35 1 -58.5 24z" />
    <glyph glyph-name="idieresis.ss04" horiz-adv-x="260" 
d="M199 0h-138v474h138v-474zM-23 562q-21 21 -21 50q0 30 21 50.5t52 20.5t52 -20.5t21 -50.5q0 -29 -21 -50t-52 -21t-52 21zM179 562q-21 21 -21 50q0 30 21 50.5t52 20.5t52 -20.5t21 -50.5q0 -29 -21 -50t-52 -21t-52 21z" />
    <glyph glyph-name="i.loclTRK.ss04" horiz-adv-x="260" 
d="M199 0h-138v474h138v-474zM71.5 554q-23.5 23 -23.5 56q0 34 23.5 57t58.5 23t58.5 -23t23.5 -57q0 -33 -23.5 -56t-58.5 -24q-35 1 -58.5 24z" />
    <glyph glyph-name="ij.ss04" horiz-adv-x="520" 
d="M199 0h-138v474h138v-474zM71.5 554q-23.5 23 -23.5 56q0 34 23.5 57t58.5 23t58.5 -23t23.5 -57q0 -33 -23.5 -56t-58.5 -24q-35 1 -58.5 24zM245 -200v112h33q43 0 43 45v517h138v-539q0 -67 -31 -101t-109 -34h-74zM331.5 554q-23.5 23 -23.5 56q0 34 23.5 57t58.5 23
t58.5 -23t23.5 -57q0 -33 -23.5 -56t-58.5 -24q-35 1 -58.5 24z" />
    <glyph glyph-name="iogonek.ss04" horiz-adv-x="260" 
d="M71.5 554q-23.5 23 -23.5 56q0 34 23.5 57t58.5 23t58.5 -23t23.5 -57q0 -33 -23.5 -56t-58.5 -24q-35 1 -58.5 24zM131 -111.5q14 -12.5 39 -12.5q12 0 30 3v-85q-23 -6 -51 -6q-63 0 -96 28t-33 76q0 33 21 61t60 47h-40v474h138v-474q-42 -13 -62 -33.5t-20 -44.5
q0 -21 14 -33.5z" />
    <glyph glyph-name="j.ss04" horiz-adv-x="260" 
d="M-15 -200v112h33q43 0 43 45v517h138v-539q0 -67 -31 -101t-109 -34h-74zM71.5 554q-23.5 23 -23.5 56q0 34 23.5 57t58.5 23t58.5 -23t23.5 -57q0 -33 -23.5 -56t-58.5 -24q-35 1 -58.5 24z" />
    <glyph glyph-name="uni0137.ss04" horiz-adv-x="529" 
d="M534 0h-168l-141 194l-26 -26v-168h-138v700h138v-390l156 164h172l-201 -193zM192 -262q28 6 48.5 25t25.5 42l-11 -1q-29 0 -48.5 19.5t-19.5 49.5t21 50t52 20q34 0 55.5 -26t21.5 -69q0 -64 -40 -111t-105 -55v56z" />
    <glyph glyph-name="lcaron.ss04" horiz-adv-x="317" 
d="M199 0h-138v700h138v-700zM260 503q28 6 48.5 25t25.5 42l-11 -1q-29 0 -48.5 19t-19.5 49t21 50.5t52 20.5q34 0 55.5 -26t21.5 -69q0 -64 -40 -111t-105 -55v56z" />
    <glyph glyph-name="uni013C.ss04" horiz-adv-x="260" 
d="M199 0h-138v700h138v-700zM60 -262q28 6 48.5 25t25.5 42l-11 -1q-29 0 -48.5 19.5t-19.5 49.5t21 50t52 20q34 0 55.5 -26t21.5 -69q0 -64 -40 -111t-105 -55v56z" />
    <glyph glyph-name="ldot.ss04" horiz-adv-x="425" 
d="M199 0h-138v700h138v-700zM286.5 291q-24.5 24 -24.5 58t24.5 58t59.5 24t59.5 -24t24.5 -58t-24.5 -58t-59.5 -24t-59.5 24z" />
    <glyph glyph-name="uni0146.ss04" horiz-adv-x="560" 
d="M457.5 435.5q46.5 -50.5 46.5 -143.5v-292h-138v271q0 50 -20.5 77.5t-59.5 27.5q-40 0 -63.5 -29t-23.5 -79v-268h-138v474h134v-75q20 43 56.5 65t84.5 22q75 0 121.5 -50.5zM211 -262q28 6 48.5 25t25.5 42l-11 -1q-29 0 -48.5 19.5t-19.5 49.5t21 50t52 20
q34 0 55.5 -26t21.5 -69q0 -64 -40 -111t-105 -55v56z" />
    <glyph glyph-name="odieresis.ss04" horiz-adv-x="572" 
d="M154 19q-57 31 -88.5 87.5t-31.5 130.5t31.5 130.5t88.5 87.5t132 31t132 -31t88.5 -87.5t31.5 -130.5t-31.5 -130.5t-88.5 -87.5t-132 -31t-132 31zM366 136q30 38 30 101t-30 101t-80 38t-80 -38t-30 -101t30 -101t80 -38t80 38zM133 561q-21 21 -21 50q0 30 21 50.5
t52 20.5t52 -20.5t21 -50.5q0 -29 -21 -50t-52 -21t-52 21zM335 561q-21 21 -21 50q0 30 21 50.5t52 20.5t52 -20.5t21 -50.5q0 -29 -21 -50t-52 -21t-52 21z" />
    <glyph glyph-name="uni0157.ss04" horiz-adv-x="378" 
d="M193 379q18 57 61.5 84t103.5 23v-131q-82 3 -120.5 -33t-38.5 -122v-200h-138v474h132v-95zM60 -262q28 6 48.5 25t25.5 42l-11 -1q-29 0 -48.5 19.5t-19.5 49.5t21 50t52 20q34 0 55.5 -26t21.5 -69q0 -64 -40 -111t-105 -55v56z" />
    <glyph glyph-name="uni0219.ss04" horiz-adv-x="490" 
d="M88.5 32.5q-56.5 44.5 -61.5 118.5h132q5 -30 28.5 -47.5t60.5 -17.5q34 0 53 13.5t19 36.5q0 33 -52 44l-85 17q-140 28 -140 143q0 42 25.5 75.5t70.5 52t102 18.5q92 0 146.5 -39.5t60.5 -109.5h-128q-5 26 -26 40.5t-53 14.5q-31 0 -49 -12.5t-18 -32.5q0 -34 45 -43
l89 -17q150 -29 150 -143q0 -71 -57.5 -113.5t-153.5 -42.5q-102 0 -158.5 44.5zM175 -262q28 6 48.5 25t25.5 42l-11 -1q-29 0 -48.5 19.5t-19.5 49.5t21 50t52 20q34 0 55.5 -26t21.5 -69q0 -64 -40 -111t-105 -55v56z" />
    <glyph glyph-name="adieresis.ss03.ss04" horiz-adv-x="586" 
d="M391 474h134v-474h-134v67q-20 -38 -57 -58.5t-86 -20.5q-63 0 -111.5 31t-75 87.5t-26.5 130.5t26.5 130.5t75 87.5t111.5 31q49 0 86 -20.5t57 -58.5v67zM363.5 136.5q29.5 38.5 29.5 100.5t-29.5 100.5t-77.5 38.5q-49 0 -79 -38.5t-30 -100.5t30 -100.5t79 -38.5
q48 0 77.5 38.5zM142 562q-21 21 -21 50q0 30 21 50.5t52 20.5t52 -20.5t21 -50.5q0 -29 -21 -50t-52 -21t-52 21zM344 562q-21 21 -21 50q0 30 21 50.5t52 20.5t52 -20.5t21 -50.5q0 -29 -21 -50t-52 -21t-52 21z" />
    <glyph glyph-name="tcaron.ss04" horiz-adv-x="376" 
d="M339 368h-109v-206q0 -25 11.5 -37.5t40.5 -12.5h57v-112h-109q-70 0 -104 33.5t-34 101.5v233h-62v106h62v163h138v-163h109v-106zM282 577q28 6 48.5 25t25.5 42l-11 -1q-29 0 -48.5 19t-19.5 49t21 50.5t52 20.5q34 0 55.5 -26t21.5 -69q0 -64 -40 -111t-105 -55v56z
" />
    <glyph glyph-name="uni021B.ss04" horiz-adv-x="376" 
d="M339 368h-109v-206q0 -25 11.5 -37.5t40.5 -12.5h57v-112h-109q-70 0 -104 33.5t-34 101.5v233h-62v106h62v163h138v-163h109v-106zM140 -262q28 6 48.5 25t25.5 42l-11 -1q-29 0 -48.5 19.5t-19.5 49.5t21 50t52 20q34 0 55.5 -26t21.5 -69q0 -64 -40 -111t-105 -55v56z
" />
    <glyph glyph-name="udieresis.ss04" horiz-adv-x="560" 
d="M361 474h138v-474h-134v75q-20 -43 -56.5 -65t-84.5 -22q-75 0 -121.5 50.5t-46.5 143.5v292h138v-271q0 -50 20.5 -77.5t59.5 -27.5q40 0 63.5 29t23.5 79v268zM126 562q-21 21 -21 50q0 30 21 50.5t52 20.5t52 -20.5t21 -50.5q0 -29 -21 -50t-52 -21t-52 21zM328 562
q-21 21 -21 50q0 30 21 50.5t52 20.5t52 -20.5t21 -50.5q0 -29 -21 -50t-52 -21t-52 21z" />
    <glyph glyph-name="wdieresis.ss04" horiz-adv-x="757" 
d="M140 0l-118 474h138l51 -262l15 -89q14 62 21 89l67 262h139l67 -262q7 -27 21 -89l15 89l51 262h128l-118 -474h-155l-67 268q-10 44 -16 76q-6 -32 -16 -76l-68 -268h-155zM223 562q-21 21 -21 50q0 30 21 50.5t52 20.5t52 -20.5t21 -50.5q0 -29 -21 -50t-52 -21
t-52 21zM425 562q-21 21 -21 50q0 30 21 50.5t52 20.5t52 -20.5t21 -50.5q0 -29 -21 -50t-52 -21t-52 21z" />
    <glyph glyph-name="ydieresis.ss04" horiz-adv-x="515" 
d="M59 -200v114h39q61 0 80 52l15 39l-188 469h153l80 -239q14 -44 24 -80q16 59 23 80l74 239h142l-203 -554q-22 -61 -65.5 -90.5t-109.5 -29.5h-64zM109 562q-21 21 -21 50q0 30 21 50.5t52 20.5t52 -20.5t21 -50.5q0 -29 -21 -50t-52 -21t-52 21zM311 562q-21 21 -21 50
q0 30 21 50.5t52 20.5t52 -20.5t21 -50.5q0 -29 -21 -50t-52 -21t-52 21z" />
    <glyph glyph-name="zdotaccent.ss04" horiz-adv-x="482" 
d="M437 370l-239 -262h248v-108h-408v104l239 262h-236v108h396v-104zM182.5 554q-23.5 23 -23.5 56q0 34 23.5 57t58.5 23t58.5 -23t23.5 -57q0 -33 -23.5 -56t-58.5 -24q-35 1 -58.5 24z" />
    <glyph glyph-name="dcaron.ss06" horiz-adv-x="586" 
d="M387 700h138v-700h-134v67q-20 -38 -57 -58.5t-86 -20.5q-63 0 -111.5 31t-75 87.5t-26.5 130.5q0 71 27.5 128t75.5 89t108 32q48 0 84.5 -20t56.5 -57v291zM363.5 136.5q29.5 38.5 29.5 100.5t-29.5 100.5t-77.5 38.5q-49 0 -79 -38.5t-30 -100.5t30 -100.5t79 -38.5
q48 0 77.5 38.5zM661 488h-95l54 212h130z" />
    <glyph glyph-name="uni0123.ss06" horiz-adv-x="579" 
d="M385 474h134v-477q0 -102 -65 -155.5t-176 -53.5q-101 0 -161.5 46t-66.5 126h138q7 -32 31.5 -49t63.5 -17q47 0 72.5 25.5t25.5 74.5v83q-20 -35 -55 -54t-83 -19q-60 0 -107.5 31t-74 85.5t-26.5 122.5q0 72 29 127t78.5 85.5t110.5 30.5q92 0 132 -73v61zM358 147
q29 37 29 96t-29 96t-75 37q-47 0 -76.5 -37.5t-29.5 -95.5t29.5 -95.5t76.5 -37.5q46 0 75 37zM356 542h-134l89 212h99z" />
    <glyph glyph-name="uni0137.ss06" horiz-adv-x="529" 
d="M534 0h-168l-141 194l-26 -26v-168h-138v700h138v-390l156 164h172l-201 -193zM240 -280h-99l54 212h134z" />
    <glyph glyph-name="lcaron.ss06" horiz-adv-x="260" 
d="M199 0h-138v700h138v-700zM335 488h-95l54 212h130z" />
    <glyph glyph-name="uni013C.ss06" horiz-adv-x="260" 
d="M199 0h-138v700h138v-700zM108 -280h-99l54 212h134z" />
    <glyph glyph-name="uni0146.ss06" horiz-adv-x="560" 
d="M457.5 435.5q46.5 -50.5 46.5 -143.5v-292h-138v271q0 50 -20.5 77.5t-59.5 27.5q-40 0 -63.5 -29t-23.5 -79v-268h-138v474h134v-75q20 43 56.5 65t84.5 22q75 0 121.5 -50.5zM259 -280h-99l54 212h134z" />
    <glyph glyph-name="uni0157.ss06" horiz-adv-x="378" 
d="M193 379q18 57 61.5 84t103.5 23v-131q-82 3 -120.5 -33t-38.5 -122v-200h-138v474h132v-95zM108 -280h-99l54 212h134z" />
    <glyph glyph-name="uni0219.ss06" horiz-adv-x="490" 
d="M88.5 32.5q-56.5 44.5 -61.5 118.5h132q5 -30 28.5 -47.5t60.5 -17.5q34 0 53 13.5t19 36.5q0 33 -52 44l-85 17q-140 28 -140 143q0 42 25.5 75.5t70.5 52t102 18.5q92 0 146.5 -39.5t60.5 -109.5h-128q-5 26 -26 40.5t-53 14.5q-31 0 -49 -12.5t-18 -32.5q0 -34 45 -43
l89 -17q150 -29 150 -143q0 -71 -57.5 -113.5t-153.5 -42.5q-102 0 -158.5 44.5zM223 -280h-99l54 212h134z" />
    <glyph glyph-name="tcaron.ss06" horiz-adv-x="376" 
d="M339 368h-109v-206q0 -25 11.5 -37.5t40.5 -12.5h57v-112h-109q-70 0 -104 33.5t-34 101.5v233h-62v106h62v163h138v-163h109v-106zM365 521h-95l54 212h130z" />
    <glyph glyph-name="uni021B.ss06" horiz-adv-x="376" 
d="M339 368h-109v-206q0 -25 11.5 -37.5t40.5 -12.5h57v-112h-109q-70 0 -104 33.5t-34 101.5v233h-62v106h62v163h138v-163h109v-106zM188 -280h-99l54 212h134z" />
    <glyph glyph-name="ydieresis.ss04.ss07" horiz-adv-x="515" 
d="M112 -200l80 208l-187 466h153l80 -239q14 -44 24 -80q16 59 23 80l74 239h142l-247 -674h-142zM109 562q-21 21 -21 50q0 30 21 50.5t52 20.5t52 -20.5t21 -50.5q0 -29 -21 -50t-52 -21t-52 21zM311 562q-21 21 -21 50q0 30 21 50.5t52 20.5t52 -20.5t21 -50.5
q0 -29 -21 -50t-52 -21t-52 21z" />
    <glyph glyph-name="y.ss07" horiz-adv-x="515" 
d="M112 -200l80 208l-187 466h153l80 -239q14 -44 24 -80q16 59 23 80l74 239h142l-247 -674h-142z" />
    <glyph glyph-name="yacute.ss07" horiz-adv-x="515" 
d="M112 -200l80 208l-187 466h153l80 -239q14 -44 24 -80q16 59 23 80l74 239h142l-247 -674h-142zM314 541h-104l62 141h146z" />
    <glyph glyph-name="ycircumflex.ss07" horiz-adv-x="515" 
d="M112 -200l80 208l-187 466h153l80 -239q14 -44 24 -80q16 59 23 80l74 239h142l-247 -674h-142zM75 539l113 145h148l113 -145h-120l-25 32q-21 27 -42 60q-21 -33 -42 -60l-25 -32h-120z" />
    <glyph glyph-name="ydieresis.ss07" horiz-adv-x="515" 
d="M112 -200l80 208l-187 466h153l80 -239q14 -44 24 -80q16 59 23 80l74 239h142l-247 -674h-142zM222 550h-123v123h123v-123zM424 550h-122v123h122v-123z" />
    <glyph glyph-name="ygrave.ss07" horiz-adv-x="515" 
d="M112 -200l80 208l-187 466h153l80 -239q14 -44 24 -80q16 59 23 80l74 239h142l-247 -674h-142zM315 541h-105l-103 141h145z" />
    <glyph glyph-name="f_i.ss04" horiz-adv-x="614" 
d="M285 590q-53 0 -53 -51v-65h107v-106h-107v-368h-138v368h-64v106h64v94q0 65 34.5 98.5t101.5 33.5h109v-110h-54zM553 0h-138v474h138v-474zM425.5 554q-23.5 23 -23.5 56q0 34 23.5 57t58.5 23t58.5 -23t23.5 -57q0 -33 -23.5 -56t-58.5 -24q-35 1 -58.5 24z" />
    <glyph glyph-name="fi.ss04" horiz-adv-x="614" 
d="M285 590q-53 0 -53 -51v-65h107v-106h-107v-368h-138v368h-64v106h64v94q0 65 34.5 98.5t101.5 33.5h109v-110h-54zM553 0h-138v474h138v-474zM425.5 554q-23.5 23 -23.5 56q0 34 23.5 57t58.5 23t58.5 -23t23.5 -57q0 -33 -23.5 -56t-58.5 -24q-35 1 -58.5 24z" />
    <glyph glyph-name="ordfeminine.case" horiz-adv-x="459" 
d="M398 392q0 -36 3 -72h-106q-1 14 -1 42v4q-38 -56 -117 -56q-60 0 -97 32.5t-37 83.5q0 104 149 121l55 6q18 2 29 10t11 23q0 20 -15 32t-39 12q-26 0 -43 -13t-20 -35h-113q7 59 54.5 93t119.5 34q78 0 122.5 -39.5t44.5 -110.5v-167zM286 499q-6 -6 -14.5 -9t-24.5 -7
l-34 -7q-26 -6 -39.5 -16.5t-13.5 -28.5q0 -19 14.5 -30.5t37.5 -11.5q33 0 53.5 21t20.5 53v36z" />
    <glyph glyph-name="ordmasculine.case" horiz-adv-x="481" 
d="M131 335q-46 25 -71.5 70.5t-25.5 104.5q0 90 55.5 144.5t147.5 54.5t147.5 -54.5t55.5 -144.5t-55.5 -145t-147.5 -55q-60 0 -106 25zM298.5 431q23.5 30 23.5 79t-23.5 79t-61.5 30t-61.5 -30t-23.5 -79t23.5 -79t61.5 -30t61.5 30z" />
    <glyph glyph-name="ordfeminine.ss03.case" horiz-adv-x="502" 
d="M323 700h112v-380h-112v51q-17 -29 -46 -45t-67 -16q-76 0 -123 55t-47 145t46.5 144.5t123.5 54.5q39 0 68 -16t45 -44v51zM302.5 431q22.5 30 22.5 79t-22.5 78.5t-59.5 29.5q-38 0 -61 -30t-23 -78q0 -49 23 -79t61 -30q37 0 59.5 30z" />
    <glyph glyph-name="ordfeminine.ss03" horiz-adv-x="493" 
d="M319 668h112v-380h-112v51q-17 -29 -46 -45t-67 -16q-76 0 -123 55t-47 145t46.5 144.5t123.5 54.5q39 0 68 -16t45 -44v51zM298.5 399q22.5 30 22.5 79t-22.5 78.5t-59.5 29.5q-38 0 -61 -30t-23 -78q0 -49 23 -79t61 -30q37 0 59.5 30z" />
    <glyph glyph-name="zero.zero" horiz-adv-x="632" 
d="M516 590q71 -90 71 -256t-71 -256t-200 -90t-200 90t-71 256t71 256t200 90t200 -90zM221.5 505q-32.5 -59 -32.5 -171q0 -43 4 -74l210 256q-31 48 -87 48q-62 0 -94.5 -59zM410.5 163q32.5 59 32.5 171q0 44 -4 75l-211 -257q33 -48 88 -48q62 0 94.5 59z" />
    <glyph glyph-name="zero.zero.blackCircled" horiz-adv-x="927" 
d="M255 -3.5q-95 54.5 -150 148t-55 205.5t55 205.5t150 148t209 54.5t208.5 -54.5t149.5 -148t55 -205.5t-55 -205.5t-149.5 -148t-208.5 -54.5t-209 54.5zM602 182q49 60 49 168q0 109 -49 169t-138 60t-138.5 -60t-49.5 -169q0 -108 49.5 -168t138.5 -60t138 60zM387 312
q-2 24 -2 38q0 66 20.5 102t58.5 36q29 0 48 -22zM415 235l125 153q2 -24 2 -38q0 -66 -20 -101.5t-58 -35.5q-29 0 -49 22z" />
    <glyph glyph-name="zero.case" horiz-adv-x="653" 
d="M118 82.5q-74 94.5 -74 267.5t74 267.5t208 94.5q135 0 209 -94.5t74 -267.5t-74 -267.5t-209 -94.5q-134 0 -208 94.5zM427 170q35 63 35 180t-35 180t-101 63q-65 0 -100 -63t-35 -180t35 -180t100 -63q66 0 101 63z" />
    <glyph glyph-name="one.case" horiz-adv-x="365" 
d="M-2 514l151 186h138v-700h-142v539l-71 -89z" />
    <glyph glyph-name="two.case" horiz-adv-x="592" 
d="M548 117v-117h-518q5 86 48 155t134 133l82 58q103 73 103 151q0 44 -28 71t-74 27q-48 0 -78.5 -29t-33.5 -81h-145q4 104 72 165.5t185 61.5q73 0 129.5 -27t88 -76t31.5 -113q0 -67 -41 -126t-132 -126l-80 -59q-53 -40 -75 -68h332z" />
    <glyph glyph-name="three.case" horiz-adv-x="614" 
d="M539 305q33 -43 33 -102q0 -63 -33.5 -112t-93 -76t-135.5 -27q-126 0 -198.5 59.5t-76.5 167.5h146q5 -53 38.5 -81.5t88.5 -28.5q52 0 84.5 27.5t32.5 74.5q0 45 -32 71t-88 26h-60v117h55q51 0 80.5 23.5t29.5 62.5t-30 63.5t-76 24.5q-49 0 -79.5 -26.5t-35.5 -70.5
h-146q8 100 78.5 157t182.5 57q73 0 129.5 -25t88.5 -69.5t32 -101.5q0 -50 -28.5 -90t-77.5 -59q58 -19 91 -62z" />
    <glyph glyph-name="four.case" horiz-adv-x="645" 
d="M516 298h95v-114h-95v-184h-138v184h-345v122l300 394h183v-402zM378 298v278q-26 -40 -29 -43l-149 -195q-3 -3 -14 -17t-19 -23h211z" />
    <glyph glyph-name="five.case" horiz-adv-x="615" 
d="M466.5 435q51.5 -30 80 -83.5t28.5 -122.5q0 -70 -34 -124.5t-95 -85.5t-138 -31q-122 0 -190.5 57.5t-75.5 159.5h145q7 -48 39 -74t81 -26q54 0 87.5 34.5t33.5 89.5q0 58 -33 93t-87 35q-36 0 -65 -16.5t-42 -44.5h-138l4 404h468v-117h-338l-2 -178q57 60 154 60
q66 0 117.5 -30z" />
    <glyph glyph-name="six.case" horiz-adv-x="638" 
d="M483.5 425.5q52.5 -29.5 83 -81.5t30.5 -117q0 -67 -34.5 -122t-94.5 -86t-133 -31q-138 0 -214.5 94.5t-76.5 267.5t77.5 267.5t215.5 94.5q102 0 169.5 -52.5t77.5 -148.5h-145q-8 41 -34.5 62.5t-70.5 21.5q-67 0 -105.5 -57.5t-41.5 -171.5q27 43 72.5 66t106.5 23
q65 0 117.5 -29.5zM415.5 138.5q34.5 33.5 34.5 85.5q0 53 -34.5 86.5t-88.5 33.5q-55 0 -89 -33.5t-34 -86.5q0 -52 34.5 -85.5t88.5 -33.5t88.5 33.5z" />
    <glyph glyph-name="seven.case" horiz-adv-x="532" 
d="M14 700h500v-125q-110 -95 -171 -237.5t-74 -337.5h-163q32 377 271 579h-363v121z" />
    <glyph glyph-name="eight.case" horiz-adv-x="631" 
d="M552.5 301q36.5 -45 36.5 -106q0 -60 -35 -107t-97.5 -73.5t-141.5 -26.5q-78 0 -140.5 26.5t-97.5 73.5t-35 107q0 61 36 106t105 66q-57 17 -90 58.5t-33 97.5t32 99t90 66.5t133 23.5t133.5 -23.5t90.5 -66.5t32 -99t-33 -97.5t-90 -59.5q68 -20 104.5 -65zM232.5 572
q-31.5 -25 -31.5 -65q0 -41 31.5 -66t82.5 -25q52 0 83.5 25t31.5 66q0 40 -31.5 65t-83.5 25q-51 0 -82.5 -25zM407 131.5q35 28.5 35 74.5t-35 74.5t-92 28.5q-56 0 -91 -28.5t-35 -74.5t35 -74.5t91 -28.5q57 0 92 28.5z" />
    <glyph glyph-name="nine.case" horiz-adv-x="638" 
d="M517.5 617.5q76.5 -94.5 76.5 -267.5t-77.5 -267.5t-215.5 -94.5q-101 0 -169 52.5t-78 148.5h145q7 -42 34.5 -63t70.5 -21q67 0 105.5 58t41.5 172q-27 -43 -72.5 -66.5t-107.5 -23.5q-64 0 -116.5 29.5t-83 81.5t-30.5 117q0 67 34.5 122t94.5 86t133 31
q138 0 214.5 -94.5zM399.5 389.5q34.5 33.5 34.5 86.5q0 52 -34.5 85.5t-88.5 33.5t-88.5 -33.5t-34.5 -85.5q0 -53 34.5 -86.5t88.5 -33.5t88.5 33.5z" />
    <glyph glyph-name="zero.case.zero" horiz-adv-x="653" 
d="M535 617.5q74 -94.5 74 -267.5t-74 -267.5t-209 -94.5q-134 0 -208 94.5t-74 267.5t74 267.5t208 94.5q135 0 209 -94.5zM226 530q-35 -63 -35 -180q0 -39 5 -81l224 273q-36 51 -94 51q-65 0 -100 -63zM427 170q35 63 35 180q0 40 -5 82l-224 -273q34 -52 93 -52
q66 0 101 63z" />
    <glyph glyph-name="zero.zero.circled" horiz-adv-x="927" 
d="M672.5 703.5q94.5 -54.5 149.5 -148t55 -205.5t-55 -205.5t-149.5 -148t-208.5 -54.5t-209 54.5t-150 148t-55 205.5t55 205.5t150 148t209 54.5t208.5 -54.5zM619.5 79.5q70.5 41.5 112 113t41.5 157.5t-41.5 157.5t-112 113t-155.5 41.5t-156 -41.5t-112.5 -113
t-41.5 -157.5t41.5 -157.5t112.5 -113t156 -41.5t155.5 41.5zM602 519q49 -60 49 -169q0 -108 -49 -168t-138 -60t-138.5 60t-49.5 168q0 109 49.5 169t138.5 60t138 -60zM405.5 452q-20.5 -36 -20.5 -102q0 -14 2 -38l125 154q-19 22 -48 22q-38 0 -58.5 -36zM522 248.5
q20 35.5 20 101.5q0 14 -2 38l-125 -153q20 -22 49 -22q38 0 58 35.5z" />
    <glyph glyph-name="zero.osf" horiz-adv-x="640" 
d="M175.5 25q-62.5 37 -97 104.5t-34.5 156.5t34.5 156.5t97 104.5t144.5 37t144.5 -37t97 -104.5t34.5 -156.5t-34.5 -156.5t-97 -104.5t-144.5 -37t-144.5 37zM417 152q35 48 35 134t-35 134t-97 48t-97 -48t-35 -134t35 -134t97 -48t97 48z" />
    <glyph glyph-name="one.osf" horiz-adv-x="372" 
d="M14 394l145 178h135v-572h-139v415l-67 -84z" />
    <glyph glyph-name="two.osf" horiz-adv-x="553" 
d="M504 114v-114h-468q3 80 42.5 140t124.5 113l82 51q38 24 55 47.5t17 51.5q0 31 -22.5 50.5t-58.5 19.5q-39 0 -64 -23.5t-27 -61.5h-141q5 90 67.5 143t164.5 53q103 0 163 -48t60 -130q0 -55 -31.5 -101.5t-104.5 -91.5l-77 -48q-50 -31 -66 -51h284z" />
    <glyph glyph-name="three.osf" horiz-adv-x="593" 
d="M518.5 195q31.5 -41 31.5 -97q0 -61 -32 -108t-89 -72.5t-130 -25.5q-122 0 -191 57t-73 161h143q4 -50 35.5 -77t83.5 -27q49 0 79 26t30 70q0 42 -30 66.5t-82 24.5h-58v114h53q48 0 75.5 21.5t27.5 58.5t-27.5 60t-71.5 23q-46 0 -74.5 -24.5t-33.5 -66.5h-142
q7 96 74 150.5t176 54.5q70 0 124.5 -23.5t85 -66.5t30.5 -98q0 -47 -27 -85t-74 -57q55 -18 86.5 -59z" />
    <glyph glyph-name="four.osf" horiz-adv-x="623" 
d="M497 190h90v-112h-90v-174h-135v174h-329v119l284 375h180v-382zM362 190v261q-14 -21 -27 -39l-141 -186q-14 -19 -30 -36h198z" />
    <glyph glyph-name="five.osf" horiz-adv-x="595" 
d="M453 319.5q49 -28.5 76 -80t27 -116.5q0 -67 -32.5 -119.5t-91 -82t-132.5 -29.5q-116 0 -182 54t-73 154h142q7 -45 36 -69.5t76 -24.5q51 0 82 32t31 85q0 54 -31 86.5t-81 32.5q-33 0 -60 -15t-40 -41h-135l4 386h449v-114h-322l-2 -167q54 57 146 57q64 0 113 -28.5z
" />
    <glyph glyph-name="six.osf" horiz-adv-x="616" 
d="M466 406q50 -28 79 -77.5t29 -111.5q0 -65 -33 -117.5t-90.5 -82t-127.5 -29.5q-133 0 -206 90t-73 256q0 167 74 256.5t207 89.5q99 0 163 -51t74 -142h-142q-7 40 -32.5 59.5t-65.5 19.5q-63 0 -99 -54t-39 -161q55 83 170 83q62 0 112 -28zM398 133q32 31 32 81
t-32 81t-83 31t-83 -31t-32 -81t32 -81t83 -31t83 31z" />
    <glyph glyph-name="seven.osf" horiz-adv-x="528" 
d="M23 572h479v-122q-106 -90 -163.5 -225.5t-69.5 -320.5h-159q31 359 258 550h-345v118z" />
    <glyph glyph-name="eight.osf" horiz-adv-x="610" 
d="M532.5 287q34.5 -43 34.5 -101t-33.5 -103t-93 -70t-135.5 -25t-135.5 25t-93 70t-33.5 103t34.5 101t99.5 63q-54 17 -85.5 56t-31.5 93t30.5 95t86.5 63.5t128 22.5t128 -22.5t86.5 -63.5t30.5 -95t-31.5 -93t-85.5 -56q65 -20 99.5 -63zM227.5 544.5
q-29.5 -23.5 -29.5 -61.5t29.5 -61.5t77.5 -23.5t77.5 23.5t29.5 61.5t-29.5 61.5t-77.5 23.5t-77.5 -23.5zM390.5 126.5q32.5 26.5 32.5 70.5t-32.5 70.5t-85.5 26.5t-85.5 -26.5t-32.5 -70.5t32.5 -70.5t85.5 -26.5t85.5 26.5z" />
    <glyph glyph-name="nine.osf" horiz-adv-x="616" 
d="M499 494q73 -90 73 -256q0 -167 -74 -256.5t-207 -89.5q-99 0 -163 51t-74 142h142q7 -40 32.5 -59.5t65.5 -19.5q63 0 99 54t39 161q-55 -83 -170 -83q-62 0 -112 28t-79 77.5t-29 111.5q0 65 33 117.5t90.5 82t127.5 29.5q133 0 206 -90zM384 277q32 31 32 81t-32 81
t-83 31t-83 -31t-32 -81t32 -81t83 -31t83 31z" />
    <glyph glyph-name="zero.osf.zero" horiz-adv-x="640" 
d="M464.5 547q62.5 -37 97 -104.5t34.5 -156.5t-34.5 -156.5t-97 -104.5t-144.5 -37t-144.5 37t-97 104.5t-34.5 156.5t34.5 156.5t97 104.5t144.5 37t144.5 -37zM223 420q-35 -48 -35 -134q0 -34 7 -71l204 225q-33 28 -79 28q-62 0 -97 -48zM417 152q35 48 35 134
q0 34 -7 71l-204 -225q33 -28 79 -28q62 0 97 48z" />
    <glyph glyph-name="zero.tf" 
d="M106 77.5q-67 89.5 -67 256.5t67 256.5t194 89.5t194 -89.5t67 -256.5t-67 -256.5t-194 -89.5t-194 89.5zM388 161q29 57 29 173q0 117 -29 173.5t-88 56.5t-88 -56.5t-29 -173.5t29 -173.5t88 -56.5t88 57z" />
    <glyph glyph-name="one.tf" 
d="M382 668v-554h184v-114h-507v114h184v397l-95 -119l-76 65l171 211h139z" />
    <glyph glyph-name="two.tf" 
d="M542 114v-114h-497q5 84 46.5 149.5t127.5 126.5l79 56q96 68 96 142q0 41 -26 66.5t-69 25.5q-46 0 -74 -28t-30 -76h-142q4 101 69.5 159.5t176.5 58.5q71 0 125 -26t84 -73t30 -108q0 -65 -39 -121.5t-126 -119.5l-77 -56q-48 -36 -70 -62h316z" />
    <glyph glyph-name="three.tf" 
d="M522.5 291q31.5 -41 31.5 -97q0 -61 -32 -108t-89 -72.5t-130 -25.5q-122 0 -191 57t-73 161h143q4 -50 35.5 -77t83.5 -27q49 0 79 26t30 70q0 42 -30 66.5t-82 24.5h-58v114h53q48 0 75.5 21.5t27.5 58.5t-27.5 60t-71.5 23q-46 0 -74.5 -24.5t-33.5 -66.5h-142
q7 96 74 150.5t176 54.5q70 0 124.5 -23.5t85 -66.5t30.5 -98q0 -47 -27 -85t-74 -57q55 -18 86.5 -59z" />
    <glyph glyph-name="four.tf" 
d="M483 286h86v-112h-86v-174h-135v174h-319v119l273 375h181v-382zM348 286v261q-3 -5 -6.5 -10t-6.5 -10q-8 -15 -12 -19l-136 -186q-4 -6 -10.5 -15t-16.5 -21h188z" />
    <glyph glyph-name="five.tf" 
d="M454 415.5q49 -28.5 76 -80t27 -116.5q0 -67 -32.5 -119.5t-91 -82t-132.5 -29.5q-116 0 -182 54t-73 154h142q7 -45 36 -69.5t76 -24.5q51 0 82 32t31 85q0 54 -31 86.5t-81 32.5q-33 0 -60 -15t-40 -41h-135l4 386h449v-114h-322l-2 -167q54 57 146 57q64 0 113 -28.5z
" />
    <glyph glyph-name="six.tf" 
d="M455.5 406q49.5 -28 78 -77.5t28.5 -111.5q0 -65 -32.5 -117.5t-89 -82t-125.5 -29.5q-131 0 -203 90t-72 256t73 256t203 90q98 0 161.5 -51t72.5 -142h-142q-7 39 -31.5 59t-63.5 20q-60 0 -95 -54t-38 -160q25 40 67 61t99 21q60 0 109.5 -28zM387 133.5
q31 31.5 31 80.5t-31 80.5t-80 31.5t-80 -31t-31 -81t31 -81t80 -31t80 31.5z" />
    <glyph glyph-name="seven.tf" 
d="M42 668h511v-122q-227 -182 -254 -546h-159q35 357 276 550h-374v118z" />
    <glyph glyph-name="eight.tf" 
d="M524.5 287q33.5 -43 33.5 -101t-33 -103t-91.5 -70t-133.5 -25q-74 0 -133 25t-92 70t-33 103t33.5 101t97.5 63q-53 17 -83.5 56t-30.5 93t30 95t85 63.5t126 22.5t126 -22.5t85 -63.5t30 -95t-30.5 -93t-83.5 -56q64 -20 97.5 -63zM224.5 544.5
q-28.5 -23.5 -28.5 -61.5t28.5 -61.5t75.5 -23.5t75.5 23.5t28.5 61.5t-28.5 61.5t-75.5 23.5t-75.5 -23.5zM382.5 127q31.5 27 31.5 70t-31.5 70t-82.5 27t-82.5 -27t-31.5 -70t31.5 -70t82.5 -27t82.5 27z" />
    <glyph glyph-name="nine.tf" 
d="M488 590q72 -90 72 -256t-73 -256t-203 -90q-98 0 -161.5 51t-72.5 142h142q7 -39 31.5 -59t63.5 -20q60 0 95 54t38 160q-25 -40 -67 -61t-99 -21q-60 0 -109.5 28t-78 77.5t-28.5 111.5q0 65 32.5 117.5t89 82t125.5 29.5q131 0 203 -90zM373 373q31 31 31 81t-31 81
t-80 31t-80 -31.5t-31 -80.5t31 -80.5t80 -31.5t80 31z" />
    <glyph glyph-name="zero.tf.case" 
d="M104 82q-68 94 -68 268t68 268t196 94q127 0 195 -94t68 -268t-68 -268t-195 -94q-128 0 -196 94zM416 350q0 243 -116 243q-117 0 -117 -243t117 -243q116 0 116 243z" />
    <glyph glyph-name="one.tf.case" 
d="M383 700v-583h194v-117h-530v117h194v423l-102 -128l-78 66l180 222h142z" />
    <glyph glyph-name="two.tf.case" 
d="M552 117v-117h-518q5 86 48 155t134 133l82 58q103 73 103 151q0 44 -28 71t-74 27q-48 0 -78.5 -29t-33.5 -81h-145q4 104 72 165.5t185 61.5q73 0 129.5 -27t88 -76t31.5 -113q0 -67 -41 -126t-132 -126l-80 -59q-53 -40 -75 -68h332z" />
    <glyph glyph-name="three.tf.case" 
d="M532 305q33 -43 33 -102q0 -63 -33.5 -112t-93 -76t-135.5 -27q-126 0 -198.5 59.5t-76.5 167.5h146q5 -53 38.5 -81.5t88.5 -28.5q52 0 84.5 27.5t32.5 74.5q0 45 -32 71t-88 26h-60v117h55q51 0 80.5 23.5t29.5 62.5t-30 63.5t-76 24.5q-49 0 -79.5 -26.5t-35.5 -70.5
h-146q8 100 78.5 157t182.5 57q73 0 129.5 -25t88.5 -69.5t32 -101.5q0 -50 -28.5 -90t-77.5 -59q58 -19 91 -62z" />
    <glyph glyph-name="four.tf.case" 
d="M488 298h89v-114h-89v-184h-138v184h-328v122l281 394h185v-402zM350 298v278l-13 -22q-5 -9 -13 -21l-140 -195l-15 -21l-13 -19h194z" />
    <glyph glyph-name="five.tf.case" 
d="M459.5 435q51.5 -30 80 -83.5t28.5 -122.5q0 -70 -34 -124.5t-95 -85.5t-138 -31q-122 0 -190.5 57.5t-75.5 159.5h145q7 -48 39 -74t81 -26q54 0 87.5 34.5t33.5 89.5q0 58 -33 93t-87 35q-36 0 -65 -16.5t-42 -44.5h-138l4 404h468v-117h-338l-2 -178q55 60 154 60
q66 0 117.5 -30z" />
    <glyph glyph-name="six.tf.case" 
d="M462 425.5q52 -29.5 82 -81.5t30 -117q0 -67 -34 -122t-93 -86t-131 -31q-136 0 -211.5 94.5t-75.5 267.5t76.5 267.5t211.5 94.5q100 0 167.5 -52.5t76.5 -148.5h-145q-7 41 -33 62.5t-69 21.5q-64 0 -101.5 -57.5t-40.5 -170.5q27 42 71 65t104 23q63 0 115 -29.5z
M393.5 138.5q33.5 33.5 33.5 85.5q0 53 -33.5 86.5t-85.5 33.5q-53 0 -86 -33.5t-33 -86.5q0 -52 33 -85.5t86 -33.5q52 0 85.5 33.5z" />
    <glyph glyph-name="seven.tf.case" 
d="M29 700h534v-125q-238 -193 -268 -575h-162q38 374 289 579h-393v121z" />
    <glyph glyph-name="eight.tf.case" 
d="M533 300.5q36 -44.5 36 -105.5q0 -60 -34.5 -107t-96 -73.5t-139.5 -26.5q-77 0 -138 26.5t-96 73.5t-35 107q0 61 35 106t103 66q-56 18 -88 59.5t-32 96.5q0 56 31.5 99t88.5 66.5t131 23.5t131.5 -23.5t89 -66.5t31.5 -99t-32.5 -97.5t-88.5 -59.5q67 -21 103 -65.5z
M219 572q-31 -25 -31 -65q0 -41 31 -66t80 -25q50 0 81 25t31 66q0 40 -31 65t-81 25q-49 0 -80 -25zM388 131.5q34 28.5 34 74.5t-34 74.5t-89 28.5q-54 0 -88 -28.5t-34 -74.5t34 -74.5t88 -28.5q55 0 89 28.5z" />
    <glyph glyph-name="nine.tf.case" 
d="M495.5 617.5q75.5 -94.5 75.5 -267.5t-76.5 -267.5t-211.5 -94.5q-100 0 -167.5 52.5t-76.5 148.5h145q7 -41 33 -62.5t69 -21.5q64 0 101.5 57.5t40.5 170.5q-27 -42 -71 -65t-104 -23q-63 0 -115 29.5t-82 81.5t-30 117q0 67 34 122t93 86t131 31q136 0 211.5 -94.5z
M378 389.5q33 33.5 33 86.5q0 52 -33 85.5t-86 33.5q-52 0 -85.5 -33.5t-33.5 -85.5q0 -53 33.5 -86.5t85.5 -33.5q53 0 86 33.5z" />
    <glyph glyph-name="zero.tf.zero" 
d="M494 590.5q67 -89.5 67 -256.5t-67 -256.5t-194 -89.5t-194 89.5t-67 256.5t67 256.5t194 89.5t194 -89.5zM212 507.5q-29 -56.5 -29 -173.5q0 -34 3 -64l199 243q-30 51 -85 51q-59 0 -88 -56.5zM388 161q29 57 29 173q0 35 -3 65l-199 -244q30 -51 85 -51q59 0 88 57z
" />
    <glyph glyph-name="zero.tf.zero.case" 
d="M495 618q68 -94 68 -268t-68 -268t-195 -94q-128 0 -196 94t-68 268t68 268t196 94q127 0 195 -94zM183 350q0 -36 3 -68l202 248q-28 63 -88 63q-117 0 -117 -243zM416 350q0 38 -3 69l-203 -248q30 -64 90 -64q116 0 116 243z" />
    <glyph glyph-name="zero.tosf" 
d="M158 24q-60 36 -92 103.5t-32 159.5q0 91 32 158.5t92 103.5t141 36q82 0 142 -36t92.5 -103.5t32.5 -158.5q0 -92 -32.5 -159.5t-92.5 -103.5t-142 -36q-81 0 -141 36zM389.5 151.5q32.5 47.5 32.5 135.5t-32.5 135t-90.5 47t-89.5 -47t-31.5 -135t31.5 -135.5
t89.5 -47.5t90.5 47.5z" />
    <glyph glyph-name="one.tosf" 
d="M381 572v-458h184v-114h-507v114h184v301l-95 -119l-76 65l171 211h139z" />
    <glyph glyph-name="two.tosf" 
d="M527 114v-114h-468q3 80 42.5 140t124.5 113l82 51q38 24 55 47.5t17 51.5q0 31 -22.5 50.5t-58.5 19.5q-39 0 -64 -23.5t-27 -61.5h-141q5 90 67.5 143t164.5 53q103 0 163 -48t60 -130q0 -55 -31.5 -101.5t-104.5 -91.5l-77 -48q-50 -31 -66 -51h284z" />
    <glyph glyph-name="three.tosf" 
d="M521.5 195q31.5 -41 31.5 -97q0 -61 -32 -108t-89 -72.5t-130 -25.5q-122 0 -191 57t-73 161h143q4 -50 35.5 -77t83.5 -27q49 0 79 26t30 70q0 42 -30 66.5t-82 24.5h-58v114h53q48 0 75.5 21.5t27.5 58.5t-27.5 60t-71.5 23q-46 0 -74.5 -24.5t-33.5 -66.5h-142
q7 96 74 150.5t176 54.5q70 0 124.5 -23.5t85 -66.5t30.5 -98q0 -47 -27 -85t-74 -57q55 -18 86.5 -59z" />
    <glyph glyph-name="four.tosf" 
d="M483 190h86v-112h-86v-174h-135v174h-319v119l273 375h181v-382zM348 190v261q-3 -5 -6.5 -10t-6.5 -10q-8 -15 -12 -19l-136 -186q-4 -6 -10.5 -15t-16.5 -21h188z" />
    <glyph glyph-name="five.tosf" 
d="M455 319.5q49 -28.5 76 -80t27 -116.5q0 -67 -32.5 -119.5t-91 -82t-132.5 -29.5q-116 0 -182 54t-73 154h142q7 -45 36 -69.5t76 -24.5q51 0 82 32t31 85q0 54 -31 86.5t-81 32.5q-33 0 -60 -15t-40 -41h-135l4 386h449v-114h-322l-2 -167q54 57 146 57q64 0 113 -28.5z
" />
    <glyph glyph-name="six.tosf" 
d="M455.5 406q49.5 -28 78 -77.5t28.5 -111.5q0 -65 -32.5 -117.5t-89 -82t-125.5 -29.5q-131 0 -203 90t-72 256t73 256t203 90q98 0 161.5 -51t72.5 -142h-142q-7 39 -31.5 59t-63.5 20q-60 0 -95 -54t-38 -160q25 40 67 61t99 21q60 0 109.5 -28zM387 133.5
q31 31.5 31 80.5t-31 80.5t-80 31.5t-80 -31t-31 -81t31 -81t80 -31t80 31.5z" />
    <glyph glyph-name="seven.tosf" 
d="M42 572h511v-122q-227 -182 -254 -546h-159q35 357 276 550h-374v118z" />
    <glyph glyph-name="eight.tosf" 
d="M524.5 287q33.5 -43 33.5 -101t-33 -103t-91.5 -70t-133.5 -25q-74 0 -133 25t-92 70t-33 103t33.5 101t97.5 63q-53 17 -83.5 56t-30.5 93t30 95t85 63.5t126 22.5t126 -22.5t85 -63.5t30 -95t-30.5 -93t-83.5 -56q64 -20 97.5 -63zM224.5 544.5
q-28.5 -23.5 -28.5 -61.5t28.5 -61.5t75.5 -23.5t75.5 23.5t28.5 61.5t-28.5 61.5t-75.5 23.5t-75.5 -23.5zM382.5 127q31.5 27 31.5 70t-31.5 70t-82.5 27t-82.5 -27t-31.5 -70t31.5 -70t82.5 -27t82.5 27z" />
    <glyph glyph-name="nine.tosf" 
d="M491 495q73 -90 73 -256q0 -167 -74 -256.5t-207 -89.5q-99 0 -163 51t-74 142h142q7 -40 32.5 -59.5t65.5 -19.5q63 0 99 54t39 161q-55 -83 -170 -83q-62 0 -112 28t-79 77.5t-29 111.5q0 65 33 117.5t90.5 82t127.5 29.5q133 0 206 -90zM376 278q32 31 32 81t-32 81
t-83 31t-83 -31t-32 -81t32 -81t83 -31t83 31z" />
    <glyph glyph-name="zero.tosf.zero" 
d="M441 549q60 -36 92.5 -103.5t32.5 -158.5q0 -92 -32.5 -159.5t-92.5 -103.5t-142 -36q-81 0 -141 36t-92 103.5t-32 159.5q0 91 32 158.5t92 103.5t141 36q82 0 142 -36zM209.5 422q-31.5 -47 -31.5 -135q0 -37 6 -66l194 215q-30 33 -79 33q-58 0 -89.5 -47z
M389.5 151.5q32.5 47.5 32.5 135.5q0 36 -6 66l-195 -216q30 -33 78 -33q58 0 90.5 47.5z" />
    <glyph glyph-name="zero.dnom" horiz-adv-x="395" 
d="M65.5 47.5q-44.5 54.5 -44.5 152.5t44.5 153t125.5 55q80 0 124.5 -54.5t44.5 -153.5q0 -98 -44.5 -152.5t-124.5 -54.5q-81 0 -125.5 54.5zM241.5 106.5q17.5 32.5 17.5 93.5q0 62 -17.5 94.5t-50.5 32.5q-34 0 -51.5 -32.5t-17.5 -94.5t17.5 -94t51.5 -32
q33 0 50.5 32.5z" />
    <glyph glyph-name="one.dnom" horiz-adv-x="235" 
d="M-10 289l91 112h96v-401h-98v296l-39 -49z" />
    <glyph glyph-name="two.dnom" horiz-adv-x="361" 
d="M324 78v-78h-309q2 55 27.5 96t77.5 77l47 33q54 38 54 76q0 21 -14 34.5t-35 13.5q-24 0 -38 -15.5t-15 -39.5h-100q2 62 43 97.5t110 35.5q68 0 108.5 -34t40.5 -91q0 -40 -24 -75t-75 -70l-46 -32q-19 -14 -32 -28h180z" />
    <glyph glyph-name="three.dnom" horiz-adv-x="372" 
d="M315.5 174.5q18.5 -24.5 18.5 -57.5q0 -55 -43.5 -89.5t-112.5 -34.5q-76 0 -119.5 35t-45.5 99h102q2 -27 18.5 -41t43.5 -14q25 0 40.5 13.5t15.5 35.5t-15.5 34.5t-43.5 12.5h-35v77h33q24 0 38.5 11.5t14.5 30.5t-14.5 31t-36.5 12q-25 0 -39.5 -14t-16.5 -35h-100
q4 59 46 93t110 34q67 0 108.5 -31.5t41.5 -82.5q0 -28 -16 -50.5t-43 -33.5q32 -11 50.5 -35.5z" />
    <glyph glyph-name="four.dnom" horiz-adv-x="392" 
d="M306 176h53v-76h-53v-100h-94v100h-196v81l159 220h131v-225zM212 176v147q-8 -14 -17 -26l-71 -98q-8 -12 -19 -23h107z" />
    <glyph glyph-name="five.dnom" horiz-adv-x="372" 
d="M295.5 229q35.5 -37 35.5 -94q0 -63 -44.5 -102.5t-114.5 -39.5q-73 0 -114 33t-45 95h101q3 -24 18.5 -36.5t39.5 -12.5q26 0 42 16.5t16 44.5t-16 45t-42 17q-18 0 -32 -8.5t-20 -21.5h-95l3 236h281v-78h-192l-2 -91q33 34 89 34t91.5 -37z" />
    <glyph glyph-name="six.dnom" horiz-adv-x="385" 
d="M310.5 223q37.5 -37 37.5 -93q0 -60 -45 -98.5t-112 -38.5q-82 0 -127.5 54.5t-45.5 152.5q0 99 45.5 153.5t126.5 54.5q66 0 106 -32.5t45 -87.5h-101q-7 42 -51 42q-34 0 -53.5 -29.5t-20.5 -87.5q33 47 100 47q58 0 95.5 -37zM230 87.5q17 16.5 17 41.5q0 26 -17 42.5
t-43 16.5q-27 0 -44 -16.5t-17 -42.5q0 -25 17.5 -41.5t43.5 -16.5t43 16.5z" />
    <glyph glyph-name="seven.dnom" horiz-adv-x="328" 
d="M1 401h298v-86q-66 -51 -98.5 -128.5t-37.5 -186.5h-113q13 210 154 319h-203v82z" />
    <glyph glyph-name="eight.dnom" horiz-adv-x="380" 
d="M321.5 173q20.5 -26 20.5 -60q0 -54 -44.5 -87t-117.5 -33t-118 33t-45 87q0 35 20.5 60.5t59.5 37.5q-33 10 -51.5 33t-18.5 54q0 50 41.5 80t111.5 30q69 0 111 -30t42 -80q0 -31 -18.5 -54t-51.5 -33q38 -12 58.5 -38zM139.5 319q-15.5 -12 -15.5 -32t15.5 -32.5
t40.5 -12.5t40.5 12.5t15.5 32.5t-15.5 32t-40.5 12t-40.5 -12zM225 84q17 14 17 36q0 23 -17.5 37t-44.5 14q-28 0 -45 -14t-17 -37q0 -22 17 -36t45 -14t45 14z" />
    <glyph glyph-name="nine.dnom" horiz-adv-x="385" 
d="M303 353.5q46 -54.5 46 -153.5q0 -98 -45.5 -152.5t-126.5 -54.5q-65 0 -105.5 31.5t-45.5 87.5h100q8 -41 52 -41q33 0 52.5 29.5t20.5 86.5q-34 -47 -99 -47q-58 0 -95.5 37t-37.5 94q0 60 45 98.5t112 38.5q81 0 127 -54.5zM223 229.5q17 16.5 17 41.5q0 26 -17 42.5
t-43 16.5t-43 -16.5t-17 -42.5q0 -25 17 -41.5t43 -16.5t43 16.5z" />
    <glyph glyph-name="zero.numr" horiz-adv-x="395" 
d="M72.5 314.5q-44.5 54.5 -44.5 152.5t44.5 153t125.5 55q80 0 124.5 -54.5t44.5 -153.5q0 -98 -44.5 -152.5t-124.5 -54.5q-81 0 -125.5 54.5zM248.5 373.5q17.5 32.5 17.5 93.5q0 62 -17.5 94.5t-50.5 32.5q-34 0 -51.5 -32.5t-17.5 -94.5t17.5 -94t51.5 -32
q33 0 50.5 32.5z" />
    <glyph glyph-name="one.numr" horiz-adv-x="235" 
d="M0 556l91 112h96v-401h-98v296l-39 -49z" />
    <glyph glyph-name="two.numr" horiz-adv-x="360" 
d="M330 345v-78h-309q2 55 27.5 96t77.5 77l47 33q54 38 54 76q0 21 -14 34.5t-35 13.5q-24 0 -38 -15.5t-15 -39.5h-100q2 62 43 97.5t110 35.5q68 0 108.5 -34t40.5 -91q0 -40 -24 -75t-75 -70l-46 -32q-19 -14 -32 -28h180z" />
    <glyph glyph-name="three.numr" horiz-adv-x="370" 
d="M324.5 441.5q18.5 -24.5 18.5 -57.5q0 -55 -43.5 -89.5t-112.5 -34.5q-76 0 -119.5 35t-45.5 99h102q2 -27 18.5 -41t43.5 -14q25 0 40.5 13.5t15.5 35.5t-15.5 34.5t-43.5 12.5h-35v77h33q24 0 38.5 11.5t14.5 30.5t-14.5 31t-36.5 12q-25 0 -39.5 -14t-16.5 -35h-100
q4 59 46 93t110 34q67 0 108.5 -31.5t41.5 -82.5q0 -28 -16 -50.5t-43 -33.5q32 -11 50.5 -35.5z" />
    <glyph glyph-name="four.numr" horiz-adv-x="391" 
d="M314 443h53v-76h-53v-100h-94v100h-196v81l159 220h131v-225zM220 443v147q-8 -14 -17 -26l-71 -98q-8 -12 -19 -23h107z" />
    <glyph glyph-name="five.numr" horiz-adv-x="372" 
d="M310.5 496q35.5 -37 35.5 -94q0 -63 -44.5 -102.5t-114.5 -39.5q-73 0 -114 33t-45 95h101q3 -24 18.5 -36.5t39.5 -12.5q26 0 42 16.5t16 44.5t-16 45t-42 17q-18 0 -32 -8.5t-20 -21.5h-95l3 236h281v-78h-192l-2 -91q33 34 89 34t91.5 -37z" />
    <glyph glyph-name="six.numr" horiz-adv-x="385" 
d="M320.5 490q37.5 -37 37.5 -93q0 -60 -45 -98.5t-112 -38.5q-82 0 -127.5 54.5t-45.5 152.5q0 99 45.5 153.5t126.5 54.5q66 0 106 -32.5t45 -87.5h-101q-7 42 -51 42q-34 0 -53.5 -29.5t-20.5 -87.5q33 47 100 47q58 0 95.5 -37zM240 354.5q17 16.5 17 41.5
q0 26 -17 42.5t-43 16.5q-27 0 -44 -16.5t-17 -42.5q0 -25 17.5 -41.5t43.5 -16.5t43 16.5z" />
    <glyph glyph-name="seven.numr" horiz-adv-x="328" 
d="M14 668h298v-86q-66 -51 -98.5 -128.5t-37.5 -186.5h-113q13 210 154 319h-203v82z" />
    <glyph glyph-name="eight.numr" horiz-adv-x="379" 
d="M331.5 440q20.5 -26 20.5 -60q0 -54 -44.5 -87t-117.5 -33t-118 33t-45 87q0 35 20.5 60.5t59.5 37.5q-33 10 -51.5 33t-18.5 54q0 50 41.5 80t111.5 30q69 0 111 -30t42 -80q0 -31 -18.5 -54t-51.5 -33q38 -12 58.5 -38zM149.5 586q-15.5 -12 -15.5 -32t15.5 -32.5
t40.5 -12.5t40.5 12.5t15.5 32.5t-15.5 32t-40.5 12t-40.5 -12zM235 351q17 14 17 36q0 23 -17.5 37t-44.5 14q-28 0 -45 -14t-17 -37q0 -22 17 -36t45 -14t45 14z" />
    <glyph glyph-name="nine.numr" horiz-adv-x="385" 
d="M311 620.5q46 -54.5 46 -153.5q0 -98 -45.5 -152.5t-126.5 -54.5q-65 0 -105.5 31.5t-45.5 87.5h100q8 -41 52 -41q33 0 52.5 29.5t20.5 86.5q-34 -47 -99 -47q-58 0 -95.5 37t-37.5 94q0 60 45 98.5t112 38.5q81 0 127 -54.5zM231 496.5q17 16.5 17 41.5q0 26 -17 42.5
t-43 16.5t-43 -16.5t-17 -42.5q0 -25 17 -41.5t43 -16.5t43 16.5z" />
    <glyph glyph-name="zero.numr.case" horiz-adv-x="395" 
d="M72.5 346.5q-44.5 54.5 -44.5 152.5t44.5 153t125.5 55q80 0 124.5 -54.5t44.5 -153.5q0 -98 -44.5 -152.5t-124.5 -54.5q-81 0 -125.5 54.5zM248.5 405.5q17.5 32.5 17.5 93.5q0 62 -17.5 94.5t-50.5 32.5q-34 0 -51.5 -32.5t-17.5 -94.5t17.5 -94t51.5 -32
q33 0 50.5 32.5z" />
    <glyph glyph-name="one.numr.case" horiz-adv-x="235" 
d="M0 588l91 112h96v-401h-98v296l-39 -49z" />
    </font>
</defs>
</svg>
