<?xml version="1.0" standalone="no"?>
<!DOCTYPE svg PUBLIC "-//W3C//DTD SVG 1.1//EN" "http://www.w3.org/Graphics/SVG/1.1/DTD/svg11.dtd" >
<svg xmlns="http://www.w3.org/2000/svg" xmlns:xlink="http://www.w3.org/1999/xlink" version="1.1">
<metadata>
Created by FontForge 20170731 at Thu Jul  6 22:05:39 2023
 By Aleksey,,,
</metadata>
<defs>
<font id="AHanormal-Regular" horiz-adv-x="600" >
  <font-face 
    font-family="AH anormal"
    font-weight="400"
    font-stretch="normal"
    units-per-em="1000"
    panose-1="0 0 0 0 0 0 0 0 0 0"
    ascent="800"
    descent="-200"
    x-height="500"
    cap-height="700"
    bbox="-22 -218 980 816"
    underline-thickness="50"
    underline-position="-175"
    unicode-range="U+0020-007A"
  />
<missing-glyph horiz-adv-x="500" 
d="M410 -200h-317v1000h317v-1000zM167 118v-113h166v113h-166zM300 38h-100v47h100v-47zM233 291v-56h34v23h33v-47h-100v80h-33v-113h166v113h-100zM300 413v-66h-133v-34h166v100h-33zM167 473v-33h66v-37h-66v-33h100v70h66v33h-166zM233 534h-33v36h33v-36zM167 604
v-104h166v34h-66v70h-100zM168 733v-33h65v-37h-66v-33h166v33h-66v37h66v33h-165zM167 -18v-33h70l-70 -47v-33h166v33h-102l70 47h32v33h-166z" />
    <glyph glyph-name=".notdef" horiz-adv-x="500" 
d="M410 -200h-317v1000h317v-1000zM167 118v-113h166v113h-166zM300 38h-100v47h100v-47zM233 291v-56h34v23h33v-47h-100v80h-33v-113h166v113h-100zM300 413v-66h-133v-34h166v100h-33zM167 473v-33h66v-37h-66v-33h100v70h66v33h-166zM233 534h-33v36h33v-36zM167 604
v-104h166v34h-66v70h-100zM168 733v-33h65v-37h-66v-33h166v33h-66v37h66v33h-165zM167 -18v-33h70l-70 -47v-33h166v33h-102l70 47h32v33h-166z" />
    <glyph glyph-name=".null" horiz-adv-x="0" 
 />
    <glyph glyph-name="nonmarkingreturn" horiz-adv-x="333" 
 />
    <glyph glyph-name="space" unicode=" " horiz-adv-x="230" 
 />
    <glyph glyph-name="space" unicode="&#xa0;" horiz-adv-x="230" 
 />
    <glyph glyph-name="comma" unicode="," 
 />
    <glyph glyph-name="hyphen" unicode="-" 
 />
    <glyph glyph-name="period" unicode="." 
 />
    <glyph glyph-name="zero" unicode="0" 
 />
    <glyph glyph-name="one" unicode="1" 
 />
    <glyph glyph-name="two" unicode="2" 
 />
    <glyph glyph-name="three" unicode="3" 
 />
    <glyph glyph-name="four" unicode="4" 
 />
    <glyph glyph-name="five" unicode="5" 
 />
    <glyph glyph-name="six" unicode="6" 
 />
    <glyph glyph-name="seven" unicode="7" 
 />
    <glyph glyph-name="eight" unicode="8" 
 />
    <glyph glyph-name="nine" unicode="9" 
 />
    <glyph glyph-name="A" unicode="A" horiz-adv-x="667" 
d="M281 700h122l228 -700h-122zM27 27h185v-27h-185v27zM349 700h40l-262 -700h-40zM449 27h219v-27h-219v27zM225 342h219v-32h-219v32z" />
    <glyph glyph-name="B" unicode="B" horiz-adv-x="674" 
d="M32 27h168v-27h-168v27zM87 700h113v-700h-113v700zM32 700h168v-27h-168v27zM374 700q76 0 126.5 -24.5t74.5 -63t24 -81.5q0 -42 -22.5 -81.5t-74 -65.5t-133.5 -26h-169v27h132q64 0 108 33t44 113q0 63 -37 102.5t-115 39.5h-132v27h174zM405 385q81 0 134.5 -27.5
t79 -70.5t25.5 -90q0 -46 -24 -91t-79 -75.5t-141 -30.5h-200v27q82 -1 160 0q67 0 114.5 41t47.5 129q0 69 -40 115t-122 46h-140v27h185z" />
    <glyph glyph-name="C" unicode="C" horiz-adv-x="707" 
d="M206 27q-76 43 -123 126.5t-47 196.5q0 97 48.5 177.5t128 130t167.5 57.5q60 5 114.5 -10t93 -37t56.5 -40l7 -159h-22q-12 87 -53.5 135.5t-94.5 63t-101 3.5q-57 -12 -107 -52.5t-78 -110.5t-19 -164q12 -122 68.5 -194t144.5 -95q76 -19 142 7.5t128 107.5l12 -18
q-38 -61 -87 -98.5t-103.5 -53.5t-113.5 -16q-85 0 -161 43z" />
    <glyph glyph-name="D" unicode="D" horiz-adv-x="685" 
d="M32 27h168v-27h-168v27zM87 700h113v-700h-113v700zM32 700h168v-28h-168v28zM336 700q106 0 178 -50.5t106.5 -128t34.5 -159.5q0 -80 -33 -164t-102 -141t-169 -57h-151v27q57 -1 110 0q59 0 110 41t82 117t31 177q0 90 -27.5 160.5t-80 110.5t-124.5 40h-101v27h136z
" />
    <glyph glyph-name="E" unicode="E" horiz-adv-x="641" 
d="M32 27h245v-27h-245v27zM87 700h113v-700h-113v700zM32 700h214v-27h-214v27zM100 383h259v-27h-259v27zM246 700h282l40 -149h-16q-14 27 -55 53t-82 41q-42 16 -80 22t-89 6v27zM293 27q59 0 95.5 5t72.5 25q67 38 134 166h16q-15 -58 -52 -223h-282v27h16zM404 423
q15 18 31 54.5t16 62.5h16v-340h-16q-8 29 -22 61t-28 50t-40 31.5t-60 13.5l1 27q68 0 102 40z" />
    <glyph glyph-name="F" unicode="F" horiz-adv-x="598" 
d="M32 27h223v-27h-223v27zM87 700h113v-700h-113v700zM32 700h214v-27h-214v27zM100 383h259v-27h-259v27zM246 700h282l40 -149h-16q-14 27 -55 53t-82 41q-42 16 -80 22t-89 6v27zM404 423q15 18 31 54.5t16 62.5h16v-340h-16q-8 29 -22 61t-28 50t-40 31.5t-60 13.5
l1 27q68 0 102 40z" />
    <glyph glyph-name="G" unicode="G" horiz-adv-x="774" 
d="M206 29q-76 43 -123 125.5t-47 195.5q0 97 46 178t122.5 130t164.5 57q60 5 114.5 -10t93 -37t56.5 -40l7 -159h-22q-12 87 -53.5 135.5t-94.5 63t-101 3.5q-53 -12 -97 -56t-70 -114.5t-26 -156.5q0 -61 22.5 -133t67 -125.5t106.5 -62.5q43 -6 76 3t58 34
q156 34 193 62l5 -15q-36 -36 -89.5 -64.5t-117.5 -44t-130 -14.5q-85 2 -161 45zM534 118.5q5 31.5 4 73.5q-1 4 -1 12q-1 26 -18.5 40.5t-43.5 19.5t-58 5v25h321v-25q-47 0 -70 -14.5t-23 -52.5v-131l-139 -11q23 27 28 58.5z" />
    <glyph glyph-name="H" unicode="H" horiz-adv-x="709" 
d="M38 27h223v-27h-223v27zM93 700h113v-700h-113v700zM141 383h430v-27h-430v27zM38 700h223v-27h-223v27zM451 27h223v-27h-223v27zM506 700h113v-700h-113v700zM451 700h223v-27h-223v27z" />
    <glyph glyph-name="I" unicode="I" horiz-adv-x="295" 
d="M36 27h223v-27h-223v27zM91 700h113v-700h-113v700zM36 700h223v-27h-223v27z" />
    <glyph glyph-name="J" unicode="J" horiz-adv-x="472" 
d="M268 700h113v-551h-113v551zM57 68q-21 21 -21 50q0 31 21 51.5t50 20.5q30 0 51 -21t21 -51q0 -29 -21 -50t-51 -21q-29 0 -50 21zM115.5 1.5q-34.5 17.5 -53.5 44.5t-24 55q-2 12 -2 18h86q0 -39 5 -59.5t22 -32t54 -11.5q36 0 50.5 31.5t14.5 101.5h113v-10
q-2 -47 -27 -82t-65 -54t-89 -19q-50 0 -84.5 17.5zM213 700h223v-27h-223v27z" />
    <glyph glyph-name="K" unicode="K" horiz-adv-x="757" 
d="M240 378l77 66l360 -444h-134zM36 27h223v-27h-223v27zM91 700h113v-700h-113v700zM448 27h273v-27h-273v27zM148 318l383 354h48l-380 -360zM36 700h223v-27h-223v27zM426 699h253v-27h-253v27z" />
    <glyph glyph-name="L" unicode="L" horiz-adv-x="641" 
d="M32 27h235v-27h-235v27zM87 700h113v-700h-113v700zM32 700h223v-27h-223v27zM283 27q59 0 95.5 5t72.5 25q67 38 134 166h16q-15 -58 -52 -223h-282v27h16z" />
    <glyph glyph-name="M" unicode="M" horiz-adv-x="941" 
d="M40 27h145v-27h-145v27zM155 700h33l-60 -700h-33zM92 700h73v-27h-73v27zM678 0v27h223v-27h-223zM451 71l214 629h33l-243 -707h-54l-246 707h109l214 -597zM764 673v27h71v-27h-71zM665 700h113l70 -700h-113z" />
    <glyph glyph-name="N" unicode="N" horiz-adv-x="752" 
d="M32 27h179v-27h-179v27zM105 675h33v-675h-33v675zM76 700h126l412 -526v-181zM32 700h91v-27h-91v27zM720 673h-179v27h179v-27zM647 -7h-33v707h33v-707z" />
    <glyph glyph-name="O" unicode="O" horiz-adv-x="745" 
d="M542 34q77 50 122 134t45 182q0 99 -45 183.5t-122 133.5t-169 49t-169.5 -49.5t-122.5 -133.5t-45 -183q0 -98 45 -182t122.5 -134t169.5 -50t169 50zM296.5 64.5q-56.5 40.5 -95 111t-49.5 156.5q-12 87 8 166.5t66 128.5t107 49t117 -40t95 -110.5t50 -157.5
q10 -87 -10.5 -166.5t-65.5 -128.5t-105 -49q-61 0 -117.5 40.5z" />
    <glyph glyph-name="P" unicode="P" 
d="M32 27h223v-27h-223v27zM87 716h113v-716h-113v716zM30 716h170v-27h-170v27zM374 716q76 0 126.5 -27.5t74.5 -69.5t24 -86q0 -43 -22.5 -86.5t-74.5 -73.5t-133 -30h-169v27h132q63 0 107.5 40.5t44.5 122.5q0 65 -37.5 110.5t-114.5 45.5h-132v27h174z" />
    <glyph glyph-name="Q" unicode="Q" horiz-adv-x="745" 
d="M542 34q77 50 122 134t45 182q0 99 -45 183.5t-122 133.5t-169 49t-169.5 -49.5t-122.5 -133.5t-45 -183q0 -98 45 -182t122.5 -134t169.5 -50t169 50zM300 64.5q-54 40.5 -91 111t-47 156.5q-12 87 7.5 166.5t63.5 128.5t102 49t111.5 -40t90.5 -110.5t48 -157.5
q10 -87 -9.5 -166.5t-63 -128.5t-100.5 -49q-58 0 -112 40.5zM654 -106q-2 5 -3 7q-116 -22 -169.5 14t-69.5 98h-142q1 -2 2 -3.5t2 -3.5q36 -74 121.5 -129.5t263.5 5.5q-3 7 -5 12z" />
    <glyph glyph-name="R" unicode="R" horiz-adv-x="656" 
d="M32 27h223v-27h-223v27zM87 716h113v-716h-113v716zM30 716h170v-27h-170v27zM341 716q76 0 126.5 -27t74.5 -68t24 -85q0 -43 -22.5 -85.5t-74 -71t-133.5 -28.5h-169v27h132q39 0 74 17.5t56.5 53t21.5 87.5q0 65 -37.5 109t-114.5 44h-132v27h174zM307.5 352h25.5h16
q56 0 90 -8.5t50.5 -23t23.5 -36.5q7 -16 8 -37t1 -61q-1 -51 4.5 -77t27.5 -26q20 0 33.5 29t13.5 85h22q0 -37 -3 -67q-4 -49 -16.5 -79.5t-35.5 -48.5q-26 -17 -53.5 -16.5t-51 18t-37.5 48.5q-10 30 -13 58.5t-3 64.5q-2 54 -8 77q-12 45 -26 65.5t-35 27t-61 6.5
q14 1 27.5 1z" />
    <glyph glyph-name="S" unicode="S" 
d="M183.5 -4q-54.5 12 -87 31.5t-32.5 41.5v123h27q0 -75 47 -125.5t138 -50.5q57 0 109.5 33.5t74.5 85.5t-4 104q-15 29 -57 51t-99 36q-5 2 -15 4l-10 2q-63 15 -107.5 32.5t-75.5 50.5t-37 85q-7 62 28.5 111t95.5 76t124 29q23 1 47 -2t47 -9q51 -12 83.5 -32.5
t53.5 -41.5l7 -159h-22q-16 111 -64 160t-139 49q-46 0 -84 -22t-55.5 -56.5t-5.5 -70.5q10 -30 31.5 -48.5t47.5 -28t71 -21.5q27 -6 53 -15l32 -11q52 -19 89 -40.5t62 -57t27 -88.5q3 -76 -38 -130t-108 -81t-139 -27q-61 0 -115.5 12zM64 233h27v-233h-27v233z" />
    <glyph glyph-name="T" unicode="T" horiz-adv-x="783" 
d="M448 0v700h-113v-700h113zM503 0v27h-223v-27h223zM138 622q60 51 147 51v27h-192l-52 -200h16q30 79 81 122zM499 673v27h-214v-27h214zM646 622q-60 51 -147 51v27h192l52 -200h-16q-30 79 -81 122z" />
    <glyph glyph-name="U" unicode="U" horiz-adv-x="705" 
d="M65 273q3 -108 55.5 -172.5t121.5 -90.5t128 -26q67 0 124 29.5t92.5 94.5t35.5 165v413h-33v-413q0 -96 -34.5 -153t-82 -79.5t-92.5 -22.5q-48 0 -93.5 22t-77 79t-31.5 154v427h-113v-121v-306zM516 700v-27h179v27h-179zM10 700v-27h225v27h-225z" />
    <glyph glyph-name="V" unicode="V" horiz-adv-x="690" 
d="M50 701h125l228 -657h-25l194 656h37l-208 -700h-101zM6 701h243v-27h-243v27zM491 700h179v-27h-179v27z" />
    <glyph glyph-name="W" unicode="W" horiz-adv-x="990" 
d="M62 700h124l193 -656h-21l164 655h37l-178 -699h-109zM18 700h231v-27h-231v27zM431 700h125l173 -656h-21l174 656h37l-188 -700h-110zM382 700h232v-27h-232v27zM801 700h179v-27h-179v27z" />
    <glyph glyph-name="X" unicode="X" horiz-adv-x="651" 
d="M67 700h125l399 -700h-115zM10 27h209v-27h-209v27zM310 373h37l-225 -373h-36zM407 27h233v-27h-233v27zM18 700h233v-27h-233v27zM540 700h34l-218 -346h-37zM441 700h209v-27h-209v27z" />
    <glyph glyph-name="Y" unicode="Y" horiz-adv-x="642" 
d="M49 700h125l202 -379h-113zM10 700h223v-27h-223v27zM522 700h34l-180 -379h-36zM423 700h209v-27h-209v27zM376 0h-113v326h113v-326zM431 0h-223v27h223v-27z" />
    <glyph glyph-name="Z" unicode="Z" horiz-adv-x="634" 
d="M492 700h138l-459 -700h-138zM186 27h390v-27h-405zM95 700h27v-117h-27v117zM549 117h27v-117h-27v117zM122 700h370l-15 -27h-355v27z" />
    <glyph glyph-name="a" unicode="a" horiz-adv-x="542" 
d="M344 75v265q0 40 -4.5 69.5t-23.5 52.5t-59 23q-43 0 -74 -15t-47.5 -39t-16.5 -50l-72 1v5q2 27 21.5 56.5t66 51t122.5 21.5q73 0 118 -26.5t63.5 -66t18.5 -83.5v-340h-83zM74.5 17q-44.5 33 -44.5 105q0 42 21.5 68t52.5 39t83 27l28 8q38 10 83 21q50 12 83 25v-33
q-44 -14 -89 -29l-48 -16q-54 -19 -77.5 -41.5t-23.5 -68.5q0 -29 15 -51t39 -31.5t51 -3.5q8 2 12 4q19 7 33.5 17t55.5 41q18 14 35 28v-43l-25 -19q-59 -45 -94 -62.5t-84 -17.5q-62 0 -106.5 33zM374 27h138v-27h-138v27zM68 332q-21 21 -21 51q0 29 21 50t51 21
q29 0 50 -21t21 -50q0 -30 -20.5 -51t-50.5 -21t-51 21z" />
    <glyph glyph-name="b" unicode="b" horiz-adv-x="635" 
d="M217.5 27q-59.5 43 -95 106t-35.5 117q0 71 37.5 132.5t97 97t122.5 35.5q70 0 128.5 -36t92.5 -97t34 -132q0 -74 -31 -134.5t-88.5 -96t-135.5 -35.5q-67 0 -126.5 43zM32 27h168v-27h-168v27zM87 816h113v-816h-113v816zM421 46q31 30 47.5 82.5t16.5 118.5
q0 89 -16.5 141t-46.5 74t-72 22q-58 0 -91 -29t-46 -79.5t-13 -122.5q0 -70 13 -122.5t46 -83.5t89 -31q42 0 73 30zM30 816h170v-27h-170v27z" />
    <glyph glyph-name="c" unicode="c" horiz-adv-x="528" 
d="M160 15.5q-55 31.5 -89.5 92t-34.5 142.5q0 71 36 132t94 97.5t120 36.5q43 0 81 -11.5t67.5 -34t49.5 -54.5l-89 -26q0 43 -31 68.5t-78 25.5q-44 0 -81.5 -28.5t-58 -82t-13.5 -123.5q6 -60 28 -104t56 -71.5t76 -38.5q52 -13 94 9.5t91 84.5l13 -20q-47 -67 -99 -96.5
t-115 -29.5q-62 0 -117 31.5zM381 338q-19 19 -19 46t19 46t46 19t46 -19t19 -46q0 -28 -19 -47t-46 -18q-27 0 -46 19z" />
    <glyph glyph-name="d" unicode="d" horiz-adv-x="595" 
d="M127.5 19.5q-57.5 35.5 -88.5 96t-31 134.5q0 71 34 132t92.5 97t128.5 36q61 0 103 -34.5t62.5 -94.5t20.5 -136q0 -69 -12 -126.5t-53.5 -98.5t-120.5 -41q-78 0 -135.5 35.5zM437 27h138v-27h-138v27zM348 47q33 31 46 83.5t13 122.5q0 72 -13 122.5t-46 79.5t-91 29
q-42 0 -72 -22t-46.5 -74t-16.5 -141q0 -66 16.5 -118.5t47.5 -82.5t73 -30q56 0 89 31zM407 105v711h113v-816h-83zM350 816h170v-27h-170v27z" />
    <glyph glyph-name="e" unicode="e" horiz-adv-x="528" 
d="M389 12.5q48 28.5 85 95.5l-13 20q-34 -64 -77.5 -90.5t-106.5 -21.5q-41 3 -73 31.5t-50 80t-18 122.5q0 104 33 169t98 65q61 0 86.5 -55.5t25.5 -134.5h113q0 49 -25 100.5t-76 86.5t-124 35q-69 0 -125 -36t-88 -97t-32 -133q0 -83 35 -143t93.5 -91.5t127.5 -31.5
q63 0 111 28.5zM492 267v27h-373v-27h373z" />
    <glyph glyph-name="f" unicode="f" horiz-adv-x="552" 
d="M111 661q3 47 28.5 82t70 54t102.5 19q54 0 93 -17.5t61 -44.5t28 -55q2 -12 2 -18h-86q0 48 -27 76t-64 27q-40 0 -67.5 -34.5t-27.5 -98.5h-113v10zM56 27h223v-27h-223v27zM111 651h113v-651h-113v651zM374 631q-21 21 -21 51q0 29 21 50t51 21q29 0 50 -21t21 -50
q0 -30 -20.5 -51t-50.5 -21t-51 21zM60 516h273v-27h-273v27z" />
    <glyph glyph-name="g" unicode="g" horiz-adv-x="499" 
d="M127.5 -194q-47.5 15 -73.5 46.5t-26 80.5q0 52 43 74t95 24q21 2 27 0l69 -10q-42 0 -93 -17t-54 -73q-2 -48 27 -76t79 -34q20 -2 32 -2h15q69 4 105 35.5t36 82.5q0 36 -24 58.5t-89 25.5h-13q-38 0 -70 3q-74 7 -117 28t-55.5 48.5t-1.5 55.5q8 19 25 34t39 24
q23 9 50 9l45 -16q-24 0 -49 -5q-23 -5 -38 -14t-17 -19q-4 -19 42 -32.5t147 -13.5q64 0 107 -23t63 -61.5t19 -84.5q-1 -54 -32.5 -90.5t-83.5 -54.5t-115 -18q-66 0 -113.5 15zM166 183q-45 24 -72 65t-27 89t27 89t72 65t96 24t95.5 -24t71 -65t26.5 -89t-26.5 -89
t-71 -65t-95.5 -24t-96 24zM338.5 218q17.5 22 23 57t-0.5 78q-6 45 -21.5 77t-40.5 48t-57 13q-30 -3 -50 -25.5t-27.5 -59t-1.5 -79.5q5 -43 24 -76t47 -49t59 -11q28 5 45.5 27zM375 452q16 -2 26.5 0t25.5 14q15 11 18.5 26t3.5 38v3h48q0 -29 -12 -55t-36 -45
q-13 -10 -30 -16.5t-33.5 -9t-29.5 -2.5v48zM392 491q-18 17 -18 42q0 24 18 41t44 17q25 0 43 -17t18 -41q0 -25 -17.5 -42t-43.5 -17t-44 17z" />
    <glyph glyph-name="h" unicode="h" horiz-adv-x="603" 
d="M85 0h113v800h-113v-800zM30 773h168v27h-168v-27zM177 351h12q0 32 18.5 62.5t48.5 49.5t64 19q38 0 58 -26t26 -60.5t7 -72.5v-14v-309h113v328l-1 14q-3 36 -19.5 74.5t-59 68t-115.5 29.5q-53 0 -90.5 -26t-57 -62t-21.5 -66v-6q0 -5 17 -3zM30 0h223v27h-223v-27z
M356 0h223v27h-223v-27z" />
    <glyph glyph-name="i" unicode="i" horiz-adv-x="283" 
d="M85 500h113v-500h-113v500zM30 27h223v-27h-223v27zM30 500h168v-27h-168v27zM90 679q-21 21 -21 50q0 31 21 51.5t50 20.5t50.5 -21t21.5 -51q0 -29 -21 -50t-51 -21q-29 0 -50 21z" />
    <glyph glyph-name="j" unicode="j" horiz-adv-x="424" 
d="M222 515h113v-568h-113v568zM11 -134q-21 21 -21 50q0 30 21 51t50 21q30 0 51 -21t21 -51q0 -29 -21 -50t-51 -21q-29 0 -50 21zM69.5 -200.5q-34.5 17.5 -53.5 44.5t-24 55q-2 12 -2 18h86q0 -39 5 -59.5t22 -32t54 -11.5q36 0 50.5 31.5t14.5 101.5h113v-10
q-2 -47 -27 -82t-65 -54t-89 -19q-50 0 -84.5 17.5zM167 515h168v-27h-168v27zM226 679q-21 21 -21 50q0 31 21 51.5t50 20.5t50.5 -21t21.5 -51q0 -29 -21 -50t-51 -21q-29 0 -50 21z" />
    <glyph glyph-name="k" unicode="k" horiz-adv-x="589" 
d="M205 277l71 60l223 -337h-114zM10 27h223v-27h-223v27zM65 800h113v-800h-113v800zM330 27h223v-27h-223v27zM87 210l318 263h48l-315 -269zM10 800h168v-27h-168v27zM330 500h223v-27h-223v27z" />
    <glyph glyph-name="l" unicode="l" horiz-adv-x="283" 
d="M85 0h113v800h-113v-800zM30 773h168v27h-168v-27zM30 0h223v27h-223v-27z" />
    <glyph glyph-name="m" unicode="m" horiz-adv-x="939" 
d="M84 0h113v431l-30 69h-83v-500zM29 473h138v27h-138v-27zM176 351h12q0 32 18.5 62.5t48.5 49.5t64 19q38 0 58 -26t26 -60.5t7 -72.5v-14v-309h113v351q0 8 -1 13q-3 33 -19.5 66.5t-59 58.5t-115.5 25q-53 0 -90.5 -26t-57 -62t-21.5 -66v-6q0 -5 17 -3zM29 0h223v27
h-223v-27zM355 0h223v27h-223v-27zM508 351h12q0 32 18.5 62.5t48.5 49.5t64 19q38 0 58 -26t26 -60.5t7 -72.5v-14v-309h113v328l-1 14q-3 36 -19.5 74.5t-59 68t-115.5 29.5q-53 0 -90.5 -26t-57 -62t-21.5 -66v-6q0 -5 17 -3zM687 0h223v27h-223v-27z" />
    <glyph glyph-name="n" unicode="n" horiz-adv-x="604" 
d="M85 0h113v424l-34 76h-79v-500zM30 473h134v27h-134v-27zM177 351h12q0 32 18.5 62.5t48.5 49.5t64 19q38 0 58 -26t26 -60.5t7 -72.5v-14v-309h113v328l-1 14q-3 36 -19.5 74.5t-59 68t-115.5 29.5q-53 0 -90.5 -26t-57 -62t-21.5 -66v-6q0 -5 17 -3zM30 0h223v27h-223
v-27zM356 0h223v27h-223v-27z" />
    <glyph glyph-name="o" unicode="o" horiz-adv-x="583" 
d="M420.5 20q58.5 36 92.5 97t34 133t-34 133.5t-92.5 97t-128.5 35.5t-128.5 -36t-93 -97t-34.5 -133q0 -71 34.5 -132.5t93 -97.5t128.5 -36t128.5 36zM243 45q-36 29 -60.5 79.5t-31.5 112.5q-8 63 5 120t42 92t68 35t74.5 -28.5t60.5 -78.5t32 -114q7 -63 -6 -120
t-42 -92t-67 -35q-39 0 -75 29z" />
    <glyph glyph-name="p" unicode="p" horiz-adv-x="633" 
d="M239 19.5q-42 34.5 -62.5 94.5t-20.5 136q0 60 18 121t60 103t108 42q78 0 135.5 -35.5t88.5 -96t31 -134.5q0 -71 -34 -132t-92.5 -97t-128.5 -36q-61 0 -103 34.5zM30 -189h223v-27h-223v27zM85 500h113v-716h-113v716zM420 38q30 22 46.5 74t16.5 141
q0 66 -16.5 118.5t-47.5 82.5t-73 30q-56 0 -89 -31t-46 -83.5t-13 -122.5q0 -72 13 -122.5t46 -79.5t91 -29q42 0 72 22zM30 500h168v-27h-168v27z" />
    <glyph glyph-name="q" unicode="q" horiz-adv-x="631" 
d="M160.5 21q-58.5 36 -92.5 97t-34 132q0 74 31 134.5t88.5 96t135.5 35.5q66 0 108 -42t60 -103t18 -121q0 -76 -20.5 -136t-62.5 -94.5t-103 -34.5q-70 0 -128.5 36zM378 -189h223v-27h-223v27zM374 45q33 29 46 79.5t13 122.5q0 70 -13 122.5t-46 83.5t-89 31
q-42 0 -73 -30t-47.5 -82.5t-16.5 -118.5q0 -89 16.5 -141t46.5 -74t72 -22q58 0 91 29zM433 400l30 100h83v-716h-113v616zM463 500h138v-27h-138v27z" />
    <glyph glyph-name="r" unicode="r" horiz-adv-x="494" 
d="M171 393.5q18 60.5 52.5 90.5t85.5 32q36 1 70 -13t58 -39.5t32 -56.5q3 -12 3 -26h-86q0 47 -22 73.5t-55 28.5q-60 2 -93.5 -60.5t-33.5 -181.5h-29q0 92 18 152.5zM16 27h223v-27h-223v27zM71 500h83l30 -114v-386h-113v500zM16 500h138v-27h-138v27zM350 331
q-21 21 -21 51q0 29 21 50t51 21q29 0 50 -21t21 -50q0 -30 -21 -51t-50 -21q-30 0 -51 21z" />
    <glyph glyph-name="s" unicode="s" horiz-adv-x="445" 
d="M136.5 -7q-39.5 9 -63.5 23t-24 30v45v44h20q0 -54 34 -88t100 -34q42 0 73 19.5t41 53t-9 71.5q-11 22 -36.5 34.5t-69.5 23.5l-8 2q-51 13 -82.5 26.5t-53.5 41.5t-22 75q0 48 27 83.5t70 54t90 19.5q39 1 78.5 -12.5t66 -38.5t26.5 -58h-23q0 28 -23.5 46.5t-56.5 26
t-59 5.5q-27 -3 -49.5 -16.5t-34 -36.5t-6.5 -50q5 -25 30.5 -39t77.5 -31q13 -4 25 -8q66 -23 103.5 -54.5t40.5 -93.5q2 -55 -26 -94.5t-74.5 -59t-98.5 -19.5q-44 0 -83.5 9zM49 165h20v-165h-20v165zM288 363q-18 18 -18 44t18 44t44 18t44 -18t18 -44t-18 -44.5
t-44 -17.5q-26 0 -44 18z" />
    <glyph glyph-name="t" unicode="t" horiz-adv-x="409" 
d="M228 51.5q14 -35.5 37 -35.5q17 0 30 8t26 31.5t25 69.5l14 -12l-3 -17q-25 -112 -92 -112q-57 0 -92 19.5t-51.5 53.5t-20.5 81q-1 10 -1 31h113q1 -82 15 -117.5zM213 623v-454h-113v414zM322 499v-27h-273v27h273z" />
    <glyph glyph-name="u" unicode="u" horiz-adv-x="603" 
d="M518 500h-113v-426l30 -74h83v500zM573 27h-138v-27h138v27zM426 149h-12q0 -32 -18.5 -62.5t-48.5 -49.5t-64 -19q-38 0 -58 26t-26 60.5t-7 72.5v14v309h-113v-328l1 -14q3 -36 19.5 -74.5t59 -68t115.5 -29.5q53 0 90.5 26t57 62t21.5 66v6q0 5 -17 3zM518 500h-168
v-27h168v27zM192 500h-168v-27h168v27z" />
    <glyph glyph-name="v" unicode="v" horiz-adv-x="620" 
d="M83 500h115l167 -500h-105zM34 500h223v-27h-223v27zM479 499h37l-151 -499l-17 46zM385 499h202v-27h-202v27z" />
    <glyph glyph-name="w" unicode="w" horiz-adv-x="822" 
d="M27 500h115l182 -500h-105zM-22 500h223v-27h-223v27zM407 499h37l-120 -499h-38zM335 499h115l128 -500h-105zM286 499h223v-27h-223v27zM687 498h37l-146 -499h-38zM601 498h189v-27h-189v27z" />
    <glyph glyph-name="x" unicode="x" horiz-adv-x="588" 
d="M85 500h115l302 -500h-105zM36 27h209v-27h-209v27zM285 289h37l-174 -289h-36zM328 27h223v-27h-223v27zM36 500h223v-27h-223v27zM442 500h34l-176 -279h-37zM343 500h209v-27h-209v27z" />
    <glyph glyph-name="y" unicode="y" 
d="M72 500h113l164 -399l-10 -101h-38zM87 -119q-21 21 -21 50q0 30 21 51t50 21t50.5 -21t21.5 -51q0 -29 -21 -50t-51 -21q-29 0 -50 21zM155 -206.5q-39 14.5 -64 51.5t-25 86h73q-8 -42 3.5 -70t34 -38.5t45.5 -1.5q22 9 39 51t40 128h38q-3 -9 -5.5 -18t-5.5 -18
q-25 -83 -44 -122t-52 -50q-38 -13 -77 1.5zM24 500h223v-27h-223v27zM478 499h37l-176 -499h-38zM382 499h209v-27h-209v27z" />
    <glyph glyph-name="z" unicode="z" horiz-adv-x="489" 
d="M338 500h115l-312 -500h-105zM156 27h275v-27h-290zM55 500h27v-117h-27v117zM404 117h27v-117h-27v117zM82 500h256l-15 -27h-241v27z" />
    </font>
</defs>
</svg>
