<?xml version="1.0" standalone="no"?>
<!DOCTYPE svg PUBLIC "-//W3C//DTD SVG 1.1//EN" "http://www.w3.org/Graphics/SVG/1.1/DTD/svg11.dtd" >
<svg xmlns="http://www.w3.org/2000/svg" xmlns:xlink="http://www.w3.org/1999/xlink" version="1.1">
<metadata>
Created by FontForge 20170731 at Fri Jul  7 00:34:02 2023
 By Aleksey,,,
copyright missing
</metadata>
<defs>
<font id="AHHEX-Regular" horiz-adv-x="1763" >
  <font-face 
    font-family="AH HEX"
    font-weight="400"
    font-stretch="normal"
    units-per-em="2048"
    panose-1="0 0 0 0 0 0 0 0 0 0"
    ascent="1638"
    descent="-410"
    x-height="1434"
    cap-height="1434"
    bbox="49 -410 1716 1638"
    underline-thickness="102"
    underline-position="-358"
    unicode-range="U+0020-007A"
  />
<missing-glyph horiz-adv-x="1024" 
d="M840 1638v-2048h-650v2048h650zM342 -268h340v67h-209l143 97h66v67h-340v-67h143l-143 -97v-67zM342 10h340v232h-340v-232zM342 365h340v231h-205v-115h70v47h67v-96h-204v164h-68v-231zM342 641h340v205h-68v-135h-272v-70zM342 758h205v143h135v68h-340v-68h135v-76
h-135v-67zM342 1024h340v70h-135v143h-205v-213zM342 1290h340v68h-135v76h135v67h-338v-67h133v-76h-135v-68zM410 78v96h204v-96h-204zM410 1094v73h67v-73h-67z" />
    <glyph glyph-name=".notdef" horiz-adv-x="1024" 
d="M840 1638v-2048h-650v2048h650zM342 -268h340v67h-209l143 97h66v67h-340v-67h143l-143 -97v-67zM342 10h340v232h-340v-232zM342 365h340v231h-205v-115h70v47h67v-96h-204v164h-68v-231zM342 641h340v205h-68v-135h-272v-70zM342 758h205v143h135v68h-340v-68h135v-76
h-135v-67zM342 1024h340v70h-135v143h-205v-213zM342 1290h340v68h-135v76h135v67h-338v-67h133v-76h-135v-68zM410 78v96h204v-96h-204zM410 1094v73h67v-73h-67z" />
    <glyph glyph-name=".null" horiz-adv-x="0" 
 />
    <glyph glyph-name="nonmarkingreturn" horiz-adv-x="682" 
 />
    <glyph glyph-name="space" unicode=" " horiz-adv-x="507" 
 />
    <glyph glyph-name="space" unicode="&#xa0;" horiz-adv-x="507" 
 />
    <glyph glyph-name="exclam" unicode="!" horiz-adv-x="733" 
d="M49 1434h635v-922h-635v922zM49 207l121 205h393l121 -205l-121 -207h-393z" />
    <glyph glyph-name="comma" unicode="," horiz-adv-x="581" 
d="M414 418l118 -211l-118 -207l-99 -166l-61 166h-84l-121 207l121 211h244z" />
    <glyph glyph-name="period" unicode="." horiz-adv-x="581" 
d="M414 418l118 -211l-118 -207h-244l-121 207l121 211h244z" />
    <glyph glyph-name="zero" unicode="0" 
d="M1120 461l-28 49v414l28 49l-28 49h-420l-27 -49l29 -49v-414l-29 -49l29 -49h418zM49 207v1020l119 207h1427l119 -207v-1020l-119 -207h-1427z" />
    <glyph glyph-name="one" unicode="1" horiz-adv-x="1171" 
d="M1004 1434l118 -205v-1229h-596v1022h-356l-121 207l121 205h834z" />
    <glyph glyph-name="two" unicode="2" 
d="M1595 1434l119 -207v-510l-121 -207h-921l-29 -49l29 -49h923l119 -205l-121 -207h-1425l-119 207v510l119 207h922l28 49l-28 49h-922l-119 205l119 207h1427z" />
    <glyph glyph-name="three" unicode="3" 
d="M1595 1434l119 -207v-303l-119 -207l119 -207v-303l-119 -207h-1427l-119 207l119 205h924l28 49l-28 49h-686l-119 207l119 207h686l28 49l-28 49h-924l-119 205l119 207h1427z" />
    <glyph glyph-name="four" unicode="4" 
d="M1595 1434l119 -207v-1022l-119 -205h-503v412l30 51l-30 47h-922l-121 205v512l121 207h504v-412l-29 -49l29 -49v-2h418v2l30 49l-30 49v412h503z" />
    <glyph glyph-name="five" unicode="5" 
d="M1595 1434l119 -207l-119 -205h-919l-31 -49l31 -49h919l119 -207v-512l-119 -205h-1427l-119 205l119 207h924l28 49l-28 49h-924l-119 207v717h1546z" />
    <glyph glyph-name="six" unicode="6" 
d="M1595 1434l119 -207l-119 -205h-923l-29 -49l29 -49h923l119 -207v-510l-119 -207h-1427l-119 207v1020l119 207h1427zM643 461l29 -49h420l28 49l-28 49h-420z" />
    <glyph glyph-name="seven" unicode="7" 
d="M1593 1434l121 -205v-207l-715 -1022h-366l-121 207l532 717h46l28 49l-28 49h-924l-117 207l117 205h1427z" />
    <glyph glyph-name="eight" unicode="8" horiz-adv-x="1761" 
d="M1593 1434l119 -207v-303l-119 -207l119 -207v-303l-119 -207h-1425l-119 207v303l119 207l-119 207v303l119 207h1425zM643 461l29 -49h418l28 49l-28 49h-418zM643 973l29 -49h418l28 49l-28 49h-418z" />
    <glyph glyph-name="nine" unicode="9" 
d="M1595 1434l119 -207v-1020l-119 -207h-503v414l28 47l-28 49h-924l-119 207v510l119 207h1427zM643 973l29 -49h420l28 49l-28 47v2h-420z" />
    <glyph glyph-name="colon" unicode=":" horiz-adv-x="581" 
d="M414 1024l118 -211l-118 -207h-244l-121 207l121 211h244zM49 207l121 211h244l118 -211l-118 -207h-244z" />
    <glyph glyph-name="A" unicode="A" 
d="M1595 1434l119 -207v-1020l-119 -207h-505v412l28 49l-28 49h-418l-29 -49l29 -49v-412h-504l-119 207v1020l119 207h1427zM643 973l29 -49h418l28 49l-28 49h-418z" />
    <glyph glyph-name="B" unicode="B" 
d="M1595 1434l119 -207v-303l-119 -207l119 -207v-303l-119 -207h-1546v1434h1546zM645 461l29 -49h418l28 49l-28 49h-418zM645 973l29 -49h418l28 49l-28 49h-418z" />
    <glyph glyph-name="C" unicode="C" 
d="M1595 1434l119 -207l-119 -205h-923l-29 -49l29 -49v-414l-29 -49l29 -47v-2h923l119 -205l-119 -207h-1427l-119 207v1020l119 207h1427z" />
    <glyph glyph-name="D" unicode="D" 
d="M1595 1434l119 -207v-1020l-119 -207h-1546v1434h1546zM672 412h420l26 49l-26 49h-2v414l28 49l-28 49h-418v-610z" />
    <glyph glyph-name="E" unicode="E" 
d="M1593 1434l121 -207l-121 -205h-921l-29 -51l29 -49h921l121 -205l-121 -207h-921l-29 -47l29 -51h921l121 -207l-121 -205h-1425l-119 205v1022l119 207h1425z" />
    <glyph glyph-name="F" unicode="F" 
d="M1595 1434l119 -207l-119 -205h-923l-29 -49l29 -49h923l119 -207l-119 -207h-923l-29 -49l29 -49v-412h-623v1227l119 207h1427z" />
    <glyph glyph-name="G" unicode="G" 
d="M1595 1434l119 -207l-119 -205h-919v-2l-29 -47l29 -49v-414l-29 -49l29 -47v-2h414l28 49l-28 49h-316v414h821l119 -207v-510l-119 -207h-1425l-121 207v1020l121 207h1425z" />
    <glyph glyph-name="H" unicode="H" 
d="M1595 1434l119 -207v-1020l-119 -207h-503v414l28 47l-28 49h-420l-29 -49l29 -47v-414h-504l-119 207v1020l119 207h504v-414l-29 -47l29 -49h420l28 49l-28 47v414h503z" />
    <glyph glyph-name="I" unicode="I" 
d="M1595 1434l119 -207l-119 -205h-401v-2l-29 -47l29 -49v-414l-29 -49l29 -49h401l119 -205l-119 -207h-1427l-119 207l119 205h401l29 49l-29 49v414l29 49l-29 49h-401l-119 205l119 207h1427z" />
    <glyph glyph-name="J" unicode="J" 
d="M1714 1434v-1227l-119 -207h-1425l-121 207v303l121 207h504v-207l-29 -49l29 -49h418l28 49l-28 49v414l28 49l-28 49h-328l-119 205l119 207h950z" />
    <glyph glyph-name="K" unicode="K" horiz-adv-x="1765" 
d="M1597 1434l119 -205l-119 -205h-223l-104 -137l-51 -27v-57l43 -23l454 -575l-119 -205h-426l-253 334v49l-50 29l-51 -29v-49l-145 -178v-156h-623v1229l119 205h504v-537l51 -31l49 31v55l363 482h462z" />
    <glyph glyph-name="L" unicode="L" 
d="M674 1434v-924l-29 -49l29 -49h921l119 -205l-119 -207h-1425l-121 207v1020l121 207h504z" />
    <glyph glyph-name="M" unicode="M" 
d="M762 1434l72 -121v-58l47 -28l49 28v58l69 121h594l121 -207v-1227h-495v778h-2l-50 29l-47 -29v-641l-239 -137l-238 137v641l-49 29l-49 -29v-778h-496v1227l119 207h594z" />
    <glyph glyph-name="N" unicode="N" horiz-adv-x="1761" 
d="M999 1434l119 -207v-572l49 -28l50 28v779h495v-1227l-119 -207h-831l-119 207v571l-49 29l-49 -29v-778h-496v1227l119 207h831z" />
    <glyph glyph-name="O" unicode="O" 
d="M1118 463l-26 49h-2v410l28 49l-28 49h-416l-31 -49l31 -49v-410l-31 -49l31 -49h416zM49 205v1024l119 205h1427l119 -205v-1024l-119 -205h-1427z" />
    <glyph glyph-name="P" unicode="P" 
d="M1595 1434l119 -207v-510l-119 -207h-923l-29 -49l29 -49v-412h-623v1434h1546zM643 973l29 -49h418l28 49l-28 49h-418z" />
    <glyph glyph-name="Q" unicode="Q" 
d="M1595 1434l119 -207v-500h-6l6 -10l-119 -207h-446l-29 -49l29 -49h446l119 -205l-119 -207h-1003l-119 207v205l29 49l-29 49h-303l-121 207v510l121 207h1425zM645 973l29 -49h418l28 49l-28 49h-418z" />
    <glyph glyph-name="R" unicode="R" 
d="M1595 1434l119 -207v-510l-119 -207h-57v-55l49 -29l127 -219l-119 -207h-409l-254 440l12 21l-29 49h-243l-29 -49l29 -49v-412h-623v1434h1546zM643 973l29 -49h420l28 49l-28 49h-420z" />
    <glyph glyph-name="S" unicode="S" 
d="M1714 1434v-207l-119 -205h-923l-29 -49l29 -49h923l119 -207v-510l-119 -207h-1546v207l119 205h924l26 49l-26 49h-924l-119 207v510l119 207h1546z" />
    <glyph glyph-name="T" unicode="T" horiz-adv-x="1761" 
d="M1593 1432l119 -205l-119 -207h-401l-27 -47l27 -51v-922h-621v922l27 51l-27 47h-401l-121 207l121 205h1423z" />
    <glyph glyph-name="U" unicode="U" 
d="M1597 1434l117 -207v-1020l-117 -207h-1427l-121 207v1020l121 207h504v-924l-29 -49l29 -47h418l28 47l-28 49h-2l2 924h505z" />
    <glyph glyph-name="V" unicode="V" horiz-adv-x="1765" 
d="M1597 1434l119 -207l-598 -1227h-465l-604 1227l119 207h377l286 -672v-55l50 -29l51 29v49l289 678h376z" />
    <glyph glyph-name="W" unicode="W" horiz-adv-x="1765" 
d="M1595 1434l121 -205v-1022l-121 -207h-594l-69 121v55l-49 29l-49 -29v-55l-70 -121h-596l-119 207v1022l119 205h379v-779l47 -28l51 28v574h475v-574l49 -28l50 28l6 779h370z" />
    <glyph glyph-name="X" unicode="X" 
d="M1714 1434v-412h-317l-142 -299l142 -311h317v-412h-715l-67 119v293l-51 28l-47 -28v-291l-70 -121h-715v412h305l152 311l-141 299h-316v412h715l70 -121v-293l47 -29l51 29v295l67 119h715z" />
    <glyph glyph-name="Y" unicode="Y" 
d="M1714 1434v-1227l-123 -207h-1423l-119 207l119 205h924l28 49l-28 49h-924l-119 207v510l119 207h502v-412l-27 -49l27 -49h422l28 49l-28 49v205l118 207h504z" />
    <glyph glyph-name="Z" unicode="Z" horiz-adv-x="1761" 
d="M1712 1434v-512l-475 -412h-567l-27 -47l27 -51h1042v-412h-1663v510l733 412h308l28 49l-28 51h-1041v412h1663z" />
    <glyph glyph-name="a" unicode="a" 
d="M1595 1434l119 -207v-1020l-119 -207h-505v412l28 49l-28 49h-418l-29 -49l29 -49v-412h-504l-119 207v1020l119 207h1427zM643 973l29 -49h418l28 49l-28 49h-418z" />
    <glyph glyph-name="b" unicode="b" 
d="M1595 1434l119 -207v-303l-119 -207l119 -207v-303l-119 -207h-1546v1434h1546zM645 461l29 -49h418l28 49l-28 49h-418zM645 973l29 -49h418l28 49l-28 49h-418z" />
    <glyph glyph-name="c" unicode="c" 
d="M1595 1434l119 -207l-119 -205h-923l-29 -49l29 -49v-414l-29 -49l29 -47v-2h923l119 -205l-119 -207h-1427l-119 207v1020l119 207h1427z" />
    <glyph glyph-name="d" unicode="d" 
d="M1595 1434l119 -207v-1020l-119 -207h-1546v1434h1546zM672 412h420l26 49l-26 49h-2v414l28 49l-28 49h-418v-610z" />
    <glyph glyph-name="e" unicode="e" 
d="M1593 1434l121 -207l-121 -205h-921l-29 -51l29 -49h921l121 -205l-121 -207h-921l-29 -47l29 -51h921l121 -207l-121 -205h-1425l-119 205v1022l119 207h1425z" />
    <glyph glyph-name="f" unicode="f" 
d="M1595 1434l119 -207l-119 -205h-923l-29 -49l29 -49h923l119 -207l-119 -207h-923l-29 -49l29 -49v-412h-623v1227l119 207h1427z" />
    <glyph glyph-name="g" unicode="g" 
d="M1595 1434l119 -207l-119 -205h-919v-2l-29 -47l29 -49v-414l-29 -49l29 -47v-2h414l28 49l-28 49h-316v414h821l119 -207v-510l-119 -207h-1425l-121 207v1020l121 207h1425z" />
    <glyph glyph-name="h" unicode="h" 
d="M1595 1434l119 -207v-1020l-119 -207h-503v414l28 47l-28 49h-420l-29 -49l29 -47v-414h-504l-119 207v1020l119 207h504v-414l-29 -47l29 -49h420l28 49l-28 47v414h503z" />
    <glyph glyph-name="i" unicode="i" 
d="M1595 1434l119 -207l-119 -205h-401v-2l-29 -47l29 -49v-414l-29 -49l29 -49h401l119 -205l-119 -207h-1427l-119 207l119 205h401l29 49l-29 49v414l29 49l-29 49h-401l-119 205l119 207h1427z" />
    <glyph glyph-name="j" unicode="j" 
d="M1714 1434v-1227l-119 -207h-1425l-121 207v303l121 207h504v-207l-29 -49l29 -49h418l28 49l-28 49v414l28 49l-28 49h-328l-119 205l119 207h950z" />
    <glyph glyph-name="k" unicode="k" horiz-adv-x="1765" 
d="M1597 1434l119 -205l-119 -205h-223l-104 -137l-51 -27v-57l43 -23l454 -575l-119 -205h-426l-253 334v49l-50 29l-51 -29v-49l-145 -178v-156h-623v1229l119 205h504v-537l51 -31l49 31v55l363 482h462z" />
    <glyph glyph-name="l" unicode="l" 
d="M674 1434v-924l-29 -49l29 -49h921l119 -205l-119 -207h-1425l-121 207v1020l121 207h504z" />
    <glyph glyph-name="m" unicode="m" 
d="M762 1434l72 -121v-58l47 -28l49 28v58l69 121h594l121 -207v-1227h-495v778h-2l-50 29l-47 -29v-641l-239 -137l-238 137v641l-49 29l-49 -29v-778h-496v1227l119 207h594z" />
    <glyph glyph-name="n" unicode="n" horiz-adv-x="1761" 
d="M999 1434l119 -207v-572l49 -28l50 28v779h495v-1227l-119 -207h-831l-119 207v571l-49 29l-49 -29v-778h-496v1227l119 207h831z" />
    <glyph glyph-name="o" unicode="o" 
d="M1118 463l-26 49h-2v410l28 49l-28 49h-416l-31 -49l31 -49v-410l-31 -49l31 -49h416zM49 205v1024l119 205h1427l119 -205v-1024l-119 -205h-1427z" />
    <glyph glyph-name="p" unicode="p" 
d="M1595 1434l119 -207v-510l-119 -207h-923l-29 -49l29 -49v-412h-623v1434h1546zM643 973l29 -49h418l28 49l-28 49h-418z" />
    <glyph glyph-name="q" unicode="q" 
d="M1595 1434l119 -207v-500h-6l6 -10l-119 -207h-446l-29 -49l29 -49h446l119 -205l-119 -207h-1003l-119 207v205l29 49l-29 49h-303l-121 207v510l121 207h1425zM645 973l29 -49h418l28 49l-28 49h-418z" />
    <glyph glyph-name="r" unicode="r" 
d="M1595 1434l119 -207v-510l-119 -207h-57v-55l49 -29l127 -219l-119 -207h-409l-254 440l12 21l-29 49h-243l-29 -49l29 -49v-412h-623v1434h1546zM643 973l29 -49h420l28 49l-28 49h-420z" />
    <glyph glyph-name="s" unicode="s" 
d="M1714 1434v-207l-119 -205h-923l-29 -49l29 -49h923l119 -207v-510l-119 -207h-1546v207l119 205h924l26 49l-26 49h-924l-119 207v510l119 207h1546z" />
    <glyph glyph-name="t" unicode="t" horiz-adv-x="1761" 
d="M1593 1432l119 -205l-119 -207h-401l-27 -47l27 -51v-922h-621v922l27 51l-27 47h-401l-121 207l121 205h1423z" />
    <glyph glyph-name="u" unicode="u" 
d="M1597 1434l117 -207v-1020l-117 -207h-1427l-121 207v1020l121 207h504v-924l-29 -49l29 -47h418l28 47l-28 49h-2l2 924h505z" />
    <glyph glyph-name="v" unicode="v" horiz-adv-x="1765" 
d="M1597 1434l119 -207l-598 -1227h-465l-604 1227l119 207h377l286 -672v-55l50 -29l51 29v49l289 678h376z" />
    <glyph glyph-name="w" unicode="w" horiz-adv-x="1765" 
d="M1595 1434l121 -205v-1022l-121 -207h-594l-69 121v55l-49 29l-49 -29v-55l-70 -121h-596l-119 207v1022l119 205h379v-779l47 -28l51 28v574h475v-574l49 -28l50 28l6 779h370z" />
    <glyph glyph-name="x" unicode="x" 
d="M1714 1434v-412h-317l-142 -299l142 -311h317v-412h-715l-67 119v293l-51 28l-47 -28v-291l-70 -121h-715v412h305l152 311l-141 299h-316v412h715l70 -121v-293l47 -29l51 29v295l67 119h715z" />
    <glyph glyph-name="y" unicode="y" 
d="M1714 1434v-1227l-123 -207h-1423l-119 207l119 205h924l28 49l-28 49h-924l-119 207v510l119 207h502v-412l-27 -49l27 -49h422l28 49l-28 49v205l118 207h504z" />
    <glyph glyph-name="z" unicode="z" horiz-adv-x="1761" 
d="M1712 1434v-512l-475 -412h-567l-27 -47l27 -51h1042v-412h-1663v510l733 412h308l28 49l-28 51h-1041v412h1663z" />
  </font>
</defs>
</svg>
