<?xml version="1.0" standalone="no"?>
<!DOCTYPE svg PUBLIC "-//W3C//DTD SVG 1.1//EN" "http://www.w3.org/Graphics/SVG/1.1/DTD/svg11.dtd" >
<svg xmlns="http://www.w3.org/2000/svg" xmlns:xlink="http://www.w3.org/1999/xlink" version="1.1">
<metadata>
Created by FontForge 20170731 at Fri Dec  2 20:49:23 2022
 By Aleksey,,,
</metadata>
<defs>
<font id="AHGol-Regular" horiz-adv-x="964" >
  <font-face 
    font-family="AH Gol"
    font-weight="400"
    font-stretch="normal"
    units-per-em="1000"
    panose-1="0 0 0 0 0 0 0 0 0 0"
    ascent="800"
    descent="-200"
    x-height="700"
    cap-height="700"
    bbox="11 -200 953 800"
    underline-thickness="50"
    underline-position="-175"
    unicode-range="U+0020-2013"
  />
<missing-glyph horiz-adv-x="500" 
d="M410 -200h-317v1000h317v-1000zM333 -131v33h-102l70 47h32v33h-166v-33h70l-70 -47v-33h166zM333 5v113h-166v-113h166zM333 178v113h-100v-56h34v23h33v-47h-100v80h-33v-113h166zM333 313v100h-33v-66h-133v-34h166zM267 370v70h66v33h-166v-33h66v-37h-66v-33h100z
M333 500v34h-66v70h-100v-104h166zM333 630v33h-66v37h66v33h-165v-33h65v-37h-66v-33h166zM200 85h100v-47h-100v47zM200 570h33v-36h-33v36z" />
    <glyph glyph-name=".notdef" horiz-adv-x="500" 
d="M410 -200h-317v1000h317v-1000zM333 -131v33h-102l70 47h32v33h-166v-33h70l-70 -47v-33h166zM333 5v113h-166v-113h166zM333 178v113h-100v-56h34v23h33v-47h-100v80h-33v-113h166zM333 313v100h-33v-66h-133v-34h166zM267 370v70h66v33h-166v-33h66v-37h-66v-33h100z
M333 500v34h-66v70h-100v-104h166zM333 630v33h-66v37h66v33h-165v-33h65v-37h-66v-33h166zM200 85h100v-47h-100v47zM200 570h33v-36h-33v36z" />
    <glyph glyph-name=".null" horiz-adv-x="0" 
 />
    <glyph glyph-name="nonmarkingreturn" horiz-adv-x="333" 
 />
    <glyph glyph-name="space" unicode=" " horiz-adv-x="470" 
 />
    <glyph glyph-name="space" unicode="&#xa0;" horiz-adv-x="470" 
 />
    <glyph glyph-name="exclam" unicode="!" horiz-adv-x="241" 
d="M229 218v-218h-218v218h218zM11 700h218v-459h-218v459z" />
    <glyph glyph-name="comma" unicode="," horiz-adv-x="240" 
d="M229 218v-218h-218v218h218zM106 -23h123v-60l-63 -63h-60v123z" />
    <glyph glyph-name="hyphen" unicode="-" horiz-adv-x="440" 
d="M429 459v-218h-418v218h418z" />
    <glyph glyph-name="period" unicode="." horiz-adv-x="241" 
d="M229 218v-218h-218v218h218z" />
    <glyph glyph-name="zero" unicode="0" 
d="M952 591v-109h-941v109l108 109h724zM11 218h941v-110l-109 -108h-723l-109 108v110zM11 459h218v-218h-218v218zM252 459h218v-42q-24 -4 -40.5 -23t-16.5 -44t16.5 -44t40.5 -23v-42h-218v218zM493 283q24 4 40 23t16 44t-16 44t-40 23v42h218v-218h-218v42zM734 459
h218v-218h-218v218z" />
    <glyph glyph-name="one" unicode="1" 
d="M711 482h-700v109l109 109h591v-218zM11 218h941v-218h-941v218zM252 459h459v-218h-459v218z" />
    <glyph glyph-name="two" unicode="2" horiz-adv-x="963" 
d="M711 700v-218h-700v218h700zM11 218h459v-218h-459v218zM11 351l109 108h832v-108l-109 -110h-832v110zM493 218h459v-218h-459v218zM734 700h109l109 -109v-109h-218v218z" />
    <glyph glyph-name="three" unicode="3" 
d="M952 109l-109 -109h-832v218h941v-109zM11 700h700v-218h-700v218zM252 459h700l-109 -109l109 -109h-700v218zM734 700h109l109 -109v-109h-218v218z" />
    <glyph glyph-name="four" unicode="4" 
d="M952 482h-700v109l109 109h591v-218zM11 350l109 109h832v-218h-941v109zM493 218h459v-218h-459v218z" />
    <glyph glyph-name="five" unicode="5" 
d="M711 0h-591l-109 109v109h700v-218zM11 459h700v-218h-700v218zM11 700h941v-218h-941v218zM734 459h109l109 -109v-241l-109 -109h-109v459z" />
    <glyph glyph-name="six" unicode="6" 
d="M952 109l-109 -109h-109v218h218v-109zM11 218h218v-218h-110l-108 109v109zM11 459h832l109 -108v-110h-405q-5 24 -23.5 39.5t-42.5 15.5q-25 0 -43.5 -16t-22.5 -39h-404v218zM11 592l109 108h832v-109l-109 -109h-832v110zM252 218h163q4 -24 22.5 -40t43.5 -16
t43 16t23 40h164v-218h-459v218z" />
    <glyph glyph-name="seven" unicode="7" 
d="M952 591v-109h-941v218h832zM252 109l109 109h350v-109l-109 -109h-350v109zM493 350l109 109h350v-109l-109 -109h-350v109z" />
    <glyph glyph-name="eight" unicode="8" 
d="M11 482v109l109 109h723l109 -109v-109h-403q-5 25 -24 41t-44 16t-43.5 -16t-23.5 -41h-403zM11 218h403q5 -24 23.5 -40.5t43.5 -16.5t44 16.5t24 40.5h403v-109l-109 -109h-723l-109 109v109zM120 350l-109 109h403q5 -24 23.5 -40.5t43.5 -16.5t44 16.5t24 40.5h403
l-109 -109l109 -109h-403q-5 24 -24 40.5t-44 16.5t-43.5 -16.5t-23.5 -40.5h-403z" />
    <glyph glyph-name="nine" unicode="9" 
d="M11 591l109 109h591v-218h-163q-4 24 -22.5 40t-43.5 16t-43.5 -16t-22.5 -40h-405v109zM11 109l110 109h831v-109l-109 -109h-832v109zM11 459h405q4 -24 22.5 -40t43.5 -16t43.5 16t22.5 40h404v-218h-832l-109 109v109zM734 700h109l109 -109v-109h-218v218z" />
    <glyph glyph-name="colon" unicode=":" horiz-adv-x="241" 
d="M229 218v-218h-218v218h218zM11 459h218v-218h-218v218z" />
    <glyph glyph-name="question" unicode="?" horiz-adv-x="481" 
d="M361 700l109 -109v-109h-459v218h350zM112 218h218v-218h-218v218zM112 350l109 109h249v-109l-129 -109h-229v109z" />
    <glyph glyph-name="A" unicode="A" 
d="M952 591v-109h-941v109l109 109h723zM11 218h404q4 -21 19 -36t36 -19v-163h-459v218zM11 459h941v-218h-404q-5 24 -23.5 40t-43.5 16t-43 -16t-23 -40h-404v218zM493 163q21 4 36 19t19 36h404v-218h-459v163z" />
    <glyph glyph-name="B" unicode="B" 
d="M952 591v-109h-941v218h832zM11 218h941v-109l-109 -109h-832v218zM11 459h941l-109 -108l109 -110h-941v218z" />
    <glyph glyph-name="C" unicode="C" 
d="M952 483h-941v108l109 109h832v-217zM11 217h941v-217h-832l-109 109v108zM11 459h459v-218h-459v218z" />
    <glyph glyph-name="D" unicode="D" 
d="M952 590v-108h-941v218h832zM11 218h941v-109l-109 -109h-832v218zM11 459h459v-42q-24 -5 -40.5 -23.5t-16.5 -43.5t16.5 -44t40.5 -23v-42h-459v218zM493 283q24 4 40.5 23t16.5 44t-16.5 43.5t-40.5 23.5v42h459v-218h-459v42z" />
    <glyph glyph-name="E" unicode="E" 
d="M952 482h-941v109l109 109h832v-218zM11 218h941v-218h-832l-109 109v109zM11 459h941v-218h-941v218z" />
    <glyph glyph-name="F" unicode="F" 
d="M952 482h-941v109l109 109h832v-218zM11 218h459v-218h-459v218zM11 459h941v-218h-941v218z" />
    <glyph glyph-name="G" unicode="G" 
d="M952 482h-941v109l109 109h832v-218zM11 459h218v-459h-109l-109 109v350zM252 218h459v-218h-459v218zM252 350l109 109h591v-350l-109 -109h-109v241h-482v109z" />
    <glyph glyph-name="H" unicode="H" 
d="M433 519q-15 -15 -19 -37h-403v218h459v-162q-22 -4 -37 -19zM11 218h403q4 -22 19 -37t37 -19v-162h-459v218zM11 459h403q5 -24 23.5 -40.5t43.5 -16.5t44 16.5t24 40.5h403v-218h-403q-5 24 -24 40.5t-44 16.5t-43.5 -16.5t-23.5 -40.5h-403v218zM493 162q22 4 37 19
t19 37h403v-218h-459v162zM493 700h459v-218h-403q-4 22 -19 37t-37 19v162z" />
    <glyph glyph-name="I" unicode="I" 
d="M710 459v-218h-459v218h459zM11 218h941v-218h-941v218zM11 700h941v-218h-941v218z" />
    <glyph glyph-name="J" unicode="J" 
d="M952 109l-109 -109h-591v218h700v-109zM11 350l108 109h110v-459h-110l-108 109v241zM11 700h941v-218h-941v218zM493 459h459v-218h-459v218z" />
    <glyph glyph-name="K" unicode="K" 
d="M952 591l-109 -109h-591v109l109 109h591v-109zM11 218h218v-218h-218v218zM11 459h700v-218h-700v218zM11 700h218v-218h-218v218zM252 218h591l109 -109v-109h-591l-109 109v109z" />
    <glyph glyph-name="L" unicode="L" 
d="M952 459v-218h-940v218h940zM12 217h940v-217h-941zM12 700h459v-218h-459v218z" />
    <glyph glyph-name="M" unicode="M" 
d="M470 591v-109h-459v218h349zM11 218h218v-218h-218v218zM11 459h941v-218h-941v218zM252 218h459v-110l-109 -108h-242l-108 108v110zM493 591l109 109h350v-218h-459v109zM734 218h218v-218h-218v218z" />
    <glyph glyph-name="N" unicode="N" 
d="M952 241h-218v459h218v-459zM11 459h218v-459h-218v459zM11 700h351l108 -109v-109h-459v218zM253 459h349l108 -109v-109h-348l-109 109v109zM493 218h459v-218h-350l-109 109v109z" />
    <glyph glyph-name="O" unicode="O" 
d="M952 591v-109h-941v109l109 109h723zM11 218h941v-109l-109 -109h-723l-109 109v109zM11 459h459v-42q-24 -5 -40 -23.5t-16 -42.5q0 -25 16 -44t40 -24v-42h-459v218zM493 283q24 5 40.5 24t16.5 44q0 24 -16.5 42.5t-40.5 23.5v42h459v-218h-459v42z" />
    <glyph glyph-name="P" unicode="P" horiz-adv-x="963" 
d="M952 591v-109h-941v218h832zM11 218h459v-218h-459v218zM11 459h941v-109l-109 -109h-832v218z" />
    <glyph glyph-name="Q" unicode="Q" 
d="M952 482h-403q-5 24 -24 40.5t-44 16.5t-43.5 -16.5t-23.5 -40.5h-403v109l109 109h723l109 -109v-109zM11 459h403q5 -24 23.5 -40.5t43.5 -16.5t44 16.5t24 40.5h403v-109l-109 -109h-723l-109 109v109zM252 218h700v-218h-700v218z" />
    <glyph glyph-name="R" unicode="R" 
d="M952 591v-109h-941v218h832zM11 218h459v-218h-459v218zM11 459h941v-109l-109 -109h-832v218zM493 218h350l109 -109v-109h-459v218z" />
    <glyph glyph-name="S" unicode="S" horiz-adv-x="965" 
d="M953 482h-942v109l109 109h833v-218zM12 109l108 109h833v-218h-942zM11 459h832l110 -109v-109h-833l-109 109v109z" />
    <glyph glyph-name="T" unicode="T" 
d="M952 700v-218h-941v218h941zM11 459h941v-218h-941v218zM252 218h459v-218h-459v218z" />
    <glyph glyph-name="U" unicode="U" 
d="M952 700v-218h-218v218h218zM11 218h941v-109l-109 -109h-723l-109 109v109zM11 459h941v-218h-941v218zM11 700h218v-218h-218v218z" />
    <glyph glyph-name="V" unicode="V" 
d="M470 459v-218h-459v218h459zM11 218h941v-109l-109 -109h-723l-109 109v109zM11 700h350l109 -109v-109h-459v218zM493 459h459v-218h-459v218zM493 591l109 109h350v-218h-459v109z" />
    <glyph glyph-name="W" unicode="W" 
d="M952 109l-109 -109h-241l-109 109v109h459v-109zM11 218h459v-109l-109 -109h-241l-109 109v109zM11 459h941v-218h-941v218zM11 700h218v-218h-218v218zM252 591l109 109h241l109 -109v-109h-459v109zM734 700h218v-218h-218v218z" />
    <glyph glyph-name="X" unicode="X" 
d="M952 482h-459v109l109 109h350v-218zM11 218h459v-109l-109 -109h-350v218zM11 700h350l109 -109v-109h-459v218zM252 459h459v-218h-459v218zM493 218h459v-218h-350l-109 109v109z" />
    <glyph glyph-name="Y" unicode="Y" 
d="M952 700v-218h-218v218h218zM11 459h941v-109l-109 -109h-723l-109 109v109zM11 700h218v-218h-218v218zM252 218h459v-218h-459v218z" />
    <glyph glyph-name="Z" unicode="Z" 
d="M952 700v-218h-941v218h941zM11 218h832l109 -109v-109h-941v218zM11 350l109 109h832v-109l-109 -109h-832v109z" />
    <glyph glyph-name="underscore" unicode="_" horiz-adv-x="440" 
d="M429 218v-218h-418v218h418z" />
    <glyph glyph-name="a" unicode="a" 
d="M952 591v-109h-941v109l109 109h723zM11 218h404q4 -21 19 -36t36 -19v-163h-459v218zM11 459h941v-218h-404q-5 24 -23.5 40t-43.5 16t-43 -16t-23 -40h-404v218zM493 163q21 4 36 19t19 36h404v-218h-459v163z" />
    <glyph glyph-name="b" unicode="b" 
d="M952 591v-109h-941v218h832zM11 218h941v-109l-109 -109h-832v218zM11 459h941l-109 -108l109 -110h-941v218z" />
    <glyph glyph-name="c" unicode="c" 
d="M952 483h-941v108l109 109h832v-217zM11 217h941v-217h-832l-109 109v108zM11 459h459v-218h-459v218z" />
    <glyph glyph-name="d" unicode="d" 
d="M952 590v-108h-941v218h832zM11 218h941v-109l-109 -109h-832v218zM11 459h459v-42q-24 -5 -40.5 -23.5t-16.5 -43.5t16.5 -44t40.5 -23v-42h-459v218zM493 283q24 4 40.5 23t16.5 44t-16.5 43.5t-40.5 23.5v42h459v-218h-459v42z" />
    <glyph glyph-name="e" unicode="e" 
d="M952 482h-941v109l109 109h832v-218zM11 218h941v-218h-832l-109 109v109zM11 459h832l109 -109l-109 -109h-832v218z" />
    <glyph glyph-name="f" unicode="f" 
d="M952 482h-941v109l109 109h832v-218zM11 218h460v-218h-460v218zM11 459h832l109 -109l-109 -109h-832v218z" />
    <glyph glyph-name="g" unicode="g" 
d="M952 482h-941v109l109 109h832v-218zM11 459h218v-459h-109l-109 109v350zM252 218h459v-218h-459v218zM252 350l109 109h591v-350l-109 -109h-109v241h-482v109z" />
    <glyph glyph-name="h" unicode="h" 
d="M433 519q-15 -15 -19 -37h-403v218h459v-162q-22 -4 -37 -19zM11 218h403q4 -22 19 -37t37 -19v-162h-459v218zM11 459h403q5 -24 23.5 -40.5t43.5 -16.5t44 16.5t24 40.5h403v-218h-403q-5 24 -24 40.5t-44 16.5t-43.5 -16.5t-23.5 -40.5h-403v218zM493 162q22 4 37 19
t19 37h403v-218h-459v162zM493 700h459v-218h-403q-4 22 -19 37t-37 19v162z" />
    <glyph glyph-name="i" unicode="i" 
d="M710 459v-218h-459v218h459zM11 218h941v-218h-941v218zM11 700h941v-218h-941v218z" />
    <glyph glyph-name="j" unicode="j" 
d="M952 109l-109 -109h-591v218h700v-109zM11 350l108 109h110v-459h-110l-108 109v241zM493 459h459v-218h-459v218zM493 700h459v-218h-459v218z" />
    <glyph glyph-name="k" unicode="k" 
d="M952 591l-109 -109h-591v109l109 109h591v-109zM11 218h218v-218h-218v218zM11 459h700v-218h-700v218zM11 700h218v-218h-218v218zM252 218h591l109 -109v-109h-591l-109 109v109z" />
    <glyph glyph-name="l" unicode="l" 
d="M471 459v-218h-459v218h459zM12 217h940v-217h-941zM12 700h459v-218h-459v218z" />
    <glyph glyph-name="m" unicode="m" 
d="M470 591v-109h-459v218h349zM11 218h218v-218h-218v218zM11 459h941v-218h-941v218zM252 218h459v-110l-109 -108h-242l-108 108v110zM493 591l109 109h350v-218h-459v109zM734 218h218v-218h-218v218z" />
    <glyph glyph-name="n" unicode="n" 
d="M952 482h-218v218h218v-218zM11 218h218v-218h-218v218zM11 459h218v-218h-218v218zM11 700h351l108 -109v-109h-459v218zM253 459h349l108 -109v-109h-348l-109 109v109zM493 218h459v-218h-350l-109 109v109zM734 459h218v-218h-218v218z" />
    <glyph glyph-name="o" unicode="o" 
d="M952 591v-109h-941v109l109 109h723zM11 218h941v-109l-109 -109h-723l-109 109v109zM11 459h459v-42q-24 -5 -40 -23.5t-16 -42.5q0 -25 16 -44t40 -24v-42h-459v218zM493 283q24 5 40.5 24t16.5 44q0 24 -16.5 42.5t-40.5 23.5v42h459v-218h-459v42z" />
    <glyph glyph-name="p" unicode="p" 
d="M11 700h832l109 -109v-109h-403q-4 25 -23 41t-45 16q-25 0 -44 -16t-23 -41h-403v218zM11 218h459v-218h-459v218zM11 459h403q4 -25 23 -41t44 -16q26 0 45 16t23 41h403v-109l-109 -109h-832v218z" />
    <glyph glyph-name="q" unicode="q" 
d="M952 482h-403q-5 24 -24 40.5t-44 16.5t-43.5 -16.5t-23.5 -40.5h-403v109l109 109h723l109 -109v-109zM11 459h403q5 -24 23.5 -40.5t43.5 -16.5t44 16.5t24 40.5h403v-109l-109 -109h-723l-109 109v109zM252 218h700v-218h-700v218z" />
    <glyph glyph-name="r" unicode="r" 
d="M11 459h403q5 -25 24.5 -41.5t44.5 -16.5t43.5 16.5t23.5 41.5h402v-109l-109 -109h-832v218zM11 218h459v-218h-459v218zM11 700h832l109 -109v-109h-403q-4 25 -23 41t-45 16q-25 0 -44 -16t-23 -41h-403v218zM493 218h350l109 -109v-109h-459v218z" />
    <glyph glyph-name="s" unicode="s" horiz-adv-x="965" 
d="M953 482h-942v109l109 109h833v-218zM12 109l108 109h833v-218h-942zM11 459h832l110 -109v-109h-833l-109 109v109z" />
    <glyph glyph-name="t" unicode="t" 
d="M952 700v-218h-941v218h941zM252 218h459v-218h-459v218zM252 459h459v-218h-459v218z" />
    <glyph glyph-name="u" unicode="u" 
d="M952 700v-218h-218v218h218zM11 218h941v-109l-109 -109h-723l-109 109v109zM11 459h941v-218h-941v218zM11 700h218v-218h-218v218z" />
    <glyph glyph-name="v" unicode="v" 
d="M470 459v-218h-459v218h459zM11 218h941v-109l-109 -109h-723l-109 109v109zM11 700h350l109 -109v-109h-459v218zM493 459h459v-218h-459v218zM493 591l109 109h350v-218h-459v109z" />
    <glyph glyph-name="w" unicode="w" 
d="M952 109l-109 -109h-241l-109 109v109h459v-109zM11 218h459v-109l-109 -109h-241l-109 109v109zM11 459h941v-218h-941v218zM11 700h218v-218h-218v218zM252 591l109 109h241l109 -109v-109h-459v109zM734 700h218v-218h-218v218z" />
    <glyph glyph-name="x" unicode="x" 
d="M952 482h-459v109l109 109h350v-218zM11 218h459v-109l-109 -109h-350v218zM11 700h350l109 -109v-109h-459v218zM252 459h459v-218h-459v218zM493 218h459v-218h-350l-109 109v109z" />
    <glyph glyph-name="y" unicode="y" 
d="M952 700v-218h-218v218h218zM11 459h941v-109l-109 -109h-723l-109 109v109zM11 700h218v-218h-218v218zM252 218h459v-218h-459v218z" />
    <glyph glyph-name="z" unicode="z" 
d="M952 700v-218h-941v218h941zM11 218h832l109 -109v-109h-941v218zM11 350l109 109h832v-109l-109 -109h-832v109z" />
    <glyph glyph-name="exclamdown" unicode="&#xa1;" horiz-adv-x="240" 
d="M11 482v218h218v-218h-218zM11 459h218v-459h-218v459z" />
    <glyph glyph-name="questiondown" unicode="&#xbf;" horiz-adv-x="481" 
d="M120 1l-109 109v109h459v-218h-350zM11 351l129 109h229v-109l-109 -109h-249v109zM151 701h218v-218h-218v218z" />
    <glyph glyph-name="endash" unicode="&#x2013;" horiz-adv-x="600" 
d="M589 459v-218h-578v218h578z" />
    </font>
</defs>
</svg>
