<?xml version="1.0" standalone="no"?>
<!DOCTYPE svg PUBLIC "-//W3C//DTD SVG 1.1//EN" "http://www.w3.org/Graphics/SVG/1.1/DTD/svg11.dtd" >
<svg xmlns="http://www.w3.org/2000/svg" xmlns:xlink="http://www.w3.org/1999/xlink" version="1.1">
<metadata>
Created by FontForge 20170731 at Wed Dec 13 02:18:53 2023
 By Aleksey,,,
Copyright (c) 2020 by Andres Higueros.
</metadata>
<defs>
<font id="AHForastero-Bold" horiz-adv-x="1585" >
  <font-face 
    font-family="AH Forastero Bold"
    font-weight="700"
    font-stretch="normal"
    units-per-em="2048"
    panose-1="0 0 8 0 0 0 0 0 0 0"
    ascent="1577"
    descent="-471"
    x-height="1434"
    cap-height="1434"
    bbox="-195 -508 2454.29 1876"
    underline-thickness="102"
    underline-position="-307"
    unicode-range="U+0020-201D"
  />
<missing-glyph horiz-adv-x="1024" 
 />
    <glyph glyph-name=".notdef" horiz-adv-x="1024" 
 />
    <glyph glyph-name=".null" horiz-adv-x="0" 
 />
    <glyph glyph-name="nonmarkingreturn" horiz-adv-x="682" 
 />
    <glyph glyph-name="space" unicode=" " horiz-adv-x="552" 
 />
    <glyph glyph-name="exclam" unicode="!" horiz-adv-x="704" 
d="M256 469l-25 555l-57 410h348l-57 -410l-25 -555h-184zM348 -16q-74 0 -126 52t-52 126q0 73 52 124.5t126 51.5q72 0 125 -52t53 -124q0 -74 -52 -126t-126 -52z" />
    <glyph glyph-name="quotedbl" unicode="&#x22;" horiz-adv-x="851" 
d="M59 846l-45 84q134 59 160 164q-66 1 -112 50.5t-46 115.5q0 73 52.5 121.5t136.5 48.5q85 0 134.5 -56t49.5 -137q0 -57 -31 -127q-102 -217 -299 -264zM510 846l-45 84q134 59 160 164q-66 1 -112 50.5t-46 115.5q0 73 52 121.5t136 48.5q85 0 135 -56t50 -137
q0 -57 -31 -127q-102 -217 -299 -264z" />
    <glyph glyph-name="numbersign" unicode="#" horiz-adv-x="1607" 
d="M160 -25l-6 19q50 17 73.5 66.5t36.5 140.5l23 127h-154v245h201l26 195l13 76h-154v241h201l24 164q16 78 9 123t-54 64l15 18h379l6 -18q-49 -19 -71 -60t-40 -131l-29 -139h293q58 0 104 32t58 107q19 85 12 128.5t-57 62.5l12 18h381l6 -18q-51 -20 -74.5 -60.5
t-35.5 -126.5l-25 -164h172v-241h-219l-22 -176l-17 -95h172v-245h-219l-22 -127q-15 -75 -5.5 -132.5t50.5 -74.5l-15 -19h-381l-4 19q47 18 72.5 65.5t38.5 128.5q10 59 -21.5 97.5t-83.5 38.5h-292l-29 -119q-42 -175 45 -211l-14 -19h-379zM723 569l242 2l55 273h-219
q-106 0 -156.5 -33t-50.5 -119q0 -62 39 -92.5t90 -30.5z" />
    <glyph glyph-name="dollar" unicode="$" horiz-adv-x="1157" 
d="M756 885q401 -130 401 -439q0 -41 -10 -106q-17 -94 -85.5 -178t-168.5 -133q-98 -52 -205 -52v-104h-180v123q-205 41 -326 121q-20 14 -35 14q-22 0 -34 -37l-17 10v433l17 8q6 -27 35.5 -58.5t97.5 -89.5q99 -79 262 -114v364q-94 25 -150.5 48.5t-107.5 64.5
q-58 46 -92 121q-31 76 -31 147q0 93 45 180.5t123 149.5q74 60 168 82q47 11 112 14v133h181v-143q91 -17 207 -60q18 -6 28 -6q25 0 39 33l17 -8v-361l-17 -8q-28 69 -102.5 114.5t-171.5 59.5v-323zM446 1071q0 -58 50 -96q34 -23 79 -39v272q-2 -1 -7 -2t-7 -2
q-52 -13 -83.5 -51t-31.5 -82zM725 274q77 12 116.5 51t39.5 97q0 42 -33 76t-107 73q-19 12 -53 27v-328q13 0 37 4z" />
    <glyph glyph-name="percent" unicode="%" horiz-adv-x="1501" 
d="M248 0l839 1434h314l-819 -1434h-334zM426 1040q-73 0 -125.5 52.5t-52.5 126.5q0 73 52 125.5t126 52.5q72 0 125 -53t53 -125q0 -74 -52.5 -126.5t-125.5 -52.5zM1223 -18q-74 0 -126.5 52.5t-52.5 125.5t52.5 125.5t126.5 52.5q72 0 125 -53t53 -125q0 -74 -52.5 -126
t-125.5 -52z" />
    <glyph glyph-name="ampersand" unicode="&#x26;" horiz-adv-x="1527" 
d="M1268 862h188v-250h-188v-198q-1 -116 -62.5 -215.5t-163.5 -159.5q-98 -59 -221 -59h-243q-120 0 -220 59.5t-161 163.5q-60 105 -60 223q0 185 129 305q-129 120 -129 301q0 117 58 208.5t159 141.5q101 49 224 52h172v-242h-172q-63 -1 -108.5 -49t-45.5 -111
q0 -67 46.5 -122t107.5 -56h272q59 0 95.5 38.5t37.5 108.5q0 36 -0.5 52t-4.5 38.5t-12 33.5t-23 23t-38 21l8 19h422l11 -19q-24 -10 -37 -21.5t-23 -37.5q0 -7 -8 -31l-3 -35q-3 -35 -5.5 -68.5t-1.5 -33.5v-80zM983 414v198h-405q-60 -1 -107 -59.5t-47 -126.5
q0 -67 46.5 -123t107.5 -57h241q76 0 117 46t47 122z" />
    <glyph glyph-name="quotesingle" unicode="'" horiz-adv-x="491" 
d="M121 846l-45 84q134 59 160 164q-66 1 -112 50.5t-46 115.5q0 73 52 121.5t136 48.5q85 0 135 -56t50 -137q0 -57 -31 -127q-102 -217 -299 -264z" />
    <glyph glyph-name="parenleft" unicode="(" horiz-adv-x="768" 
d="M612 -412q-162 0 -254 86q-96 90 -139 285q-45 193 -45 549q0 362 45 549q40 196 139 284q92 86 254 86q98 0 162 -20v-16q-127 -38 -192 -127q-68 -89 -97 -265q-26 -166 -26 -491q0 -324 26 -490q30 -174 97 -266q70 -91 192 -125v-16q-81 -23 -162 -23z" />
    <glyph glyph-name="parenright" unicode=")" horiz-adv-x="768" 
d="M156 -412q-82 0 -162 23v16q122 34 192 125q67 92 97 266q26 166 26 490q0 325 -26 491q-29 176 -97 265q-65 89 -192 127v16q64 20 162 20q162 0 254 -86q99 -88 139 -284q45 -187 45 -549q0 -356 -45 -549q-43 -195 -139 -285q-92 -86 -254 -86z" />
    <glyph glyph-name="asterisk" unicode="*" horiz-adv-x="948" 
d="M403 930q46 101 52 190q-57 -63 -95 -166l-86 -86l-100 103l86 84q105 38 168 96q-91 -6 -182 -51h-121v143h121q106 -48 188 -51q-61 55 -166 94l-86 84l103 100l84 -81q38 -106 96 -170q-6 91 -51 182v119h143v-119q-48 -106 -51 -191q59 65 94 168l86 84l98 -102
l-82 -82q-109 -41 -172 -98q87 3 185 51h119v-141h-119q-101 46 -191 49q62 -56 168 -95l84 -83l-98 -101l-86 86q-42 107 -98 168q6 -89 51 -184v-119h-142v119z" />
    <glyph glyph-name="plus" unicode="+" horiz-adv-x="1157" 
d="M436 440q61 101 76 195q-95 -15 -195 -74h-217v291h217q101 -61 197 -76q-12 95 -74 195v217h289v-217q-62 -103 -74 -197q93 15 193 74h217v-289h-217q-100 62 -193 74q12 -91 72 -193v-217h-291v217z" />
    <glyph glyph-name="comma" unicode="," horiz-adv-x="626" 
d="M178 -262l-45 84q134 59 160 164q-66 1 -112 50.5t-46 115.5q0 73 53 121.5t138 48.5q134 0 174 -136q8 -21 8 -57q0 -60 -31 -127q-95 -215 -299 -264z" />
    <glyph glyph-name="hyphen" unicode="-" horiz-adv-x="847" 
d="M135 711h578v-267h-578v267z" />
    <glyph glyph-name="period" unicode="." horiz-adv-x="606" 
d="M301 -18q-73 0 -125.5 52t-52.5 126t52.5 126t125.5 52q72 0 125 -53t53 -125q0 -74 -52.5 -126t-125.5 -52z" />
    <glyph glyph-name="slash" unicode="/" horiz-adv-x="704" 
d="M-195 -164l697 1598h272l-676 -1598h-293z" />
    <glyph glyph-name="colon" unicode=":" horiz-adv-x="702" 
d="M352 670q-74 0 -126 52t-52 126t52 126t126 52q72 0 125 -53t53 -125q0 -74 -52 -126t-126 -52zM352 -18q-74 0 -126 52t-52 126t52 126t126 52q72 0 125 -53t53 -125q0 -74 -52 -126t-126 -52z" />
    <glyph glyph-name="semicolon" unicode=";" horiz-adv-x="712" 
d="M352 670q-74 0 -126 52t-52 126t52 126t126 52q72 0 125 -53t53 -125q0 -74 -52 -126t-126 -52zM203 -262l-45 84q133 59 159 164q-65 1 -111 50t-46 116q0 73 52 121.5t136 48.5q85 0 134.5 -56t49.5 -137q0 -59 -30 -127q-102 -217 -299 -264z" />
    <glyph glyph-name="less" unicode="&#x3c;" horiz-adv-x="1157" 
d="M893 225l-787 453v78l787 452l115 -190l-478 -279l-59 -22l59 -23l478 -278z" />
    <glyph glyph-name="equal" unicode="=" horiz-adv-x="1157" 
d="M117 797v225h921v-225h-921zM117 612h921v-225h-921v225z" />
    <glyph glyph-name="greater" unicode="&#x3e;" horiz-adv-x="1157" 
d="M264 225l-114 191l477 278l59 23l-59 22l-477 279l114 190l787 -452v-78z" />
    <glyph glyph-name="question" unicode="?" horiz-adv-x="995" 
d="M367 422q-11 68 -11 110q0 47 11 84q27 80 67 132l27 30q143 174 196 262q25 42 25 97q0 70 -48 114.5t-140 44.5q-96 0 -180 -85.5t-93 -186.5l-26 12v398l20 12q0 -2 0.5 -6t2 -11t5 -9t8.5 1l39 31q122 98 293 98q100 0 187 -38t141 -107q82 -107 82 -234
q0 -185 -176 -358q-114 -108 -187 -213.5t-73 -177.5h-170zM471 -16q-73 0 -125.5 52t-52.5 126q0 73 52 124.5t126 51.5q72 0 125 -52t53 -124q0 -74 -52.5 -126t-125.5 -52z" />
    <glyph glyph-name="at" unicode="@" horiz-adv-x="1855" 
d="M301 0q-96 103 -143 213.5t-47 257.5q0 113 26 234q61 229 200.5 391.5t326.5 244.5q179 78 354 78q10 0 76 -4q185 -13 313 -88t188 -184q53 -104 45 -176q-12 -140 -69 -549q-46 -340 -51 -416h-322l19 156q-41 -79 -95 -115.5t-129 -36.5h-26q-100 0 -181 94
q-73 82 -73 230q0 174 94 323q102 157 262 244q136 73 291 88q-59 62 -147 107t-199 45q-116 0 -248 -66q-101 -51 -179.5 -149.5t-121.5 -223t-43 -254.5q0 -272 172 -444h-293zM1171 213q33 0 56 10l78 522q-6 1 -12.5 2t-11 2t-7.5 1q-61 0 -121 -54q-51 -51 -80 -123
q-33 -82 -33 -204q0 -76 35 -117q36 -39 96 -39z" />
    <glyph glyph-name="A" unicode="A" horiz-adv-x="1318" 
d="M1239 289q83 -235 172 -271l-10 -18h-461l-10 18q23 6 32 18.5t9 37.5q0 15 -6.5 48t-13.5 62t-16.5 64.5t-10.5 40.5l-31 104h-455l-30 -104q-52 -164 -52 -211q0 -25 9 -39t32 -21l-8 -18h-463l-8 18q36 13 81 81.5t93 189.5q134 325 307 827q50 143 60 178
q16 56 16 82q0 30 -20 39l10 19h420l10 -19q-21 -9 -21 -35q0 -24 15 -71q17 -67 45 -138l18 -55q164 -486 287 -827zM821 633l-147 426l-162 -426h309z" />
    <glyph glyph-name="B" unicode="B" horiz-adv-x="1325" 
d="M1010 844q245 -82 245 -412q0 -151 -65.5 -249.5t-171.5 -141.5q-103 -41 -195 -41h-702l-10 18q48 19 62.5 68t14.5 160v942q0 111 -14.5 159.5t-62.5 67.5l10 19h610q408 0 408 -353q0 -75 -42.5 -152t-86.5 -85zM717 1194h-244v-236h244q78 0 112.5 29t34.5 92
q0 61 -34 88t-113 27zM717 246q140 0 203 55.5t63 173.5q0 115 -66.5 178.5t-199.5 63.5h-244v-471h244z" />
    <glyph glyph-name="C" unicode="C" horiz-adv-x="1314" 
d="M776 -20q-200 0 -371 100t-270 272q-100 166 -100 369q0 197 99 366t272 269q168 98 370 98q78 0 170 -12q98 -19 174 -56q39 -20 54 -20q5 0 9 5t8 15.5t5 12.5l18 -10v-365l-18 -8q-14 41 -81.5 92.5t-168.5 81.5q-86 18 -170 18q-132 0 -232.5 -68.5t-154.5 -185.5
q-53 -115 -53 -235q0 -127 53.5 -239t151.5 -183q101 -72 235 -72q76 0 150 27q89 28 185.5 122.5t115.5 157.5l18 -8v-374q-58 -47 -129 -84q-81 -43 -190 -70q-82 -16 -150 -16z" />
    <glyph glyph-name="D" unicode="D" horiz-adv-x="1417" 
d="M37 0l-8 16q45 14 60 67.5t15 162.5v942q0 109 -15 162t-60 67l8 17h571q200 0 370.5 -94t270.5 -257q99 -163 99 -362q0 -197 -99 -363t-270 -262q-172 -96 -371 -96h-571zM608 246q133 0 234 64.5t153 176.5q52 107 52 232t-52 231.5t-149 171.5q-104 66 -238 66h-219
v-942h219z" />
    <glyph glyph-name="E" unicode="E" horiz-adv-x="1345" 
d="M1227 322l16 -9l-78 -313h-1048l-6 14q27 0 51 52q24 53 24 180v942q0 135 -20 182q-21 47 -55 47l6 17h942l41 -308l-17 -8q-27 76 -133 76h-479v-231h180q139 0 183 20q45 20 45 57l18 -10v-364l-18 -11q0 38 -45 58q-44 20 -183 20h-180v-487h578q151 0 178 76z" />
    <glyph glyph-name="F" unicode="F" horiz-adv-x="1081" 
d="M971 1434l41 -308l-17 -8q-27 76 -133 76h-391v-231h180q139 0 183 20q45 20 45 57l18 -10v-364l-18 -11q0 38 -45 58q-44 20 -183 20h-180v-487q0 -110 15 -159.5t63 -68.5l-8 -18h-422l-8 18q47 18 61 68t14 160v942q0 110 -14 159.5t-61 67.5l8 19h852z" />
    <glyph glyph-name="G" unicode="G" horiz-adv-x="1425" 
d="M776 -20q-200 0 -371 100t-270 272q-100 166 -100 369q0 197 99 366t272 269q168 98 370 98q78 0 170 -12q119 -21 215 -68q30 -12 53 -12t41 11t23 24l18 -15l-84 -381l-18 -8q-14 46 -81.5 104t-166.5 87q-101 24 -170 24q-132 0 -232.5 -68.5t-154.5 -185.5
q-53 -115 -53 -235q0 -125 55 -238t154 -184q104 -72 231 -72q43 0 110 10.5t99 22.5q34 12 57 25v266h-96q-54 0 -73 -7t-29 -32l-15 8v279h521l6 -15q-35 -13 -43 -56.5t-8 -149.5v-8v-8v-9v-381q-58 -47 -129 -84q-121 -63 -191 -80q-118 -26 -209 -26z" />
    <glyph glyph-name="H" unicode="H" horiz-adv-x="1370" 
d="M121 0l-10 18q48 19 62.5 68t14.5 160v942q0 111 -14.5 159.5t-62.5 67.5l10 19h420l10 -19q-47 -18 -62.5 -69.5t-15.5 -161.5v-160h293q56 2 94.5 40.5t38.5 119.5q0 110 -15.5 161.5t-62.5 69.5l8 19h422l11 -19q-48 -19 -63 -68t-15 -159v-942q0 -110 15 -159.5
t63 -68.5l-11 -18h-422l-8 18q48 19 63 68.5t15 159.5v526h-293q-56 -2 -94.5 -40.5t-38.5 -119.5v-366q0 -110 15 -159.5t63 -68.5l-10 -18h-420z" />
    <glyph glyph-name="I" unicode="I" horiz-adv-x="653" 
d="M121 0l-10 18q48 19 62.5 68t14.5 160v942q0 111 -14.5 159.5t-62.5 67.5l10 19h420l10 -19q-48 -19 -63 -68t-15 -159v-942q0 -110 15 -159.5t63 -68.5l-10 -18h-420z" />
    <glyph glyph-name="J" unicode="J" horiz-adv-x="1165" 
d="M424 -20q-79 0 -215 43q-21 6 -33 6q-26 0 -41 -37l-18 10v496l24 22q38 -150 89 -206t145 -56q120 0 166.5 67t46.5 220v643q0 110 -15 159t-63 68l10 19h420l10 -19q-48 -19 -63 -68t-15 -159v-649q0 -143 -28 -267q-15 -62 -46 -113t-80.5 -92t-124.5 -64t-169 -23z
" />
    <glyph glyph-name="K" unicode="K" horiz-adv-x="1499" 
d="M1255 119q90 -93 111 -96l-2 -23h-479l2 25q3 3 16 6q15 3 15 26q0 28 -48 101l-397 567v-479q0 -110 14.5 -160t61.5 -68l-8 -18h-422l-8 18q48 19 62.5 68t14.5 160v942q0 111 -14.5 159.5t-62.5 67.5l8 19h422l8 -19q-47 -18 -61.5 -68t-14.5 -159v-225
q213 179 356 317q50 47 50 80q0 18 -14.5 30.5t-26 15.5t-15.5 3l-2 25h508l6 -25q-42 0 -155 -96q-111 -99 -365 -344l-115 -113l390 -541q75 -103 165 -196z" />
    <glyph glyph-name="L" unicode="L" horiz-adv-x="1251" 
d="M1128 322l17 -9l-78 -313h-948l-6 14q27 0 51 52q24 53 24 180v942q0 111 -14.5 159.5t-62.5 67.5l10 19h420l10 -19q-48 -19 -63 -68t-15 -159v-942h477q151 0 178 76z" />
    <glyph glyph-name="M" unicode="M" horiz-adv-x="1624" 
d="M1454 246q0 -110 15 -159.5t63 -68.5l-10 -18h-420l-10 18q48 19 62.5 68t14.5 160v612l-329 -817h-37l-330 817v-612q0 -110 15 -159.5t63 -68.5l-10 -18h-422l-8 18q48 19 62.5 68t14.5 160v942q0 111 -14.5 159.5t-62.5 67.5l8 19h459l8 -19l-4 -2q-29 -10 -29 -41
q0 -18 12 -53q3 -8 62 -162q45 -122 194 -495q128 332 133 344q65 170 86 221l37 92q13 37 13 53q0 34 -35 43l10 19h457l10 -19q-48 -19 -63 -68t-15 -159v-942z" />
    <glyph glyph-name="N" unicode="N" horiz-adv-x="1505" 
d="M119 0l-8 18q47 18 61 68t14 160v942q0 110 -14 159.5t-61 67.5l8 19h383l8 -19q-16 -7 -29.5 -24.5t-13.5 -40.5q0 -14 6 -29q17 -43 92 -166q81 -133 194 -264t234 -217v514q0 110 -15 159t-63 68l11 19h420l10 -19q-48 -19 -63 -68t-15 -159v-942q0 -110 15 -159.5
t63 -68.5l-10 -18h-420l-11 18q22 9 36.5 21t23 25.5t12.5 39.5t5 51t1 72v66q-121 56 -237 160q-107 94 -184.5 196.5t-98.5 165.5v-569q0 -110 14.5 -160t61.5 -68l-8 -18h-422z" />
    <glyph glyph-name="O" unicode="O" 
d="M776 -20q-153 0 -291 60t-236 160.5t-156 237t-58 283.5q0 200 99.5 368.5t270 266.5t371.5 98q199 0 369 -97t270.5 -266t100.5 -370q0 -150 -58.5 -287.5t-157.5 -236.5t-236 -158t-288 -59zM776 225q97 0 180 40t139 108t87.5 157.5t31.5 188.5q0 134 -53 245
t-154 177.5t-231 66.5q-97 0 -180.5 -40t-139.5 -107.5t-88 -156t-32 -185.5q0 -132 54 -244.5t156 -181t230 -68.5z" />
    <glyph glyph-name="P" unicode="P" horiz-adv-x="1239" 
d="M731 1434q215 0 311.5 -102t96.5 -308q0 -135 -58.5 -224t-156.5 -128q-90 -37 -193 -37h-258v-389q0 -110 15 -159.5t63 -68.5l-10 -18h-420l-10 18q48 19 62.5 68t14.5 160v942q0 111 -14.5 159.5t-62.5 67.5l10 19h610zM680 877q31 0 50.5 1.5t48 9.5t44.5 22.5
t28.5 43.5t12.5 70q0 97 -46.5 133.5t-137.5 36.5h-207v-317h207z" />
    <glyph glyph-name="Q" unicode="Q" 
d="M1223 -174q-124 0 -247.5 42.5t-205.5 111.5q-201 2 -370 101.5t-267 269t-98 370.5q0 200 99.5 368.5t270 266.5t371.5 98q199 0 369 -97t270.5 -266t100.5 -370q0 -190 -91.5 -354.5t-248.5 -268.5q68 -26 153 -26q46 0 81 10.5t44 28.5h55l-120 -263q-83 -22 -166 -22
zM776 225q132 0 233 69.5t154 186.5q51 111 51 238q0 134 -53 245t-154 177.5t-231 66.5q-97 0 -180.5 -40t-139.5 -107.5t-88 -156t-32 -185.5q0 -132 54 -244.5t156 -181t230 -68.5z" />
    <glyph glyph-name="R" unicode="R" horiz-adv-x="1300" 
d="M1192 51q27 -27 59 -31l-6 -20h-354l-273 676h-145v-430q0 -110 15 -159.5t63 -68.5l-10 -18h-420l-10 18q48 19 62.5 68t14.5 160v942q0 111 -14.5 159.5t-62.5 67.5l10 19h610q204 0 306 -107t102 -283q0 -129 -69.5 -217.5t-186.5 -126.5l217 -505q55 -107 92 -144z
M473 1194v-276h207q48 0 85.5 9t68 38.5t30.5 78.5q0 82 -48.5 116t-135.5 34h-207z" />
    <glyph glyph-name="S" unicode="S" horiz-adv-x="1161" 
d="M623 -23q-136 0 -278.5 43.5t-223.5 96.5q-20 14 -35 14q-23 0 -35 -37l-16 10v433l16 8q14 -65 107.5 -131t211.5 -106t208 -40q111 0 176 37.5t65 116.5q0 134 -346 219q-98 24 -168.5 53.5t-126.5 74t-84 109.5t-28 150q0 186 141 307t346 121q157 0 348 -72
q18 -6 29 -6q25 0 39 33l16 -8v-361l-16 -8q-35 87 -139 135t-228 48q-55 0 -102 -13q-52 -13 -83.5 -51t-31.5 -82q0 -29 12 -52t28.5 -38t47.5 -29t55.5 -22t67.5 -19l84 -22q237 -72 337.5 -204.5t67.5 -344.5q-28 -150 -165 -256.5t-297 -106.5z" />
    <glyph glyph-name="T" unicode="T" horiz-adv-x="1329" 
d="M1186 1434l41 -308l-17 -8q-27 76 -133 76h-260v-948q0 -110 15 -159.5t63 -68.5l-10 -18h-420l-10 18q48 19 62.5 68t14.5 160v948h-260q-106 0 -133 -76l-16 8l41 308h1022z" />
    <glyph glyph-name="U" unicode="U" horiz-adv-x="1472" 
d="M745 -20q-123 0 -221.5 30t-164.5 84t-108 120.5t-63 147.5q-41 155 -41 334v494q0 110 -14 158.5t-61 66.5l8 19h422l8 -19q-46 -20 -61 -66t-15 -149l-2 -452q0 -84 8 -153t29.5 -134.5t56.5 -109.5t91 -70.5t131 -26.5q80 0 140 26t96 69.5t58 109t29.5 134t7.5 155.5
v450q0 106 -14 152t-61 65l8 19h69l4 -2v2h349l8 -19q-47 -18 -61.5 -67t-14.5 -158v-494q0 -98 -9 -175.5t-32 -156.5t-67.5 -147t-110.5 -123q-138 -114 -402 -114z" />
    <glyph glyph-name="V" unicode="V" horiz-adv-x="1388" 
d="M1423 1434l9 -17q-36 -13 -82 -81.5t-93 -188.5q-147 -368 -305 -830q-73 -204 -73 -260q0 -30 20 -39l-10 -18h-420l-10 18q18 9 18 33q0 23 -16.5 79t-38 117t-23.5 68q-162 472 -198 572l-90 256q-83 235 -172 272l10 19h461l10 -19q-23 -6 -32 -18t-9 -37
q0 -72 151 -559l150 -432l231 671q82 276 82 316q0 25 -9 38.5t-32 20.5l9 19h462z" />
    <glyph glyph-name="W" unicode="W" horiz-adv-x="1935" 
d="M1890 1434l11 -19q-38 -16 -78.5 -83.5t-75.5 -186.5q-58 -203 -137 -461l-109 -367q-32 -99 -45 -161q-14 -55 -14 -88q0 -41 24 -50l-10 -18h-278l-11 18q27 9 27 54q0 59 -59 245l-179 560q-19 -67 -108 -347l-68 -213q-31 -99 -45 -165q-14 -52 -14 -86q0 -39 24 -48
l-8 -18h-278l-10 18q24 9 24 50q0 30 -12 88q-24 90 -47 161q-120 398 -246 828q-35 119 -75.5 186.5t-78.5 83.5l9 19h421l9 -19q-45 -17 -45 -94q0 -76 32 -176l156 -563l156 563q30 108 30 176q0 77 -45 94l6 12l5 7h419l11 -19q-45 -17 -45 -94q0 -68 30 -176l156 -563
l156 563q30 108 30 174q0 79 -45 96l10 19h420z" />
    <glyph glyph-name="X" unicode="X" horiz-adv-x="1243" 
d="M51 0l-10 18q27 11 82 91q46 67 131 237l209 418q-110 215 -168 334q-80 160 -143 229q-64 70 -111 88l10 19h420l10 -19q-12 -6 -12 -20q0 -28 55 -123q53 -99 76 -148l21 -43q17 31 22 43q23 49 76 148q55 95 55 123q0 14 -12 20l10 19h420l10 -19q-43 -16 -108 -88
q-69 -76 -146 -229l-168 -334l209 -418q85 -170 131 -237q55 -80 82 -91l-10 -18h-420l-10 18q20 9 20 37q0 63 -98 260l-63 127l-62 -127q-98 -197 -98 -260q0 -28 20 -37l-10 -18h-420z" />
    <glyph glyph-name="Y" unicode="Y" horiz-adv-x="1351" 
d="M1251 1434l9 -19q-62 -23 -213 -330q-56 -109 -101 -192q-60 -110 -78 -150l-49 -92v-405q0 -110 14.5 -160t61.5 -68l-8 -18h-422l-8 18q47 18 61 68t14 160v405l-49 92q-24 52 -77 150q-45 83 -101 192q-82 168 -131 240q-54 79 -82 90l8 19h402l10 -19q-20 -6 -20 -37
q0 -40 47 -149l45 -101l92 -206l137 307q47 109 47 149q0 31 -20 37l10 19h401z" />
    <glyph glyph-name="Z" unicode="Z" horiz-adv-x="1314" 
d="M1169 260q39 17 54 55l28 -8l-43 -307h-1136l737 1194h-465q-102 0 -143 -18q-39 -20 -54 -58l-28 8l43 308h1110l-737 -1194h491q104 0 143 20z" />
    <glyph glyph-name="bracketleft" unicode="[" horiz-adv-x="663" 
d="M147 1434h480v-154h-213v-1597h213v-154h-480v1905z" />
    <glyph glyph-name="bracketright" unicode="]" horiz-adv-x="663" 
d="M37 -317h213v1597h-213v154h479v-1905h-479v154z" />
    <glyph glyph-name="underscore" unicode="_" horiz-adv-x="839" 
d="M0 -197h840v-204h-840v204z" />
    <glyph glyph-name="a" unicode="a" horiz-adv-x="1318" 
d="M-74 0l-8 18q36 13 81 81.5t93 189.5q134 325 307 827q50 143 60 178q16 56 16 82q0 30 -20 39l10 19h420l10 -19q-21 -9 -21 -35q0 -24 15 -71q17 -67 45 -138l18 -55q164 -486 287 -827q83 -235 172 -271l-10 -18h-461l-10 18q23 6 32 18.5t9 37.5q0 15 -6.5 48
t-13.5 62t-16.5 64.5t-10.5 40.5l-31 104h-455l-30 -104q-52 -164 -52 -211q0 -25 9 -39t32 -21l-8 -18h-463zM821 633l-147 426l-162 -426h309z" />
    <glyph glyph-name="b" unicode="b" horiz-adv-x="1325" 
d="M121 0l-10 18q48 19 62.5 68t14.5 160v942q0 111 -14.5 159.5t-62.5 67.5l10 19h610q408 0 408 -353q0 -75 -42.5 -152t-86.5 -85q245 -82 245 -412q0 -151 -65.5 -249.5t-171.5 -141.5q-103 -41 -195 -41h-702zM473 958h244q78 0 112.5 29t34.5 92q0 61 -34 88t-113 27
h-244v-236zM717 246q140 0 203 55.5t63 173.5q0 115 -66.5 178.5t-199.5 63.5h-244v-471h244z" />
    <glyph glyph-name="c" unicode="c" horiz-adv-x="1314" 
d="M776 -20q-200 0 -371 100t-270 272q-100 166 -100 369q0 197 99 366t272 269q168 98 370 98q78 0 170 -12q98 -19 174 -56q39 -20 54 -20q5 0 9 5t8 15.5t5 12.5l18 -10v-365l-18 -8q-14 41 -81.5 92.5t-168.5 81.5q-86 18 -170 18q-132 0 -232.5 -68.5t-154.5 -185.5
q-53 -115 -53 -235q0 -127 53.5 -239t151.5 -183q101 -72 235 -72q76 0 150 27q89 28 185.5 122.5t115.5 157.5l18 -8v-374q-58 -47 -129 -84q-81 -43 -190 -70q-82 -16 -150 -16z" />
    <glyph glyph-name="d" unicode="d" horiz-adv-x="1417" 
d="M37 0l-8 16q45 14 60 67.5t15 162.5v942q0 109 -15 162t-60 67l8 17h571q200 0 370.5 -94t270.5 -257q99 -163 99 -362q0 -197 -99 -363t-270 -262q-172 -96 -371 -96h-571zM608 246q133 0 234 64.5t153 176.5q52 107 52 232t-52 231.5t-149 171.5q-104 66 -238 66h-219
v-942h219z" />
    <glyph glyph-name="e" unicode="e" horiz-adv-x="1345" 
d="M117 0l-6 14q27 0 51 52q24 53 24 180v942q0 135 -20 182q-21 47 -55 47l6 17h942l41 -308l-17 -8q-27 76 -133 76h-479v-231h180q139 0 183 20q45 20 45 57l18 -10v-364l-18 -11q0 38 -45 58q-44 20 -183 20h-180v-487h578q151 0 178 76l16 -9l-78 -313h-1048z" />
    <glyph glyph-name="f" unicode="f" horiz-adv-x="1081" 
d="M119 0l-8 18q47 18 61 68t14 160v942q0 110 -14 159.5t-61 67.5l8 19h852l41 -308l-17 -8q-27 76 -133 76h-391v-231h180q139 0 183 20q45 20 45 57l18 -10v-364l-18 -11q0 38 -45 58q-44 20 -183 20h-180v-487q0 -110 15 -159.5t63 -68.5l-8 -18h-422z" />
    <glyph glyph-name="g" unicode="g" horiz-adv-x="1425" 
d="M776 -20q-200 0 -371 100t-270 272q-100 166 -100 369q0 197 99 366t272 269q168 98 370 98q78 0 170 -12q119 -21 215 -68q30 -12 53 -12t41 11t23 24l18 -15l-84 -381l-18 -8q-14 46 -81.5 104t-166.5 87q-101 24 -170 24q-132 0 -232.5 -68.5t-154.5 -185.5
q-53 -115 -53 -235q0 -125 55 -238t154 -184q104 -72 231 -72q43 0 110 10.5t99 22.5q34 12 57 25v266h-96q-54 0 -73 -7t-29 -32l-15 8v279h521l6 -15q-35 -13 -43 -56.5t-8 -149.5v-8v-8v-9v-381q-58 -47 -129 -84q-121 -63 -191 -80q-118 -26 -209 -26z" />
    <glyph glyph-name="h" unicode="h" horiz-adv-x="1370" 
d="M121 0l-10 18q48 19 62.5 68t14.5 160v942q0 111 -14.5 159.5t-62.5 67.5l10 19h420l10 -19q-47 -18 -62.5 -69.5t-15.5 -161.5v-160h293q56 2 94.5 40.5t38.5 119.5q0 110 -15.5 161.5t-62.5 69.5l8 19h422l11 -19q-48 -19 -63 -68t-15 -159v-942q0 -110 15 -159.5
t63 -68.5l-11 -18h-422l-8 18q48 19 63 68.5t15 159.5v526h-293q-56 -2 -94.5 -40.5t-38.5 -119.5v-366q0 -110 15 -159.5t63 -68.5l-10 -18h-420z" />
    <glyph glyph-name="i" unicode="i" horiz-adv-x="653" 
d="M121 0l-10 18q48 19 62.5 68t14.5 160v942q0 111 -14.5 159.5t-62.5 67.5l10 19h420l10 -19q-48 -19 -63 -68t-15 -159v-942q0 -110 15 -159.5t63 -68.5l-10 -18h-420z" />
    <glyph glyph-name="j" unicode="j" horiz-adv-x="1165" 
d="M424 -20q-79 0 -215 43q-21 6 -33 6q-26 0 -41 -37l-18 10v496l24 22q38 -150 89 -206t145 -56q120 0 166.5 67t46.5 220v643q0 110 -15 159t-63 68l10 19h420l10 -19q-48 -19 -63 -68t-15 -159v-649q0 -143 -28 -267q-15 -62 -46 -113t-80.5 -92t-124.5 -64t-169 -23z
" />
    <glyph glyph-name="k" unicode="k" horiz-adv-x="1499" 
d="M119 0l-8 18q48 19 62.5 68t14.5 160v942q0 111 -14.5 159.5t-62.5 67.5l8 19h422l8 -19q-47 -18 -61.5 -68t-14.5 -159v-225q213 179 356 317q50 47 50 80q0 18 -14.5 30.5t-26 15.5t-15.5 3l-2 25h508l6 -25q-42 0 -155 -96q-111 -99 -365 -344l-115 -113l390 -541
q75 -103 165 -196t111 -96l-2 -23h-479l2 25q3 3 16 6q15 3 15 26q0 28 -48 101l-397 567v-479q0 -110 14.5 -160t61.5 -68l-8 -18h-422z" />
    <glyph glyph-name="l" unicode="l" horiz-adv-x="1251" 
d="M119 0l-6 14q27 0 51 52q24 53 24 180v942q0 111 -14.5 159.5t-62.5 67.5l10 19h420l10 -19q-48 -19 -63 -68t-15 -159v-942h477q151 0 178 76l17 -9l-78 -313h-948z" />
    <glyph glyph-name="m" unicode="m" horiz-adv-x="1624" 
d="M119 0l-8 18q48 19 62.5 68t14.5 160v942q0 111 -14.5 159.5t-62.5 67.5l8 19h459l8 -19l-4 -2q-29 -10 -29 -41q0 -18 12 -53q3 -8 62 -162q45 -122 194 -495q128 332 133 344q65 170 86 221l37 92q13 37 13 53q0 34 -35 43l10 19h457l10 -19q-48 -19 -63 -68t-15 -159
v-942q0 -110 15 -159.5t63 -68.5l-10 -18h-420l-10 18q48 19 62.5 68t14.5 160v612l-329 -817h-37l-330 817v-612q0 -110 15 -159.5t63 -68.5l-10 -18h-422z" />
    <glyph glyph-name="n" unicode="n" horiz-adv-x="1505" 
d="M119 0l-8 18q47 18 61 68t14 160v942q0 110 -14 159.5t-61 67.5l8 19h383l8 -19q-16 -7 -29.5 -24.5t-13.5 -40.5q0 -14 6 -29q17 -43 92 -166q81 -133 194 -264t234 -217v514q0 110 -15 159t-63 68l11 19h420l10 -19q-48 -19 -63 -68t-15 -159v-942q0 -110 15 -159.5
t63 -68.5l-10 -18h-420l-11 18q22 9 36.5 21t23 25.5t12.5 39.5t5 51t1 72v66q-121 56 -237 160q-107 94 -184.5 196.5t-98.5 165.5v-569q0 -110 14.5 -160t61.5 -68l-8 -18h-422z" />
    <glyph glyph-name="o" unicode="o" 
d="M776 -20q-200 0 -371 100t-270 272q-100 166 -100 369q0 197 99 366t272 269q168 98 370 98q199 0 369.5 -99t271.5 -268q99 -169 99 -366q0 -198 -99 -369.5t-270 -271.5q-166 -100 -371 -100zM776 225q132 0 233 69.5t154 186.5q51 111 51 238t-52 239t-148 181
q-100 69 -238 69q-132 0 -232.5 -68.5t-154.5 -185.5q-53 -115 -53 -235q0 -127 53.5 -239t151.5 -183q101 -72 235 -72z" />
    <glyph glyph-name="p" unicode="p" horiz-adv-x="1239" 
d="M121 0l-10 18q48 19 62.5 68t14.5 160v942q0 111 -14.5 159.5t-62.5 67.5l10 19h610q215 0 311.5 -102t96.5 -308q0 -135 -58.5 -224t-156.5 -128q-90 -37 -193 -37h-258v-389q0 -110 15 -159.5t63 -68.5l-10 -18h-420zM680 877q31 0 50.5 1.5t48 9.5t44.5 22.5
t28.5 43.5t12.5 70q0 97 -46.5 133.5t-137.5 36.5h-207v-317h207z" />
    <glyph glyph-name="q" unicode="q" 
d="M1223 -174q-124 0 -247.5 42.5t-205.5 111.5q-200 1 -369 101t-268 271q-98 168 -98 369q0 197 99 366t272 269q168 98 370 98q199 0 369.5 -99t271.5 -268q99 -169 99 -366q0 -190 -91.5 -354.5t-248.5 -268.5q29 -10 77 -20q43 -6 76 -6q46 0 81 10.5t44 28.5h55
l-120 -263q-83 -22 -166 -22zM776 225q132 0 233 69.5t154 186.5q51 111 51 238t-52 239t-148 181q-100 69 -238 69q-132 0 -232.5 -68.5t-154.5 -185.5q-53 -115 -53 -235q0 -127 53.5 -239t151.5 -183q101 -72 235 -72z" />
    <glyph glyph-name="r" unicode="r" horiz-adv-x="1300" 
d="M121 0l-10 18q48 19 62.5 68t14.5 160v942q0 111 -14.5 159.5t-62.5 67.5l10 19h610q204 0 306 -107t102 -283q0 -129 -69.5 -217.5t-186.5 -126.5l217 -505q55 -107 92 -144q27 -27 59 -31l-6 -20h-354l-273 676h-145v-430q0 -110 15 -159.5t63 -68.5l-10 -18h-420z
M680 918q48 0 85.5 9t68 38.5t30.5 78.5q0 82 -48.5 116t-135.5 34h-207v-276h207z" />
    <glyph glyph-name="s" unicode="s" horiz-adv-x="1163" 
d="M623 -23q-136 0 -278.5 43.5t-223.5 96.5q-20 14 -35 14q-23 0 -35 -37l-16 10v433l16 8q6 -27 35.5 -58.5t97.5 -89.5q68 -54 175 -91.5t219 -37.5q42 0 86 6q77 12 116 51t39 97q0 42 -32.5 76t-106.5 73q-24 15 -58.5 27.5t-59 19t-89.5 23.5q-107 27 -168.5 51.5
t-116.5 67.5q-58 46 -92 121q-30 73 -30 147q0 93 44.5 180.5t122.5 149.5q74 60 168 82q72 16 152 16q157 0 348 -72q18 -6 29 -6q25 0 39 33l16 -8v-361l-16 -8q-35 87 -139 135t-228 48q-55 0 -102 -13q-52 -13 -83.5 -51t-31.5 -82q0 -59 49 -96q38 -30 162 -64l84 -22
q416 -127 416 -443q0 -34 -11 -106q-17 -94 -85.5 -178t-168.5 -133q-101 -52 -208 -52z" />
    <glyph glyph-name="t" unicode="t" horiz-adv-x="1308" 
d="M444 0l-10 18q48 19 63 68.5t15 159.5v948h-260q-106 0 -133 -76l-17 8l41 308h1022l41 -308l-16 -8q-27 76 -133 76h-260v-948q0 -111 14.5 -160t62.5 -68l-10 -18h-420z" />
    <glyph glyph-name="u" unicode="u" horiz-adv-x="1472" 
d="M745 -20q-123 0 -221.5 30t-164.5 84t-108 120.5t-63 147.5q-41 155 -41 334v494q0 110 -14 158.5t-61 66.5l8 19h422l8 -19q-46 -20 -61 -66t-15 -149l-2 -452q0 -84 8 -153t29.5 -134.5t56.5 -109.5t91 -70.5t131 -26.5q80 0 140 26t96 69.5t58 109t29.5 134t7.5 155.5
v450q0 106 -14 152t-61 65l8 19h69l4 -2v2h349l8 -19q-47 -18 -61.5 -67t-14.5 -158v-494q0 -98 -9 -175.5t-32 -156.5t-67.5 -147t-110.5 -123q-138 -114 -402 -114z" />
    <glyph glyph-name="v" unicode="v" horiz-adv-x="1388" 
d="M469 0l-10 18q18 9 18 33q0 39 -55 199q-8 22 -10 35l-13 30q-162 472 -198 572l-90 256q-83 235 -172 272l10 19h461l10 -19q-23 -6 -32 -18t-9 -37q0 -44 47 -215q65 -217 104 -344l150 -434l231 673l31 105q51 161 51 211q0 25 -9 38.5t-32 20.5l9 19h462l9 -17
q-36 -13 -82 -81.5t-93 -188.5q-147 -368 -305 -830q-39 -110 -55 -172q-18 -58 -18 -88t20 -39l-10 -18h-420z" />
    <glyph glyph-name="w" unicode="w" horiz-adv-x="1935" 
d="M459 0l-10 18q24 9 24 50q0 30 -12 88q-24 90 -47 161q-120 398 -246 828q-35 119 -75.5 186.5t-78.5 83.5l9 19h421l9 -19q-45 -17 -45 -94q0 -76 32 -176l156 -565l156 565q30 108 30 176q0 77 -45 94l6 12l5 7h419l11 -19q-45 -17 -45 -94q0 -68 30 -176l156 -565
l156 565q30 108 30 174q0 79 -45 96l10 19h420l11 -19q-38 -16 -78.5 -83.5t-75.5 -186.5q-58 -203 -137 -461l-109 -367q-32 -99 -45 -161q-14 -55 -14 -88q0 -41 24 -50l-10 -18h-278l-11 18q27 9 27 54q0 59 -59 245l-179 562q-14 -49 -108 -349l-68 -213
q-31 -99 -45 -165q-14 -52 -14 -86q0 -39 24 -48l-8 -18h-278z" />
    <glyph glyph-name="x" unicode="x" horiz-adv-x="1243" 
d="M51 0l-10 18q27 11 82 91q46 67 131 237l209 418q-110 215 -168 334q-80 160 -143 229q-64 70 -111 88l10 19h420l10 -19q-12 -6 -12 -20q0 -28 55 -123q53 -99 76 -148l21 -43q17 31 22 43q23 49 76 148q55 95 55 123q0 14 -12 20l10 19h420l10 -19q-43 -16 -108 -88
q-69 -76 -146 -229l-168 -334l209 -418q85 -170 131 -237q55 -80 82 -91l-10 -18h-420l-10 18q20 9 20 37q0 63 -98 260l-63 127l-62 -127q-98 -197 -98 -260q0 -28 20 -37l-10 -18h-420z" />
    <glyph glyph-name="y" unicode="y" horiz-adv-x="1351" 
d="M465 0l-8 18q47 18 61 68t14 160v405l-49 92q-24 52 -77 150q-45 83 -101 192q-82 168 -131 240q-54 79 -82 90l8 19h402l10 -19q-20 -6 -20 -37q0 -40 47 -149l45 -101l92 -206l137 307q47 109 47 149q0 31 -20 37l10 19h401l9 -19q-62 -23 -213 -330
q-56 -109 -101 -192q-60 -110 -78 -150l-49 -92v-405q0 -110 14.5 -160t61.5 -68l-8 -18h-422z" />
    <glyph glyph-name="z" unicode="z" horiz-adv-x="1314" 
d="M72 0l735 1194h-463q-102 0 -143 -18q-39 -20 -54 -58l-28 8l43 308h1110l-735 -1194h489q104 0 143 20q39 17 54 55l28 -8l-43 -307h-1136z" />
    <glyph glyph-name="braceleft" unicode="{" horiz-adv-x="724" 
d="M543 -471q-148 0 -228 80q-77 83 -77 237v424q0 85 -31 136q-35 44 -105 65v21q71 21 105 67q31 51 31 133v426q0 153 77 236q80 80 228 80q68 0 151 -25v-27q-70 -21 -110 -61q-44 -37 -58 -96q-18 -71 -18 -181v-258q0 -131 -59 -208q-59 -72 -162 -95v-4
q103 -18 162 -92q59 -77 59 -209v-260q0 -154 41 -231q41 -74 145 -107v-26q-73 -25 -151 -25z" />
    <glyph glyph-name="bar" unicode="|" horiz-adv-x="481" 
d="M125 1434h225v-1700h-225v1700z" />
    <glyph glyph-name="braceright" unicode="}" horiz-adv-x="724" 
d="M182 -471q-78 0 -151 25v26q104 33 145 107q41 77 41 231v260q0 132 59 209q59 74 162 92v4q-103 23 -162 95q-59 77 -59 208v258q0 100 -18 170q-21 78 -58 107q-40 40 -110 61v27q83 25 151 25q148 0 228 -80q77 -83 77 -236v-426q0 -82 31 -133q34 -46 105 -67v-21
q-70 -21 -105 -65q-31 -51 -31 -136v-424q0 -154 -77 -237q-80 -80 -228 -80z" />
    <glyph glyph-name="uni00A0" unicode="&#xa0;" horiz-adv-x="552" 
 />
    <glyph glyph-name="exclamdown" unicode="&#xa1;" horiz-adv-x="704" 
d="M348 684q-74 0 -126 51.5t-52 124.5q0 74 52 126t126 52t126 -52t52 -126q0 -72 -53 -124t-125 -52zM174 -412l57 410l25 555h184l25 -555l57 -410h-348z" />
    <glyph glyph-name="dieresis" unicode="&#xa8;" horiz-adv-x="1034" 
d="M281 1552q-61 0 -104.5 43t-43.5 105q0 61 43 104t105 43q60 0 103.5 -43.5t43.5 -103.5q0 -62 -43 -105t-104 -43zM723 1552q-61 0 -104.5 43t-43.5 105q0 61 43 104t105 43q60 0 103.5 -43.5t43.5 -103.5q0 -62 -43 -105t-104 -43z" />
    <glyph glyph-name="copyright" unicode="&#xa9;" horiz-adv-x="1677" 
d="M838 -127q-148 0 -279 49q-132 50 -231 141q-99 88 -158 228q-57 126 -57 303q0 171 61 305q58 132 162 225q104 96 231 142q128 49 271 49q141 0 272 -49q125 -47 231 -142q95 -85 162 -225q60 -142 60 -305q0 -165 -60 -303q-64 -143 -162 -228q-104 -93 -231 -141
q-131 -49 -272 -49zM838 -2q126 0 233 43q106 42 186 119q75 75 123 186q45 105 45 248q0 142 -49 252q-48 110 -129 188q-82 76 -188 117q-101 39 -221 39q-124 0 -236 -41q-113 -46 -186 -119q-78 -78 -121 -188q-45 -105 -45 -248q0 -133 47 -248q47 -109 127 -186
t186 -119q107 -43 228 -43zM870 160q-117 0 -217 59t-159 160q-60 105 -60 217q0 116 58 215.5t159 161.5q101 61 219 55q69 -5 99 -8q52 -5 102 -31q25 -14 33 -14q5 0 12 20l12 -6v-215l-12 -4q-7 23 -46.5 53t-100.5 49q-64 11 -99 11q-114 0 -187 -86t-73 -201
q0 -75 31.5 -142.5t92.5 -110t136 -38.5q45 3 88 17q59 20 111.5 71.5t65.5 91.5l10 -4v-221q-15 -13 -76 -49q-55 -30 -111 -41q-52 -10 -88 -10z" />
    <glyph glyph-name="registered" unicode="&#xae;" horiz-adv-x="1439" 
d="M719 350q-123 0 -221 39q-105 39 -185 113q-79 73 -125 180q-47 112 -47 242q0 129 47 241q48 107 127 181q78 72 185 112q98 39 219 39q122 0 223 -39q105 -39 184 -112t125 -181q45 -102 45 -241q0 -130 -47 -242q-47 -106 -127 -180q-81 -74 -184 -113
q-98 -39 -219 -39zM719 463q104 0 180 33q76 26 143 90q59 59 95 145q32 74 32 193q0 105 -34 192q-41 86 -99 144q-60 57 -143 92q-74 32 -174 32q-106 0 -180 -32q-86 -36 -142 -92q-60 -57 -94 -144q-35 -90 -35 -192q0 -110 37 -191q35 -87 96 -145q62 -62 144 -92
q76 -33 174 -33zM518 643l-4 8q19 7 25 27t6 63v377q0 43 -6 63t-25 27l4 9h244q82 0 123 -43t41 -113q0 -52 -28.5 -87.5t-74.5 -49.5l86 -203q17 -44 37 -57q17 -13 25 -13l-2 -8h-142l-110 270h-58v-172q0 -43 6 -63t25 -27l-4 -8h-168zM741 1010q74 0 74 51q0 59 -74 59
h-82v-110h82z" />
    <glyph glyph-name="macron" unicode="&#xaf;" horiz-adv-x="847" 
d="M123 1411h602v-184h-602v184z" />
    <glyph glyph-name="acute" unicode="&#xb4;" horiz-adv-x="718" 
d="M127 1161l2 70l451 227l71 -246z" />
    <glyph glyph-name="periodcentered" unicode="&#xb7;" horiz-adv-x="606" 
d="M301 479q-73 0 -125.5 52.5t-52.5 125.5q0 74 52.5 126.5t125.5 52.5q72 0 125 -53.5t53 -125.5q0 -73 -52.5 -125.5t-125.5 -52.5z" />
    <glyph glyph-name="questiondown" unicode="&#xbf;" horiz-adv-x="995" 
d="M530 705q-72 0 -125 52t-53 124q0 73 52 125.5t126 52.5t126.5 -52.5t52.5 -125.5t-52.5 -124.5t-126.5 -51.5zM438 -508q-100 0 -186.5 38.5t-140.5 107.5q-82 110 -82 235q0 186 176 356q114 107 187 213.5t73 178.5h170q10 -62 10 -111q0 -51 -10 -84
q-17 -51 -30.5 -75.5t-37.5 -55.5l-26 -31q-147 -178 -197 -262q-25 -42 -25 -96q0 -70 48.5 -115t140.5 -45q95 0 179 85.5t93 186.5l27 -12v-397l-21 -12q0 2 -0.5 6t-2 10.5t-5 8.5t-8.5 -1l-39 -31q-122 -98 -293 -98z" />
    <glyph glyph-name="Aacute" unicode="&#xc1;" horiz-adv-x="1308" 
d="M887 1874l71 -246l-524 -51l2 70zM1208 289q83 -235 172 -271l-10 -18h-461l-10 18q23 6 32 18.5t9 37.5q0 15 -6.5 48t-13.5 62t-16.5 64.5t-10.5 40.5l-31 104h-454l-31 -104q-51 -161 -51 -211q0 -25 9 -39t32 -21l-9 -18h-462l-9 18q36 13 81 81.5t93 189.5
q140 339 308 827q46 131 59 178q16 56 16 82q0 30 -20 39l10 19h420l10 -19q-20 -9 -20 -35q0 -28 14 -71q17 -67 45 -138l19 -55q180 -533 286 -827zM791 633l-148 426l-162 -426h310z" />
    <glyph glyph-name="Adieresis" unicode="&#xc4;" horiz-adv-x="1318" 
d="M451 1552q-61 0 -104.5 43t-43.5 105q0 61 43 104t105 43q60 0 103.5 -43.5t43.5 -103.5q0 -62 -43 -105t-104 -43zM893 1552q-61 0 -104.5 43t-43.5 105q0 61 43 104t105 43q60 0 103.5 -43.5t43.5 -103.5q0 -62 -43 -105t-104 -43zM1239 289q83 -235 172 -271l-10 -18
h-461l-10 18q23 6 32 18.5t9 37.5q0 15 -6.5 48t-13.5 62t-16.5 64.5t-10.5 40.5l-31 104h-455l-30 -104q-52 -164 -52 -211q0 -25 9 -39t32 -21l-8 -18h-463l-8 18q36 13 81 81.5t93 189.5q134 325 307 827q50 143 60 178q16 56 16 82q0 30 -20 39l10 19h420l10 -19
q-21 -9 -21 -35q0 -24 15 -71q17 -67 45 -138l18 -55q164 -486 287 -827zM821 633l-147 426l-162 -426h309z" />
    <glyph glyph-name="Eacute" unicode="&#xc9;" horiz-adv-x="1345" 
d="M801 1876l71 -246l-524 -51l2 70zM1227 322l16 -9l-78 -313h-1048l-6 14q27 0 51 52q24 53 24 180v942q0 135 -20 182q-21 47 -55 47l6 17h942l41 -308l-17 -8q-27 76 -133 76h-479v-231h180q139 0 183 20q45 20 45 57l18 -10v-364l-18 -11q0 38 -45 58q-44 20 -183 20
h-180v-487h578q151 0 178 76z" />
    <glyph glyph-name="Edieresis" unicode="&#xcb;" horiz-adv-x="1345" 
d="M403 1552q-61 0 -104 43t-43 105t43 104.5t104 42.5q60 0 104 -43.5t44 -103.5q0 -62 -43.5 -105t-104.5 -43zM846 1552q-62 0 -105 43t-43 105q0 61 43 104t105 43q60 0 103.5 -43.5t43.5 -103.5q0 -62 -43 -105t-104 -43zM1227 322l16 -9l-78 -313h-1048l-6 14
q27 0 51 52q24 53 24 180v942q0 135 -20 182q-21 47 -55 47l6 17h942l41 -308l-17 -8q-27 76 -133 76h-479v-231h180q139 0 183 20q45 20 45 57l18 -10v-364l-18 -11q0 38 -45 58q-44 20 -183 20h-180v-487h578q151 0 178 76z" />
    <glyph glyph-name="Iacute" unicode="&#xcd;" horiz-adv-x="645" 
d="M98 1577l2 70l451 227l72 -246zM121 0l-10 18q48 19 62.5 68t14.5 160v942q0 111 -14.5 159.5t-62.5 67.5l10 19h420l10 -19q-48 -19 -63 -68t-15 -159v-942q0 -110 15 -159.5t63 -68.5l-10 -18h-420z" />
    <glyph glyph-name="Idieresis" unicode="&#xcf;" horiz-adv-x="653" 
d="M117 1552q-61 0 -104.5 43t-43.5 105q0 61 43 104t105 43q60 0 103.5 -43.5t43.5 -103.5q0 -62 -43 -105t-104 -43zM559 1552q-61 0 -104 43t-43 105t43 104.5t104 42.5q60 0 104 -43.5t44 -103.5q0 -62 -43.5 -105t-104.5 -43zM121 0l-10 18q48 19 62.5 68t14.5 160v942
q0 111 -14.5 159.5t-62.5 67.5l10 19h420l10 -19q-48 -19 -63 -68t-15 -159v-942q0 -110 15 -159.5t63 -68.5l-10 -18h-420z" />
    <glyph glyph-name="Ntilde" unicode="&#xd1;" horiz-adv-x="1429" 
d="M379 1552q0 100 59 177q55 67 168 67q46 0 76 -10q4 0 6 -2t6 -2q2 0 58 -23l55 -22q46 -15 82 -15q86 0 153 74q2 6 13 6h47q0 -106 -55 -176q-66 -72 -168 -72q-26 0 -80 13q-27 9 -37 14t-37 14q-75 37 -129 37q-44 0 -87 -20t-69 -53q-4 -7 -10 -7h-51zM119 0l-8 18
q47 18 61 68t14 160v942q0 110 -14 159.5t-61 67.5l8 19h383l8 -19q-16 -7 -29.5 -24.5t-13.5 -40.5q0 -14 6 -29q17 -43 92 -166q81 -133 194 -264t234 -217v514q0 110 -15 159t-63 68l11 19h420l10 -19q-48 -19 -63 -68t-15 -159v-942q0 -110 15 -159.5t63 -68.5l-10 -18
h-420l-11 18q22 9 36.5 21t23 25.5t12.5 39.5t5 51t1 72v66q-121 56 -237 160q-107 94 -184.5 196.5t-98.5 165.5v-569q0 -110 14.5 -160t61.5 -68l-8 -18h-422z" />
    <glyph glyph-name="Oacute" unicode="&#xd3;" horiz-adv-x="1597" 
d="M539 1577l2 70l450 227l72 -246zM776 -20q-153 0 -291 60t-236 160.5t-156 237t-58 283.5q0 200 99.5 368.5t270 266.5t371.5 98q199 0 369 -97t270.5 -266t100.5 -370q0 -150 -58.5 -287.5t-157.5 -236.5t-236 -158t-288 -59zM776 225q97 0 180 40t139 108t87.5 157.5
t31.5 188.5q0 134 -53 245t-154 177.5t-231 66.5q-97 0 -180.5 -40t-139.5 -107.5t-88 -156t-32 -185.5q0 -132 54 -244.5t156 -181t230 -68.5z" />
    <glyph glyph-name="Odieresis" unicode="&#xd6;" 
d="M547 1552q-61 0 -104.5 43t-43.5 105q0 61 43 104t105 43q60 0 103.5 -43.5t43.5 -103.5q0 -62 -43 -105t-104 -43zM989 1552q-61 0 -104 43t-43 105t43 104.5t104 42.5q60 0 104 -43.5t44 -103.5q0 -62 -43.5 -105t-104.5 -43zM776 -20q-153 0 -291 60t-236 160.5
t-156 237t-58 283.5q0 200 99.5 368.5t270 266.5t371.5 98q199 0 369 -97t270.5 -266t100.5 -370q0 -150 -58.5 -287.5t-157.5 -236.5t-236 -158t-288 -59zM776 225q97 0 180 40t139 108t87.5 157.5t31.5 188.5q0 134 -53 245t-154 177.5t-231 66.5q-97 0 -180.5 -40
t-139.5 -107.5t-88 -156t-32 -185.5q0 -132 54 -244.5t156 -181t230 -68.5z" />
    <glyph glyph-name="Uacute" unicode="&#xda;" horiz-adv-x="1411" 
d="M518 1577l2 70l451 227l71 -246zM745 -20q-123 0 -221.5 30t-164.5 84t-108 120.5t-63 147.5q-41 155 -41 334v494q0 110 -14 158.5t-61 66.5l8 19h422l8 -19q-46 -20 -61 -66t-15 -149l-2 -452q0 -84 8 -153t29.5 -134.5t56.5 -109.5t91 -70.5t131 -26.5q80 0 140 26
t96 69.5t58 109t29.5 134t7.5 155.5v450q0 106 -14 152t-61 65l8 19h69l4 -2v2h349l8 -19q-47 -18 -61.5 -67t-14.5 -158v-494q0 -98 -9 -175.5t-32 -156.5t-67.5 -147t-110.5 -123q-138 -114 -402 -114z" />
    <glyph glyph-name="Udieresis" unicode="&#xdc;" horiz-adv-x="1472" 
d="M532 1552q-61 0 -104 43t-43 105t42.5 104.5t104.5 42.5q60 0 104 -43.5t44 -103.5q0 -62 -43 -105t-105 -43zM975 1552q-61 0 -104.5 43t-43.5 105q0 61 43 104t105 43q60 0 103.5 -43.5t43.5 -103.5q0 -62 -43 -105t-104 -43zM745 -20q-123 0 -221.5 30t-164.5 84
t-108 120.5t-63 147.5q-41 155 -41 334v494q0 110 -14 158.5t-61 66.5l8 19h422l8 -19q-46 -20 -61 -66t-15 -149l-2 -452q0 -84 8 -153t29.5 -134.5t56.5 -109.5t91 -70.5t131 -26.5q80 0 140 26t96 69.5t58 109t29.5 134t7.5 155.5v450q0 106 -14 152t-61 65l8 19h69l4 -2
v2h349l8 -19q-47 -18 -61.5 -67t-14.5 -158v-494q0 -98 -9 -175.5t-32 -156.5t-67.5 -147t-110.5 -123q-138 -114 -402 -114z" />
    <glyph glyph-name="ntilde" unicode="&#xf1;" horiz-adv-x="1505" 
d="M379 1552q0 100 59 177q55 67 168 67q46 0 76 -10q4 0 6 -2t6 -2q2 0 58 -23l55 -22q46 -15 82 -15q86 0 153 74q2 6 13 6h47q0 -106 -55 -176q-66 -72 -168 -72q-26 0 -80 13q-27 9 -37 14t-37 14q-75 37 -129 37q-44 0 -87 -20t-69 -53q-4 -7 -10 -7h-51zM119 0l-8 18
q47 18 61 68t14 160v942q0 110 -14 159.5t-61 67.5l8 19h383l8 -19q-16 -7 -29.5 -24.5t-13.5 -40.5q0 -14 6 -29q17 -43 92 -166q81 -133 194 -264t234 -217v514q0 110 -15 159t-63 68l11 19h420l10 -19q-48 -19 -63 -68t-15 -159v-942q0 -110 15 -159.5t63 -68.5l-10 -18
h-420l-11 18q22 9 36.5 21t23 25.5t12.5 39.5t5 51t1 72v66q-121 56 -237 160q-107 94 -184.5 196.5t-98.5 165.5v-569q0 -110 14.5 -160t61.5 -68l-8 -18h-422z" />
    <glyph glyph-name="uni02BC" unicode="&#x2bc;" horiz-adv-x="614" 
d="M182 846l-45 84q134 59 160 164q-66 1 -112 50.5t-46 115.5q0 73 52.5 121.5t136.5 48.5q85 0 134.5 -56t49.5 -137q0 -57 -31 -127q-102 -217 -299 -264z" />
    <glyph glyph-name="uni2011" unicode="&#x2011;" horiz-adv-x="847" 
d="M135 711h578v-226h-578v226z" />
    <glyph glyph-name="endash" unicode="&#x2013;" horiz-adv-x="1282" 
d="M147 711h988v-226h-988v226z" />
    <glyph glyph-name="emdash" unicode="&#x2014;" horiz-adv-x="1814" 
d="M147 711h1520v-226h-1520v226z" />
    <glyph glyph-name="quotedblleft" unicode="&#x201c;" horiz-adv-x="1050" 
d="M276 1137q-85 0 -134.5 55.5t-49.5 136.5q0 60 31 127q102 217 299 264l45 -84q-134 -59 -160 -163q66 -1 112 -50.5t46 -115.5q0 -73 -52.5 -121.5t-136.5 -48.5zM727 1137q-85 0 -134.5 55.5t-49.5 136.5q0 63 30 127q102 217 299 264l46 -84q-134 -59 -160 -163
q65 -1 111 -50t46 -116q0 -73 -52 -121.5t-136 -48.5z" />
    <glyph glyph-name="quotedblright" unicode="&#x201d;" horiz-adv-x="1050" 
d="M203 846l-45 84q133 59 159 164q-65 1 -111 50t-46 116q0 73 52 121.5t136 48.5q85 0 134.5 -56t49.5 -137q0 -59 -30 -127q-102 -217 -299 -264zM653 846l-45 84q134 59 160 164q-66 1 -112 50.5t-46 115.5q0 73 52.5 121.5t136.5 48.5q85 0 134.5 -56t49.5 -137
q0 -57 -31 -127q-102 -217 -299 -264z" />
    <glyph glyph-name="CR" horiz-adv-x="552" 
 />
    <glyph glyph-name="E_R" horiz-adv-x="2330" 
d="M119 0l-8 16q30 0 51 52q22 49 22 180v940q0 134 -18 180q-21 47 -55 47l8 19h938l41 -310l-17 -6q-24 74 -135 74h-475v-231h180q125 0 180 22q46 18 46 57l20 -10v-362l-20 -13q0 38 -46 56q-43 24 -180 24h-180v-487h1020q151 0 178 76l17 -9l-76 -315h-1491zM1921 0
l-274 678h-144v-27q0 -127 10 -172q6 -45 23 -59q25 -21 43 -29l-8 -16h-420l-10 16q24 12 41 29q11 8 26 59q9 30 9 172v537q0 107 -9 137q-12 47 -26 61q-20 20 -41 27l10 21h610q206 0 307 -113t101 -277q0 -133 -76 -221q-71 -86 -180 -123l213 -505q61 -113 92 -144
l31 -20l32 -11l-6 -20h-354zM1708 918q64 0 123 24q61 21 61 102q0 86 -53 121q-46 27 -131 27h-205v-274h205z" />
    <glyph glyph-name="F_F" horiz-adv-x="1327" 
d="M10 2l-10 18q33 21 41 27q16 20 25 64q12 61 12 137v942q0 74 -12 135q-9 48 -25 61q-22 26 -41 31l10 17h1358l41 -306l-16 -10q-28 78 -133 78h-328v-235h119q131 0 180 24q45 17 45 55l18 -8v-366l-18 -11q0 41 -45 58q-42 22 -180 22h-119v-487q0 -101 8 -137
q9 -47 29 -64q12 -12 39 -27l-9 -18h-419l-7 18q23 12 37 27q21 21 27 64q10 45 10 137v487h-285v-487q0 -83 7 -137q15 -51 28 -64q7 -7 21 -14l18 -13l-6 -18h-420zM637 961v235h-272v-235h272z" />
    <glyph glyph-name="F_I" 
d="M119 0l-8 18q25 11 41 27q15 18 24 61q10 45 10 142v940q0 96 -10 141q-9 44 -24 62q-14 14 -41 26l8 19h1354l10 -19q-34 -19 -41 -26q-15 -15 -27 -62q-10 -85 -10 -141v-940q0 -57 10 -142q12 -46 27 -61q10 -10 41 -27l-10 -18h-418l-11 18q25 11 41 27q15 15 27 61
q10 85 10 142v948h-651v-231h180q137 0 183 18q47 24 47 59l18 -10v-366l-18 -11q0 40 -47 58q-39 20 -183 20h-180v-485q0 -95 12 -142q6 -38 25 -61q14 -14 43 -27l-8 -18h-424z" />
    <glyph glyph-name="F_L" horiz-adv-x="2070" 
d="M119 0l-8 18q26 9 41 27q11 11 26 61q10 58 10 140v942q0 77 -10 139q-16 52 -26 62q-7 9 -41 26l8 19h1239l12 -19q-35 -12 -43 -26q-19 -19 -27 -62q-8 -39 -8 -139v-942h475q141 0 197 65l-80 -311h-948l-6 14q27 0 51 52q25 55 25 180v940q-19 8 -56 8h-479v-231h70
q141 0 180 20q47 21 47 57l18 -12v-362l-18 -11q0 37 -47 58q-44 20 -180 20h-70v-487q0 -82 10 -140q15 -49 27 -61q16 -17 41 -27l-6 -18h-424z" />
    <glyph glyph-name="L_A" horiz-adv-x="1667" 
d="M119 0l-6 12q27 0 49 54q26 45 26 180v942q0 101 -8 137q-15 53 -28 66q-7 7 -41 26l8 17h424l8 -17q-34 -19 -41 -26q-19 -19 -27 -66q-8 -36 -8 -137v-942h1106q154 0 178 76l-59 -322h-1581zM592 371q8 16 18 26q6 4 11 9q9 7 22.5 26.5t15.5 26.5q19 32 62 125
q104 254 235 614l45 131q13 47 13 62q0 27 -15 30l7 13h323l6 -13q-14 -3 -14 -26q0 -12 10 -54q8 -32 37 -102l12 -41q96 -279 205 -567q2 -8 8 -23.5t9 -23.5q38 -94 55 -127q25 -43 39 -51q3 -3 39 -23l-11 -12h-389l-8 12q15 4 25 14q6 9 6 27q0 8 -8 55q-2 12 -9 35.5
t-8 28.5l-10 41l-25 78h-276l-23 -78q-23 -69 -28 -95q-10 -52 -10 -61q0 -18 6 -27q6 -12 26 -18l-8 -12h-393zM1282 838l-115 317l-125 -317h240z" />
    <glyph glyph-name="N_N" horiz-adv-x="2301" 
d="M119 0l-8 18q24 8 43 27q9 16 24 64q8 36 8 139v940q0 103 -8 139q-15 48 -24 64q-8 11 -43 26l8 19h383l8 -19q-22 -13 -31 -22q-14 -20 -14 -45q0 -14 6 -29q9 -29 68 -123l26 -45q81 -128 187 -252q127 -152 239 -225v512q0 94 -10 139l-10 33q-10 25 -17 31
q-8 11 -43 26l13 19h381l8 -19q-23 -11 -29 -22q-16 -22 -16 -45q0 -5 6 -29q15 -35 53 -100l39 -68q92 -144 186 -252q108 -128 240 -225v512q0 103 -8 139q-15 49 -27 64q-7 10 -20 18q-4 2 -9 3.5t-8 2.5t-4 2l10 19h418l8 -19q-31 -16 -41 -26q-18 -30 -24 -64
q-8 -36 -8 -139v-940q0 -103 8 -139q9 -40 24 -64q19 -19 41 -27l-8 -18h-418l-10 18q35 15 43 23q11 7 25 51q8 39 8 133v66q-113 55 -238 162q-106 93 -188 204q-75 107 -92 160v-569q0 -78 12 -139q9 -44 25 -64q11 -18 41 -27l-9 -18h-419l-13 18q37 15 45 23q9 3 15 25
l10 26q10 45 10 133v66q-104 48 -237 162q-109 95 -189 204q-76 101 -94 160v-569q0 -102 12 -139q9 -45 23 -64q15 -19 39 -27l-6 -18h-420z" />
    <glyph glyph-name="T_E" horiz-adv-x="2211" 
d="M444 0l-10 18q28 9 43 27q11 11 25 61q8 36 8 142v944h-258q-105 0 -135 -76l-15 10l41 306h1782l39 -306l-16 -10q-24 76 -131 76h-480v-229h181q141 0 182 20q45 17 45 55l18 -10v-362l-18 -11q0 38 -45 58q-56 20 -182 20h-181v-485h576q139 0 196 63l-79 -311h-1047
l-8 14q30 0 51 52q27 47 27 182v944h-258v-944q0 -57 10 -142q11 -43 29 -61q15 -18 43 -27l-13 -18h-420z" />
    <glyph glyph-name="T_H" horiz-adv-x="2252" 
d="M444 -2l-10 18q29 13 41 25q19 28 27 63q12 62 12 142v948h-260q-109 0 -137 -78l-15 10l41 306h1276l15 -19q-32 -14 -45 -27q-14 -20 -23 -63q-12 -41 -12 -141v-160h293q43 0 90 35q43 37 43 125q0 92 -11 141q-9 48 -24 63q-9 12 -43 27l8 19h422l12 -19
q-31 -13 -45 -24q-15 -24 -24 -64q-11 -64 -11 -141v-938q0 -78 11 -142q8 -38 24 -63q17 -13 45 -25l-12 -18h-422l-8 18q32 14 43 25q15 18 24 63q11 49 11 142v524h-295q-38 0 -88 -35q-43 -37 -43 -125v-364q0 -104 12 -142q9 -38 23 -63q17 -13 45 -25l-15 -18h-415
l-13 18q26 12 43 25q21 40 23 63q12 37 12 142v948h-272v-948q0 -104 12 -142q10 -41 22 -63q16 -12 46 -25l-13 -18h-420z" />
    <glyph glyph-name="T_T" horiz-adv-x="1859" 
d="M444 0l-10 18q29 13 43 27q16 16 25 61q10 62 10 140v948h-260q-106 0 -133 -76l-17 8l41 308h1573l41 -308l-16 -8q-24 76 -133 76h-260v-948q0 -78 10 -140q2 -10 10.5 -32t15.5 -29q12 -14 43 -27l-10 -18h-422l-10 18q30 12 45 27t23 61q10 62 10 140v948h-268v-948
q0 -78 10 -140q11 -43 29 -61q11 -14 40 -27l-12 -18h-418z" />
    <glyph glyph-name="ICON1" horiz-adv-x="1546" 
d="M631 1026v391h57v-166h199v166h55v-391h-55v172h-199v-172h-57zM131 836l154 391h69l152 -391h-57l-35 100h-189l-41 -100h-53zM1051 836l153 391h72l151 -391h-55l-39 100h-188l-37 -100h-57zM244 985h149l-76 191zM1165 985h148l-72 191zM752 514l-387 154v71l387 154
v-57l-101 -41v-185l101 -37v-59zM795 514v59l102 37v185l-102 41v57l389 -154v-71zM600 631v149l-186 -78zM946 631l187 71l-187 78v-149zM285 180l-154 391h53l41 -102h189l35 102h57l-152 -391h-69zM1204 180l-153 391h57l37 -102h188l39 102h55l-151 -391h-72zM317 231
l76 191h-149zM1241 231l72 191h-148zM631 395h57v-172h199v172h55v-391h-55v166h-199v-166h-57v391z" />
    <glyph glyph-name="ICON2" horiz-adv-x="2347" 
d="M2183 958l-31 -24q-41 -33 -59 -68q-4 2 -13.5 -6t-19.5 -2q-4 -14 -9.5 -18t-16.5 -2q-6 -9 -11.5 -15.5t-11.5 -11.5t-10 -8t-12.5 -6.5t-12 -5t-15.5 -5.5t-17 -6q-10 -4 -18.5 -8.5t-12.5 -7.5t-12 -10t-13 -11q-2 -2 -23.5 -12t-27.5 -22q-14 -4 -28 -13t-17 -20
q12 -3 18.5 2t6.5 14q3 0 10 1t13.5 1t12.5 -2q0 4 26.5 10.5t37.5 6.5q-1 -11 5 -10q3 1 12 7l10 7q10 2 28 -2q0 5 25.5 13.5t34.5 8.5q41 -27 -44 -45q-21 -5 -61 -11q-34 -5 -37 -7q9 -19 29.5 -28.5t36.5 -4.5q9 2 17.5 9t11.5 7.5t14 -4.5v10q2 -1 5 -1q5 -1 3 -3
q2 -2 9.5 1t15.5 5.5t14.5 -1.5t7.5 -17q-9 0 -40.5 -9.5t-35.5 -15.5q-3 -5 -0.5 -9t4.5 -7t4.5 -5t1 -2.5t-6 0t-17.5 3.5q-12 0 -32 10q-5 4 -5 6q-5 -3 -18.5 8t-28.5 25.5t-20 16.5q-9 3 -24 -0.5t-27 -8t-23.5 -3.5t-16.5 12q-3 -6 -10 -12.5t-14 -10.5t-19.5 -8.5
t-19.5 -7t-21.5 -6.5t-17.5 -5q-8 -4 -21.5 -9t-31.5 -12t-31 -10.5t-14 -0.5q-6 -10 -51.5 -36.5t-87 -50.5t-39.5 -28q16 6 79 10l4 -4q4 -4 7 -4q1 0 7.5 4t12.5 4l17 -2q5 0 16 1t16 1q84 0 88 6q5 7 -8.5 14.5t-24.5 15.5t-1 19q6 4 13.5 0.5t18 -10t13.5 -6.5
q13 -2 18 7q3 7 -8 9q0 1 -4.5 9t-8.5 16.5t-3 17t10 11.5q1 0 5 -8.5t9 -18t8 -12.5q7 -5 13.5 -0.5t13.5 2.5q2 20 16 28q9 4 9 -6t-13 -32q12 -2 12 -7q6 0 17 2q16 3 17 -1q-1 -5 -7 -15q-6 -8 -32 -16t-35 0q-3 -5 -7.5 -10.5t-7.5 -8.5t-5 -7t1 -7q4 -5 14 -5t22 2.5
t13 2.5q5 0 50 -6.5t49 0.5q6 18 10 20l28 21q1 1 16.5 13t18.5 13q38 1 10 -37q-20 -26 -32 -30q14 -3 43.5 -0.5t53 -5.5t13.5 -29q-7 -16 -90 -6q5 5 4 7q0 1 -2 -1q-3 0 -9.5 -3t-10.5 -3.5t-8 2.5v4q-5 1 -30.5 -1t-31.5 7q-1 -1 -3.5 -4.5t-4.5 -5.5q-4 1 -3 5
q1 2 1 3q-2 1 -5 -1.5t-5 -2.5q0 8 -4 8q12 -17 -77 1q-15 3 -16 3l-92 6q-3 0 -9 1.5t-11 1.5t-8 -3q-12 -8 4 -40l16 -33q10 5 30 0t44.5 -17t46 -25t35 -24t10.5 -14q-11 -10 -40 12t-38 19q-6 -3 -7.5 -15t0 -32t1.5 -21q-17 1 -22.5 6t-10.5 19q0 5 8.5 18.5t8.5 17.5
q-3 13 -9.5 19t-25.5 10.5t-21 5.5q11 -37 11 -67q-21 5 -31 29t-17.5 58t-17.5 50q-3 4 -6 9t-4 7t-3 4.5t-3 3.5t-4.5 3t-6.5 3.5t-10 4.5q0 -3 -16 -5q-11 -1 -11 5q0 2 1 4q-24 -8 -75.5 -7t-62.5 -14l-217 -155q-15 -12 -53.5 -40.5t-56.5 -43.5q-34 -22 -55 -23
q-19 0 -5 27q4 -6 6 -6q1 3 1 7.5t1 6.5q13 0 15 2l4 -6q0 4 9.5 20.5t12.5 18.5q7 4 15.5 7t15.5 7q4 4 25.5 23t21.5 18q-1 3 4 5t12 3t13.5 4.5t7.5 8.5l-6 -7q-4 4 -1.5 7.5t8.5 9t7 8.5q8 26 10 55q1 7 13 44.5t9.5 60t-26.5 33.5q-7 4 -25.5 3t-29.5 9q-10 22 8 37
q20 8 29.5 -2t17.5 -27.5t21 -22.5q8 -2 13 -1t9.5 11t6.5 17.5t5 19.5t5 17q25 76 53 145q2 6 8.5 20t8.5 20t3.5 16t-3.5 16.5t-15 11.5q-3 2 -17.5 4.5t-17.5 12.5q-10 21 11 19q16 -2 28 -11q3 2 0 43q-2 18 2 18q1 1 4 -2q4 -3 9 -25t10 -41.5t8 -19.5q10 9 26.5 39.5
t33 54t30.5 21.5q30 -3 -26 -74q-12 -15 -13 -18l-31 -62l-5 -10t-6.5 -13.5t-6.5 -12.5t-6.5 -10.5t-3.5 -2.5q7 -5 -9 -56.5t-35.5 -106.5t-19.5 -64q6 2 12 12t11 10q13 0 15 -17t-3 -24q0 -2 -13 -17t-14 -15q-2 -2 -12.5 -8.5t-11.5 -6.5q-7 -8 -4 -11.5t0 -8.5
q-2 -4 -8.5 -12.5t-6.5 -12t5 -16.5q1 -1 11 0.5t15 -0.5q-3 12 9.5 23.5t27.5 17.5q1 1 16 2.5t17 3.5q3 1 -1.5 6.5t-0.5 7.5q3 3 14 10.5t14 10.5q12 10 21.5 36t5.5 44q-3 18 -14 20.5t-22.5 -3t-21.5 -3t-12 20.5q-1 17 11 22.5t26 3.5q4 0 12 -9.5t11 -8.5q5 1 5.5 6
t-1 12t-0.5 10q17 48 22 19q1 -8 3 -31q5 -56 14 -55q8 1 22 14t25.5 24.5t28 17.5t30.5 -7q11 -14 8.5 -16t-18.5 -3q-3 -1 -5 -1h-4t-3 -1q-3 -1 -13.5 -7.5t-19.5 -12.5t-10 -6q-2 0 -14.5 -18t-12.5 -23q1 0 3 0.5t7.5 1.5t7.5 0.5t3 -0.5q1 5 4 8.5t9 7t9.5 5.5t12 5.5
t10.5 4.5q31 12 63 32q-3 -2 -2 8q3 23 12 40q2 4 6 9.5t5 8.5q10 1 13.5 4t0.5 8q0 2 -2 6.5t-2 6.5q1 1 3.5 8.5t6.5 11.5t10 2q-16 16 -8 52q5 19 12 19q8 0 11 -40l54 73q50 62 46 31q-1 -6 -10 -18.5t-23 -28.5l-14 -16q-2 -3 -9 -13t-10.5 -17t-7.5 -17t0 -13
q13 9 15 9q3 3 7 5.5t10 2.5t-5 -21q-5 -9 -21 -22q-7 -6 -8 -2q-4 -10 -25.5 -28.5t-23.5 -39.5q2 2 19 8t18 6q3 0 6 -6q5 4 5.5 6t-2 4.5t-3.5 4.5q1 0 9.5 4.5t13.5 3.5q0 -1 -1.5 -3.5t-2.5 -5t0 -3.5q20 -5 41 16q2 1 9 -0.5t7.5 -0.5t-4.5 11q-2 2 -13 -2.5t-14 -1.5
q25 12 35 29q1 1 13 18.5t12 22.5q-7 0 -11.5 29.5t0.5 33.5h23q4 -4 4 -15.5t2 -15.5q11 7 35 36.5t47 49.5t41 15q22 -7 -12 -29q-2 -2 -8 -6q-17 -10 -21 -14q-23 -23 -29 -35q-1 -9 1 -10t5 0.5t5 -4.5l6 -2q6 -3 9.5 -6t0.5 -7q-14 9 -35.5 -3.5t-32.5 -29.5
q-8 -8 -15.5 -23t-10.5 -20q3 -5 18.5 -0.5t18.5 7.5q3 1 13.5 15t16.5 19q13 12 76 54q43 29 117 67q30 17 37 27q1 0 2 4l2.5 10t3.5 12t4 10t4 3q13 25 8 41q4 0 4 -4q0 2 -3 24t-3 25q12 21 20 -3q10 -28 13 -30q4 12 10 14q0 -2 -6.5 -14t0.5 -16q6 6 20 25.5t23 27.5
q45 45 45 32q0 -3 -4 -10q-2 -4 -26.5 -30.5t-43 -52t-10.5 -33.5q17 4 51.5 41.5t38.5 40.5l12.5 10t11.5 8.5t9.5 5.5t10.5 4t12 0q9 22 47 29q1 0 11 3.5t17 7t4 5.5q41 -14 -11 -39q-22 -10 -34 -12v-8q-2 1 -7 -3t-8.5 -6t-6.5 1q-2 -5 -11.5 -12t-15.5 -7q-3 0 -2 4
t0 4zM2324 942q3 -3 0 -10q-5 -3 -58 -13.5t-54 -7.5q-3 6 -27 -10h-8q-36 -14 -40 0q-2 11 20 21l6 2q12 4 34.5 9.5t30.5 8.5q3 0 10 14q1 0 11 -4t16.5 -5t9.5 3h15q-1 -7 1 -7l2 1l7 2q-4 12 -3 13.5t8 -0.5t9 -1q0 -2 4.5 -7.5t5.5 -8.5zM1022 10q16 -10 51.5 -20.5
t48.5 -5.5q10 -16 -15.5 -20t-41.5 -1q-11 4 -34.5 14t-35.5 13q-5 2 -33.5 7.5t-47.5 13t-23 18.5q-14 -8 -78 14t-65 35q-1 6 1 9.5t6.5 3.5t9.5 -0.5t12 -3t11.5 -5t10.5 -5t8 -3.5q4 -1 46.5 -14.5t53.5 -12.5v-6q1 -1 5.5 -0.5t10.5 0.5t7 -2q3 4 -7.5 18.5t-24.5 30
t-15 16.5q-2 -3 -4 -2.5t-3 2t-2 3.5t-2 2q-4 5 -14.5 21t-19 24.5t-17.5 11.5q-1 -2 -3 -4t-6.5 -5t-8.5 -1q-7 3 -13 13t-16 11q0 6 4 2q0 5 -23 7.5t-34 0.5q-26 -6 -41 -4q-1 0 -3 -2q-2 -3 -3 -2q-8 3 -8 11.5t-4 11.5q1 1 16.5 5t15.5 9q-11 8 -38.5 17t-39.5 18
q-6 -2 -20.5 -4.5t-24.5 -5.5q-11 -2 -32 -9.5t-27 -7.5q-3 0 -35 -8q-17 -5 -17 3q0 4 3 11q0 9 12.5 12.5t27 5t17.5 3.5v8q-7 0 -22.5 2.5t-32.5 8.5t-16 14q3 10 19.5 11t32 -3t23.5 -8q0 8 -8 8.5t-10 3.5q-2 0 -32 14.5t-42 14.5q-9 1 -36 9.5t-44 6.5q-3 0 -16 -3
q-35 -10 -35 0q-1 3 2 9q1 6 17 10.5t22 1.5q-8 7 -23.5 13.5t-36 12.5t-28.5 9q-43 11 -43 15q-2 5 10 7q4 1 19 1q2 -2 0 -3.5t0 -2.5q4 5 19 3.5t25.5 -4.5t23.5 -7.5t14 -4.5q2 -1 -3 -6q3 3 48 -10t55 -18q4 -3 33 -13q8 -2 16.5 -5t17.5 -6.5t13 -4.5q1 1 -9 11
q-34 32 -15 36h9t16.5 -11.5t21 -22.5t10.5 -11q7 -18 28 -31q58 -32 82 -28q-11 5 -18 15q-3 4 2 3q-3 5 -17.5 11.5t-17.5 8.5q-3 4 -8.5 7.5t-7.5 8.5t0 15q3 7 14.5 16.5t17.5 8.5q-5 4 -19.5 9t-27.5 8.5t-14 4.5q-4 1 -19 6t-18 5q-11 0 -17.5 -2.5t-13.5 -7t-16 -7.5
q-2 1 -9 -4.5t-10 -5.5q-8 3 -6.5 7t7.5 10.5t6 9.5l16 10q0 9 -12 6q-8 6 -25.5 1t-23.5 -3q-5 0 -37 -16q-29 3 15 27l11 7q0 1 -10.5 3t-22.5 4.5t-14 3.5t-6 2t-6 2q-18 5 -25 8q-9 5 -31 -3t-35.5 -13.5t-23.5 6.5q0 14 31 20q0 4 -8 8q-2 0 -11 1.5t-14.5 2t-11.5 3.5
t-8 6q2 1 4 1t4 1q-11 6 -7 11q1 2 5 1q-4 7 8 7q4 -1 11 -2q4 -1 5 -1q12 -12 19 -11q2 0 0 5q2 0 4.5 -2t3.5 -2t-3.5 5t-12 12.5l-11.5 11.5l-8 8q15 8 36.5 -10t27.5 -19q6 -3 9 -15l-1 -3q0 -5 2 -7.5t4.5 -2.5t6.5 0.5t5 0.5q-5 3 -6 4q12 0 23 -16q3 6 14 10
q18 0 18 -6q-1 -2 0 -5t0 -5q4 0 24 -3l20 -3q-1 1 -15 21t-26 24q-7 0 -13 12q-4 11 4 10h2q5 -2 24 -15t28 -15q11 -4 22 -2l37 24q-13 16 -29 8q-7 7 -34 9.5t-35 5.5q-7 4 -11.5 5.5t-7 2t-7.5 1t-11 1.5q4 -1 2 -4t-2 -4q-1 0 -25 -6q-9 -1 -18 -3q-6 -1 -7 6
q0 1 -0.5 2.5t-0.5 2.5q-4 11 1 16q2 2 -3 4q-2 1 -8 3h-1l-2 1q-6 2 -23.5 4t-32 5t-17.5 8q1 1 4 5t6.5 8t5.5 5q6 -2 20 -2q4 1 5 0l-3 -4q-4 -5 -2 -6q2 5 8.5 6t13 0t7.5 0q3 -4 11 -7t18.5 -5.5t13.5 -3.5q2 2 -3 6.5t-11 9.5t-4 8q6 10 17.5 6.5t20.5 -10.5t20 -17
t15 -12q18 0 50 -6t41 -16q3 3 5.5 3.5t7.5 -0.5t9 -1q3 -3 -0.5 -6.5t2.5 -7.5l10 10q1 0 4 -2q27 -10 28 -15q0 -3 -3 -4q-2 2 -2 0q7 -3 8 -1t-1 6q-1 4 -1 6q2 2 10.5 -3t8.5 -8q3 4 19.5 0.5t25.5 -2.5q-1 1 -5.5 4t-6 5t-3 5.5t3.5 6.5q-11 5 -32.5 18.5t-34.5 18.5
q-3 0 -9 2t-8 2q-7 0 -22.5 4t-18.5 4q-18 0 -34 12q-10 18 13 11q10 -3 34 -14l16 -7h6h8q8 -4 15 -4q-1 4 -25 20q-2 0 -11 5t-13 6q-6 1 -19 9t-23.5 13t-13.5 2q-14 9 -44.5 24t-43.5 15q-13 6 -37 19t-30 16l-15 7q-15 6 -27.5 12t-13.5 8q-1 4 -11 10.5t-22.5 12.5
t-13.5 7q-10 2 -24.5 10t-29.5 19t-21 14l-21 23l8 -2l19 -10q2 -1 20.5 -10t30.5 -13q7 -5 34.5 -19.5t28.5 -13.5l-71 129q13 -3 20 -10.5t12 -9.5q9 -5 37 -51q9 -12 13 -29q6 -27 14 -38.5t27 -18.5q7 -1 15.5 -3.5t10.5 4.5q0 2 0.5 4t1.5 5q1 4 -5.5 11.5t-6.5 12.5v4
q3 17 22 20.5t25 -11.5q3 -8 -2 -27q-1 -3 -8.5 -7.5t-7.5 -14.5q-1 -6 2 -13t7 -10.5t5 -3.5q3 -3 17.5 -8.5t31.5 -12l34 -13t27.5 -13t8.5 -10.5q89 -33 131 -62q2 -2 2.5 -3t-0.5 -3h-10q-1 -2 2.5 -3t7.5 -1h4q15 -4 63 -60q61 -61 58 -71q0 -14 10 -17q9 -1 33.5 -42
t36.5 -66q2 -4 17.5 -31t23 -39t20.5 -30t23 -27l13 -13q5 -6 -2 -6h-3q17 -9 18 -8q5 8 0 19q-1 1 -3 7t-3 7q1 0 2.5 0.5t4.5 2t3 3t-2 4.5q-8 6 -13 28.5t-15 31.5q-9 6 -17 14q-2 2 -11.5 6.5t-12.5 9.5q-7 -1 -9.5 -1t-6.5 2.5t-5 2.5q-2 2 -14 19q-4 18 4.5 26t19.5 6
l11 -1q17 -10 14 -37l21 -7q4 0 2 5q-1 0 -2.5 5t-3.5 13.5t-4 18t-4 20t-3 17t-2 10.5q-40 99 -17 91q2 0 3 -1q10 -24 20 -41h2q-2 -1 2.5 -14t11 -30.5t7.5 -23.5l4 -8l6 21q2 6 3 29.5t7 29.5q13 13 14 -13q0 -25 -6 -40q-1 -6 -8.5 -28t-7.5 -34q0 -11 7.5 -35.5
t8.5 -33.5q1 -4 7.5 -24.5t5.5 -29.5l2 -16v-8q1 -43 12 -65t43 -54q6 -6 18 -20t19 -21.5t19 -17.5t24 -17zM1888 850q-1 4 2.5 15t3.5 12q-3 3 2.5 9.5t10.5 8.5q16 8 29.5 -4t17.5 -27q2 -9 -2 -26q-41 -33 -64 12zM1389 645l18 33q4 6 1.5 29.5t-6 41t0.5 23.5q2 -2 2 0
q12 -21 18 -45q4 4 12 23.5t17 21.5q-1 0 0.5 6t5.5 12.5t8 6.5q0 4 2 6q-6 0 -17 4.5t-13 5.5l-17 21q3 2 11.5 -1t17.5 -7l8 -3q11 -12 20.5 -0.5t14.5 8.5q-1 -10 2 -11l13 15q7 8 12 9q-4 5 1 10t11.5 7.5t7.5 0.5v-6q10 1 14.5 6t6.5 6l11 14q4 2 7 1q15 -17 -33 -52
q9 0 21 -9.5t4 -18.5q-12 -6 -24.5 -3.5t-27.5 -1t-22 -18.5q0 -12 -12 -18q-2 -3 -3 -9.5t-3 -9.5l41 5q6 -6 -4 -21q-9 -13 -17 -4l-8 -2q-3 -2 -13.5 -6.5t-13.5 -5.5h2q-12 -3 -17 -16.5t1 -22.5l-27 -35q6 -1 16 4t13 10l14 8q13 0 13 -8q5 -5 -2 -8q0 -2 -8 -10
t-11 -8q-2 0 -11 -7t-9 -8q-2 2 -20.5 -3t-22.5 -3q-5 2 -10 7.5t-7 6.5q1 3 5 13.5t6 15.5zM1747 803q-1 -1 -4 -5.5t-6 -7.5t-6 -5.5t-6 0t-5 10.5q0 12 2 14q3 3 17 31q0 1 4 9.5t6.5 9t9.5 -2.5q1 -1 -4.5 -25t-7.5 -28zM373 723q-9 -2 -22.5 0.5t-18.5 13.5q-3 7 0 17
q10 10 16 12q6 4 22.5 4t16.5 -8t16 0q7 -4 7 2q-1 2 -5.5 4t-5.5 4q3 2 -1 7t-10.5 12t-8.5 12q-15 6 -24 28q-6 14 3 15q7 -1 16 -8.5t19.5 -19t14.5 -15.5q2 -3 6 -6.5t7 -6.5t3 -4q2 1 2 11t-4 18q0 8 10 8q16 -2 20 -38l1 -5q2 -20 12.5 -42.5t23.5 -18.5q9 1 8 24
t3 29q3 2 3 -3q0 -2 1 -1t2 4q8 -7 9.5 -15t-0.5 -18t-1 -14q1 -11 5.5 -24.5t4.5 -19t-4 -28.5q-3 -30 -20 4q-10 21 -11 31q-6 -4 -17 8.5t-23.5 24.5t-20.5 6v6q-3 1 -9.5 1t-10.5 1q-3 0 -7.5 -0.5t-7 -1t-6 -1.5t-7 -3.5t-7.5 -5.5zM1157 717q-2 2 -10 4t-12.5 6.5
t-4.5 13.5q4 6 11.5 6.5t12.5 -0.5t7.5 4t-4.5 19q-5 9 -8.5 29t2.5 26q7 5 16 -12q6 -10 12 -35.5t9 -32.5q2 2 1.5 7.5t0.5 7.5q3 -5 6 -2q-2 4 -6 4q2 19 13 26q10 5 13 -13q1 -2 1 -5q3 -18 -15 -72q-1 -3 1.5 -7.5t1.5 -7.5t-9 -5q-3 -1 -5 -0.5t-2.5 1.5t-2.5 3l-4 4
q-3 3 -6.5 13.5t-6.5 13.5q-4 0 -12 4zM172 696q-8 8 -55 15q-5 0 -35.5 -1.5t-38.5 -0.5q1 4 8.5 5.5t9.5 4.5q0 2 -3 3t-4 2t1 3q13 8 21 -2q3 -1 6.5 -4t4.5 -3t5 3q-5 10 -2 12q6 4 19 -2q4 -2 4 -8q5 4 1.5 20t2.5 17q3 1 6.5 -1.5t7 -6l4.5 -4.5q2 -1 6 -5.5t6 -5.5
q5 -2 31 -1t27 -1q24 -20 -10 -22q-23 -1 -23 -2q-4 -11 0 -15zM571 621q-16 6 -4 34t31 27q14 -1 25 -20q17 -28 -14 -43q-24 -12 -35 -2q-2 2 -3 4zM217 637q-15 0 -20 -2q-16 -4 -38 -6.5t-26 0.5q0 10 -12 4q-6 0 -6 4q7 11 30.5 12t26.5 2q-2 0 -12 9t-10 12q3 9 8 11
t10 -1t12 -8t10 -6q9 -6 15 -6q4 -1 7.5 -5.5t8.5 -5.5q6 -2 23.5 -1.5t23.5 -2.5q13 0 13 2q-4 3 -15 7.5t-19 10t-11 11.5q-5 11 15 7l5 -1q8 -4 10 -4q2 -2 8 -2q5 0 23 -12l6 -2q7 -1 23.5 -14.5t25.5 -16.5q6 -3 17 -6t18 -6q-6 -5 -11.5 -5.5t-13.5 1t-14 1.5
q-4 0 -14.5 2.5t-14.5 2.5q-7 -1 -79 10h-9q-7 1 -10 2.5t-4 1.5zM1796 518q15 17 22 6t-10 -28l-2 -2q-11 -11 -38 -17q-21 -5 -20 8q0 2 1 4l13 10q12 10 21.5 16t12.5 3zM803 199l-15 28q1 0 -3.5 5.5t-11 13t-11.5 12.5q-6 3 -14 19t-5 20q-14 6 -23.5 19t-21.5 40.5
t-14 30.5q-6 9 -17 27t-17.5 27.5t-18 21t-23.5 18.5q-23 14 -57 21.5t-62 1.5q-80 -15 -20 -55q23 -15 55 -27q4 -2 14 -4t23 -4.5t19 -3.5q38 -8 43 -15q0 -6 -5 -6l29 -10q1 0 15 -10.5t22 -8.5q-6 -36 -61 7q0 -14 14 -35q2 -4 10 -13.5t10 -15.5l13 -20q1 -3 -4 -10
t-4 -9q1 -1 16 -6.5t18 -7.5q29 -8 68 -27q4 -1 16.5 -12t22.5 -12zM733 434q-9 3 2 7q8 3 13 1q2 -3 32 -14t31 -18q0 -7 -1.5 -10t-5.5 -3t-6 0.5t-7.5 3t-6.5 2.5q-6 3 -23.5 15.5t-27.5 15.5zM1804 395q0 -6 2 -6q-2 -2 -2 -3l-4 -3q-6 0 -25 -2.5t-20 -5.5q1 -1 6 -4
t10 -5.5t5 -3.5t5.5 -6.5t7.5 -9.5t-3 -8q-6 -3 -11 1.5t-8 4.5q-14 0 -26 12q0 1 -3 2t-3 2q-38 19 -41 21q-6 5 -23 14t-24 17q-12 14 -10 21t22 -5q30 -26 76 -37q5 20 34 17t35 -13zM1886 422q0 -2 -1 -2l-1 2h2zM1599 379q-33 16 -11 16q7 0 25 -2q25 -2 27 0
q-2 13 25 -4l10 -8q-3 -9 -35 -7.5t-41 5.5zM1251 256q-10 18 8 28t46.5 14.5t33.5 8.5q-2 17 -9.5 20.5t-17.5 0.5t-22 4q-9 5 -13 21.5t5 21.5q19 14 39 10q17 -4 22 -14.5t5 -28t4 -27.5q10 4 24.5 6.5t16.5 0.5q1 0 9 13t16.5 26t11.5 14q2 2 4.5 5.5t5 6.5t6 5t6.5 1
q7 -5 3.5 -12t-12 -19t-9.5 -16q3 0 20 5q86 23 86 7q0 -3 -6.5 -7.5t-17 -8t-20 -6.5t-20 -6t-12.5 -4q-2 0 -9 -1t-13.5 -2t-13.5 -2.5t-10.5 -4.5t-2.5 -7q0 -10 20 -7.5t21 1.5q14 -5 17.5 -8.5t-1 -6t-18.5 -5.5q-19 -6 -60.5 -1t-62.5 -1q-6 -2 -23 -10.5t-32 -13.5
t-25 -1zM1903 377q9 -9 6 -21q8 -9 -7 -26t-26 -19q-23 -6 -34 15t1 39q4 4 19 12.5t18 5.5q12 -6 23 -6zM1686 166q0 -1 1.5 -6.5t2.5 -10.5t0 -6l4 -6q-15 -10 -37 -7t-56 11.5t-40 8.5q4 -11 -18 -3l-17 7l-15 -4q-2 1 -9 0.5t-11 1.5q-6 6 -21 6q-19 3 -19.5 -1
t11.5 -15l5 -5t5 -5.5t5 -6.5q3 -2 15 -20t9 -19h-9h-3q0 6 -4 8q-3 -6 -12 0q0 -3 -6 6q-1 1 -1 2h-2q-10 20 -12 23q-2 2 -7.5 11t-10.5 11q-1 -1 0 -4.5t2.5 -7t1.5 -4.5q2 -3 6 -11t6 -11q0 -1 2 -6.5t2.5 -9t-2.5 -5.5q-5 0 -6 1l4 3q-7 2 -11.5 4.5t-9 8.5t-5.5 8
l-7 14q-3 7 -6.5 16.5t-4.5 12t-5 7.5t-9.5 8t-15.5 7q-15 6 -39 6q-2 0 -10 -5.5t-14 -4.5q4 0 7 9t-1 14q-3 3 -20 4t-21 8q-16 5 -16 1q0 -1 2 -5h-2q2 0 4 -2q21 -37 45 -47q3 -3 7 -5l-1 -1q5 -2 11.5 -8t8.5 -7q0 -4 4 -8q-1 -3 -1 -8.5t-1.5 -4.5t-9.5 3
q-2 1 -10.5 13.5t-15.5 12.5q-10 2 -12.5 -2t0 -11.5t2.5 -15t-5 -12.5q-13 4 -19.5 21t-10.5 40t-7 30q-25 34 -65 53q-3 1 -14.5 4t-14.5 6q-3 6 -6 6q-4 8 39 -5q11 -4 34 -12l21 -7q63 -20 76 -23q9 -2 15.5 -3t11 -1t10 1.5t8.5 2.5t11 4.5t12 5.5q66 26 69 17
q7 11 21.5 12t19.5 6l6 14q16 21 39 36t23 -7q-5 -6 -19.5 -16t-19.5 -19q6 -4 16 -0.5t21 2.5t14 -12q3 5 8 8q2 -3 8 -9.5t4.5 -9t-12.5 -5.5q-4 0 -17 1.5t-20 1.5t-18.5 0.5t-21 -1t-17.5 -4.5q-4 -1 -20.5 -3.5t-26 -5t-23.5 -6t-24.5 -8.5t-18.5 -12q7 -6 25 -9.5
t34.5 -5t37.5 -3t24 -1.5q10 -1 24.5 -2.5t20 -2t25.5 0.5q11 1 24 -1t22 -4.5t11 -2.5q13 7 23 -10l4 8q4 -2 4 -12l6 6t6 5t6 0t9 -5zM434 283q7 0 -3 -3l-17 -4q-3 0 -10.5 3.5t-10.5 3.5q-4 1 -10.5 1t-14 -0.5t-10.5 -0.5q-1 1 -12.5 0.5t-13.5 -0.5q-5 1 -9 3t-6 3.5
t-4.5 3t-3.5 2.5q-8 -12 -22 -6.5t-19 2.5q-6 -3 -15 0.5t-20.5 9.5t-19.5 8q0 10 8 10q1 0 11.5 -2t15.5 -4q8 -4 59 -4q45 0 82 -6q2 0 6.5 1t8.5 1t8 -2q3 0 8.5 -5t10 -10t3.5 -5zM571 225q13 5 28 3.5t27.5 -7t12.5 -8.5l-1 -5q-1 -4 -4.5 -11.5t-8 -14t-12.5 -10
t-17 -0.5q-12 0 -12 6v4q1 5 5 9t5 8q-23 11 -23 26zM1026 223q2 3 0.5 3t-2.5 -5zM971 219q2 -2 0 -4v4zM639 213zM754 154q10 -13 7.5 -18.5t-10 -11.5t-6.5 -9q3 -9 -9 -9q-21 0 -33 15q-2 3 -3 6q-6 21 14.5 33.5t39.5 -4.5v-2z" />
    <glyph glyph-name="ICON3" horiz-adv-x="2473" 
d="M2454 856q1 0 -1.5 -4.5t-5 -9.5t-2.5 -6q-6 -2 -18 -2q-6 0 -8.5 1t-2.5 2t0.5 6t0.5 9v12q-5 12 -19 14.5t-28 -6.5q-1 0 -9 -6t-14 -6q-6 -3 -14.5 6t-1.5 15q-5 4 -1.5 18t10.5 35t7 24q7 27 -7 40.5t-35.5 11t-37.5 -18.5q-15 -13 -24 -47q0 -2 -6.5 -14t-6.5 -15
q0 -4 6 -14.5t7 -15.5q10 -29 -4 -27q-15 1 -26 21q-8 12 -1 18q-9 5 -9 21.5t5 31t10 23.5q3 3 12.5 18t18 23t18.5 12q20 6 43 2.5t41 -12.5q14 -10 21.5 -27t-0.5 -28q3 -1 0 -16.5t-5 -22.5q-6 -6 -6 -15q-2 -3 -4.5 -2.5t-4 2t-1.5 0.5q3 -9 6 -10.5t9 1.5t10 3
q10 0 17 -0.5t10 -0.5l3 -1h17q2 -2 10 -18q21 -8 21 -25zM70 729q-4 2 -9.5 6t-11.5 11t-4 12q-9 15 11 29t36 14q1 0 17 2.5t18 2t18 -2.5q-25 23 -29 54.5t13 57.5q29 37 74 17q12 -4 25.5 -20.5t2.5 -24.5q-8 -3 -12.5 -0.5t-13 10.5t-12.5 10t-23 2q-59 -14 8 -98
q1 -1 13.5 -7t17.5 -11q0 -1 1.5 -5t3 -6t5.5 -2l12 -8q31 -15 78 -4q58 0 86 33q-3 0 -11.5 0.5t-14 0.5t-12 -2t-9.5 -5q-3 -2 -0.5 -4.5t1.5 -5.5t-9 -5q-4 -1 -12 1.5t-11 2.5q-10 3 -24 11.5t-17 9.5t-18 5.5t-22 10.5q-6 5 -21.5 12.5t-21.5 12.5q-1 0 -10 4t-12 6.5
t-6.5 8t-2.5 12.5q3 5 9.5 5.5t15 -2.5t16 -6.5t16 -8t12.5 -5.5q3 -1 12 -6t13 -6t14 -3t13 3q2 2 11 15t15 18q19 27 37 37q9 10 21 7.5t8 -18.5q-1 -5 -6 -10.5t-13 -11.5t-10 -8q-1 -1 -5 -8t-9 -9q5 0 13 8l9 9q6 4 19.5 9t19.5 9q39 13 39 37q-9 34 -31 47
q-4 2 -14 3.5t-16.5 2.5t-11 6t-1.5 13q1 8 15 10t20 -2q30 -10 49 -33q13 -21 8.5 -52t-24.5 -46q-8 -8 -35.5 -14.5t-36.5 -14.5q-15 -13 -1 -17t36 -4q3 0 12.5 1t15 1t10.5 -4.5t5 -13.5q0 -20 -31 -45q-47 -47 -133 -29q-7 2 -28 5t-36 7t-28 9q-53 23 -84 16
q-11 -3 -13.5 -8.5t2 -12t13.5 -12.5q10 -4 24 -3.5t21 -0.5q24 -9 8 -19q-7 -5 -18 -5q-4 -2 -20 -2q-8 0 -23 7t-16 7zM1774 633q-5 -1 -10.5 7.5t-8 17.5t-2.5 14q-5 15 14.5 34t30.5 19q21 3 74 -18q16 -5 20 -1.5t11 19.5q3 5 4 6q6 9 10 23l5 7.5t6 8.5t7 8
q-4 1 -8 -2l-4 -2q-2 0 -4.5 1t-3.5 1t-2 -2q0 -4 -6 -4q-16 -8 -35 -8q-10 0 -32.5 16.5t-22.5 26.5q-3 10 -8.5 20t-8.5 18.5t-2 20.5q6 12 10 35q8 23 21 33q6 6 29 16q38 19 63 6q17 -14 29 -30l26 -23q4 3 4 19t-2 30l-2 15q20 14 31 19.5t26.5 5.5t32.5 -11
q5 -4 26.5 -20t33.5 -27q43 -43 41 -76q0 -9 -10.5 -17.5t-18.5 -0.5q-4 8 -4 34q-1 2 -1.5 7t-1 7t-2 5.5t-2.5 5.5t-3 5t-4.5 5t-5.5 4q-7 5 -22.5 16.5t-25.5 18t-25.5 11.5t-29.5 4q7 -1 18 -16.5t13 -22.5q11 -19 14 -27q4 -7 14.5 -21t14.5 -22q3 -5 3 -8t3 -8
q2 -6 5 -8q2 -1 3.5 -2.5t3.5 -4.5q35 -45 43 -61q33 -59 21 -76q32 0 35 -6q7 -11 -9 -16q-4 -4 -11.5 -14.5t-12.5 -14.5q-11 -9 -11 -12t11 -13q25 -33 49 -33q27 -3 34 16t-5 42q-1 3 -7 9t-9.5 12t-0.5 10q5 6 7 6t8 -3.5t8 -4.5q20 -20 22 -37q2 -32 -6 -49.5
t-39 -20.5q-55 0 -82 37q-1 4 -5 12l-5 10q-2 2 -4 5q-2 4 -8 3q-2 0 -3 -0.5t-3 -0.5q-9 -3 -18 -8t-19.5 -12.5t-16.5 -10.5q-2 -1 -26 -19q-3 -1 -12 -6t-15 -6q-22 -18 -35 -27t-38 -21t-37 -19q-25 -20 -41 -7q-8 15 0 27q3 2 15 9.5t15 10.5q10 8 21 13q12 12 20 12
q-4 2 -32 2q-14 2 -39 2q-45 13 -56 23q-31 19 -22 34q3 3 7.5 3.5t9.5 -2t9.5 -5.5t9.5 -7t7 -5q11 -7 23 -11t29 -5.5t25.5 -2t31.5 0t28 0.5q-6 7 -25 30t-30 34.5t-29 27.5t-36.5 23.5t-37.5 7.5q-22 -2 -26 -19.5t1 -33t-7 -21.5zM1894 793q10 1 23.5 6t19.5 6
q3 2 5.5 2t5.5 -1l2 -1q3 0 8 3t8 3q-7 8 -30 22t-29 19q-8 6 -30 16.5t-30 16.5q-1 1 -4.5 4t-4.5 4.5t-2.5 4.5t0 6.5t5.5 6.5t12 -0.5t13 -9.5q47 -12 57 -29q8 0 28 -12t25 -14q7 -5 23.5 -12.5t23.5 -12.5q35 -18 37 -18q-4 22 -28.5 57t-30.5 51q0 -2 -0.5 -7.5
t-1 -7.5t-2 -5.5t-4 -5.5t-6.5 -4q-9 -1 -12.5 -0.5t-9.5 3t-9 3.5q-7 4 -24.5 21t-30.5 20q-38 12 -69 -23.5t-3 -66.5q2 -2 2 -15q26 -24 37 -28.5t26 -1.5zM2396 821q20 -9 -20 -31q-9 -5 -9 -6q-11 -11 9 -24q6 0 12 -12.5t6 -20.5q3 -14 -6 -29q-37 -32 -61 -36
q-37 -10 -91 16q-35 15 -30 33q2 9 12.5 25t11.5 18q-10 -2 0 12l11 14q0 1 6.5 17.5t7.5 23.5q2 16 2 58q3 15 17.5 19.5t23.5 -11.5q0 -17 -6 -41q3 -3 -2 -10q8 -6 24 3.5t19 8.5q13 -11 1 -20.5t-28 -16.5q-17 -4 -19 -6t-10 -17q-2 -17 -14 -40q-25 -33 -22 -39
q1 -16 32 -21.5t54 -3.5q35 3 43 31q1 7 -3.5 13.5t-15 15t-12.5 10.5q-10 14 -7 26.5t17 20.5q2 1 7.5 5t11 7.5t12.5 7t10.5 3.5t5.5 -3zM1311 238q10 -6 33.5 -36t15.5 -34q-3 -3 -1.5 -18.5t-10.5 -18.5q-7 -1 -12 4.5t-5 9.5t2.5 14.5t1.5 14.5q0 4 -1.5 5.5t-3.5 2.5
l-3 2q-3 2 -11 12t-11 11q-13 11 -31 2q-2 0 -8.5 1.5t-12.5 1.5t-10 -3q-2 -1 -6.5 -3.5t-7 -3t-8.5 0.5q1 -8 7 -9.5t13 0t14 -0.5q10 0 37 -9q22 -22 0 -30q-7 0 -20.5 6.5t-18.5 7.5q-9 2 -29.5 2t-29.5 2q-51 4 -76 2q-42 -4 -63 -20q-42 -30 -45 -33q-4 -5 -3 -7.5
t1 -4.5q1 -3 5.5 -10t4.5 -13q0 -8 -6 -19.5t-15 -11.5q-7 -1 -12.5 5.5t-10.5 19.5t-7 16q-8 12 -18 24.5t-23 28t-21 25.5q-4 15 -8 19q-12 12 -14 16q-1 3 0 6t0 4q-21 14 -56 -35q-26 -52 2 -63q14 -5 24 3t14 21t10 22t14 5q15 -8 -2 -34.5t-29 -33.5q-23 -13 -46 1
t-23 40q0 32 16 54q24 32 45 47q-13 11 -33.5 34.5t-27.5 30.5q-16 18 -56 58q0 -3 5 -15t5 -16q0 -15 -2 -23q-6 -18 -22 -24q-13 -5 -33 0t-29 14q-27 25 -23 64.5t36 62.5q-4 3 -37 28.5t-41 37.5q-13 6 -39.5 28.5t-36.5 28.5q-31 19 -39 14q-21 -14 -25.5 -46.5
t5.5 -51.5q2 1 12 18q25 43 37 43q6 0 10 -8q1 -7 -4.5 -21t-11.5 -22q-5 -15 -28.5 -32t-35.5 -9q-24 17 -12 84q4 11 11 20.5t16.5 20.5t15.5 19q-6 7 -17 13.5t-25 13t-21 10.5q-19 17 -68 47q-11 7 -31 18t-28 16q-1 1 -4.5 4t-5.5 5t-5 6t-2.5 6t2.5 6q8 4 15.5 2.5
t22 -8t15.5 -6.5q20 -12 38 -23.5t25 -16t9 -5.5q9 -2 31.5 5t28.5 7q4 0 8.5 -1.5t7 -2.5t5 -1.5t2.5 0.5t-0.5 4.5t-2.5 10.5q0 4 -5.5 15.5t-6.5 17.5q0 2 -3 18.5t-1 22.5q0 1 3 5t6.5 8.5t4.5 6.5q19 28 50.5 29.5t53.5 -33.5q1 15 4.5 25t7 14t15.5 13.5t18 15.5
q13 13 21 16q19 13 35 11q15 -2 28.5 -9t12.5 -18q-4 -8 -9.5 -9.5t-16 1t-15.5 2.5q-16 0 -42.5 -15t-33.5 -30q-1 -5 4 -36q10 -69 -3 -68q-2 0 -5 1q-11 4 -21 33l-9.5 19t-10.5 20q-9 15 -24.5 15.5t-30.5 -13.5q-20 -17 -14 -48t30 -40q7 -4 19 -4.5t26.5 1t17.5 1.5
q6 -2 16.5 -2t16.5 -2q34 0 72 -6q2 0 84 -6q18 0 39.5 -6t21.5 -21q-4 -22 -51 -14q-24 6 -49 10t-61.5 7.5t-47.5 4.5q21 -14 49.5 -42t16.5 -38q-8 -12 -24 -0.5t-21 21.5q-5 5 -19 19.5t-23 22.5t-23 15.5t-27 7.5q12 -14 25.5 -25t35.5 -26.5t29 -21.5q4 -2 16.5 -11.5
t20.5 -11.5q59 -15 59 -29q0 20 -14.5 38t-16.5 32q-2 11 5 19.5t20 0.5q3 -2 8 -22.5t8 -24.5q2 -4 7 -15t7 -17t3.5 -14.5t-2.5 -14t-13 -8.5q-15 -3 -24 -3.5t-24.5 6t-24 11.5t-22 13.5t-19.5 11.5q-12 14 -47 39q-11 8 -33.5 29.5t-38.5 31.5q-13 10 -25.5 12.5t-32 0
t-26.5 -2.5q21 -9 76 -47q58 -30 71 -43q4 0 14.5 -9t14.5 -11q4 0 19 -15q21 -15 30 -24q5 -3 10.5 -7t11.5 -9.5t9 -8.5q36 -31 76 -71q5 -3 28 -31q2 -4 7.5 -8.5t13 -11t12.5 -11.5q24 -29 31 -35q2 -4 10 -11.5t10 -10.5q11 -17 25 -29q11 -11 31 -35q4 -6 8.5 -13
t9.5 -14.5t8 -11.5t12.5 -14t12.5 -16q0 -2 1 -8t1.5 -8.5t3.5 -5.5t8 -3t19 14q11 12 49 41q16 9 23 26t12 39t12 34q10 13 35 25.5t39 6.5q4 -1 6.5 -3.5t4.5 -6t3 -4.5t5 -1.5t7 -2t4 -4.5q13 -20 4 -41q-1 -4 1 -10t-3 -13q2 1 18.5 5.5t23 5.5t19 3t21.5 0.5t17 -5.5z
M1372 729q-12 24 -12 39l-1.5 7.5t2 9t4.5 10t6.5 10t7 10t7 9t5.5 7.5q15 19 32 33q21 11 46.5 7.5t43.5 -19.5q7 -6 11.5 -15.5t8.5 -25t5 -18.5t4.5 -17t7.5 -26t9.5 -25t12 -20.5t13.5 -6.5q10 5 22.5 22.5t16.5 20.5q20 27 47 13q25 -8 31 -29q3 -8 6 -19.5t4 -15.5
l5 -10q5 -11 5 -16q0 -28 -20 -13q-1 2 -1.5 6t-1 9.5t-1.5 9.5q-3 4 -8.5 17.5t-8.5 17.5q-16 16 -22 16q-17 5 -25 -10q-3 -3 -26 -31q-26 -22 -43 -20q-3 1 -6 3l-4.5 3t-3 3.5t-2.5 4t-2.5 5t-2.5 5.5q-12 16 -12 21q0 20 -1 24.5t-9 12.5q-4 9 -8 31.5t-13 35.5
q-24 38 -51 33q-5 -1 -9.5 -5t-9 -11.5t-6.5 -10.5q-16 -19 -22.5 -32t-5 -29.5t17.5 -32.5q34 -23 43 -41q15 -21 3 -29q-8 -3 -19 5q-11 9 -43 45q-2 2 -13 8.5t-14 13.5zM326 825q-4 4 -1 16t3 13q-6 -1 -14 -11t-11 -12q1 0 9 -4q14 -6 14 -2zM2290 852v-4v4zM711 823
q2 11 12 1q7 -7 4 -13q0 -3 -1 -5t-1 -3q-2 -5 -7.5 -11t-6.5 -8q-3 -4 -11.5 -13t-12.5 -16.5t-3 -15.5q6 -45 80 -12q6 2 28 15.5t37 15.5q45 0 84 -39q23 -17 31 -55v-46q0 -23 -12 -38q-9 -6 -10.5 -3t-0.5 12q1 2 1 3.5v3.5v4q7 29 -4 53q-6 32 -23 45q-38 31 -66 27
q-15 -3 -45.5 -21.5t-50.5 -19.5q-32 -1 -54 19.5t-22 50.5q0 18 18 41t36 28zM1925 727q-1 -5 -5 -16.5t-5 -20.5q8 3 25.5 1.5t25.5 2.5q6 3 24 20t31 17q4 0 18.5 -11.5t22.5 -10.5q6 0 9.5 5.5t3.5 10.5v33q-18 0 -54 26q-4 2 -14.5 9.5t-20 12.5t-16.5 5q4 -4 -1 -14.5
t-12.5 -21t-8.5 -13.5q-6 -8 -13.5 -20t-9.5 -15zM2095 719q7 -11 -14 -24t-33 -13q-7 1 -15 7.5t-12 8.5q-10 6 -11.5 6t-10.5 -6q-5 -3 -17 -15.5t-23 -17.5t-24 -1q3 -13 19 -29q17 -33 26 -37q6 -6 13.5 -6t12 3.5t12.5 10t12 8.5l94 50l12 4l5.5 5.5t1.5 4t3 8.5
q0 9 -5.5 22.5t-6.5 18.5q-1 1 -6 14.5t-11.5 23t-11.5 5.5t-5.5 -25t-4.5 -26zM1489 584q21 0 24 4.5t-8 19.5l-5 10l-3 7q-9 15 -13 24t-4.5 11.5t0.5 4.5t1 3q-11 11 -11 14q0 -1 -5 10.5t-10 24t-5 14.5q0 7 0.5 9t0.5 3t2.5 3t4.5 4q24 16 31 -21q16 -42 43 -88
q51 -93 102 -149q1 -2 6 -8.5t9 -12t9 -13.5t7.5 -14t4 -12t-2 -9.5t-10.5 -4.5q-11 0 -28 19t-23 32q-25 30 -31 39q-3 2 -18 26t-23 25q-14 -4 -22.5 -4.5t-14.5 1t-8 1.5q-4 0 -17.5 -2.5t-21 0.5t-12.5 14q-4 10 0 15t15 5t18 -1.5t18 -3.5zM307 438q-3 -20 -26.5 -38
t-40.5 -7q-9 6 -22 30t-25 30q3 -8 -10 -27t-23 -27q-5 -3 -11 -3.5t-13 0.5t-9 1q-25 0 -33 4q-5 2 -10 5t-8 4q-4 3 -14 7.5t-13 10.5q-4 4 -5 8.5t0 11.5l1 7q5 18 8 39q0 30 10 38q-10 0 -19 10.5t-11 24.5q-13 22 -13 35q0 23 46 62q21 21 63 32l10.5 3.5t10 4t6.5 4.5
t6 7q2 2 8.5 13t12.5 15t14 2t9.5 -7t-2 -12t-7.5 -13t-10 -13.5t-7 -9.5q0 -1 -10 -24t-10 -35q12 -2 36 1t45 3t35 -10q12 -8 6.5 -16.5t-16.5 -10.5q-10 -6 -47 -6q-47 0 -61 10q0 -13 2 -36t2 -34q4 -18 -8 -24q-9 -2 -15 10q-3 10 -5.5 30.5t-4.5 26.5q0 27 -2 39
q0 1 -4.5 8.5t-3.5 10.5t10 0q0 8 10 33q-6 -3 -25 -10.5t-28 -14.5q-66 -51 -16 -80q4 -1 12.5 -2.5t10.5 -2.5t5.5 -4.5t3 -9t-3.5 -14.5q-2 -12 -20 -59q-8 -24 -8 -29q5 -3 20.5 -7.5t22.5 -4.5q15 -5 31 2.5t22 22.5q1 6 2 14.5t1.5 13t2.5 10t7 5t14 -3.5
q16 -12 18 -17q8 -10 8 -12q4 -4 4 -8q3 -3 8 -11t10 -12t13 -4q12 0 18.5 13.5t6.5 29.5q11 4 -0.5 21t-29.5 35.5t-18 19.5q-17 28 5 37q2 0 10.5 -2.5t13.5 -1.5l9 4h-1q4 6 8 6q7 0 14.5 0.5t11.5 1.5h5q3 8 23 8q10 0 18 -10q4 -6 4.5 -11t0 -6.5t-5.5 -5.5t-7 -6
q-3 -1 -22 -3.5t-34.5 -5.5t-15.5 -7q0 3 10 -10q9 -11 7 -11q6 -9 7 -17t3 -13q1 -5 7 -26t5 -30zM1671 682q4 0 4 -20q0 -4 -18 -19.5t-19 -19.5q-1 -1 -8 -12.5t-14.5 -21t-11.5 -9.5q-34 0 3 49l17 18q5 4 13 15t14 16q1 1 4.5 4t5 3.5t4 0t6.5 -3.5zM1405 514
q-51 0 -74 66q-8 49 3 69q5 11 16 4q-1 9 30 11q5 -1 10 -6.5t9 -6.5q2 -1 8.5 -1t11 -2t4.5 -9l13 2q5 0 8 -6q6 -4 8 -15t-6 -16q-4 -1 -13 3.5t-19 10.5l-11 7q-21 10 -35 8q-11 -1 -13 -14.5t2.5 -28t10.5 -23.5q17 -27 51.5 -31.5t61.5 3.5q23 5 23 -4q0 -6 -25 -34
q-2 -3 -4 -5q-22 -24 -7.5 -34.5t43.5 1.5q8 1 26.5 11t25.5 11q13 0 15 -8t-5 -14q-4 -4 -9 -6t-10 -2.5t-6 -1.5q-5 -2 -15 -8.5t-18 -10t-16 -4.5q-41 -7 -55.5 21.5t10.5 60.5q-10 -4 -20 -4q-6 0 -16 3t-13 3zM918 539q17 9 26 2l8 -1q8 -1 14.5 -4t4.5 -8q1 0 3 -1
q13 -3 15 -13q-1 0 -0.5 -2t1.5 -4l1 -2q2 3 5 4.5t7 2t5 1.5q2 10 4 12q3 6 12 33q8 17 27 29q1 0 10 8t16.5 12t9.5 0q0 10 8 1q3 -4 3 -7q9 12 44.5 4t47.5 -18q1 -1 6.5 -6t10 -9t5.5 -6q0 -6 -8.5 -17.5t-9.5 -12.5q0 -2 -2 -14.5t-4 -16.5q-4 -5 -16 -12.5t-15 -10.5
h-8q-2 0 -4 -3.5t-4 -4.5q-18 -12 -25 -12q-10 1 -10.5 12.5t4.5 18.5q7 10 28 25.5t27 21.5q10 12 9.5 15.5t-13.5 12.5q-13 6 -26 9q-24 5 -46 -4.5t-34 -32.5q-4 -26 -13 -35q-5 -7 -13.5 -16.5t-10.5 -12.5t-5 -9.5t-5.5 -11t-6.5 -5.5q-25 -11 -40 30v14t-0.5 9.5
t0 5.5t-1.5 3.5t-3 1t-6.5 0t-9.5 -0.5h-9h-8t-7 -0.5t-6.5 -1t-5.5 -2t-6 -3.5t-4.5 -5.5t-4.5 -7.5q-8 -4 -8 -25q1 -4 12.5 -11.5t11.5 -8.5q2 -2 8 -6t9.5 -7t7.5 -7.5t5.5 -9.5t0.5 -11q0 -9 -8.5 -10t-19 1.5t-19.5 -0.5q-8 -2 -24 -13.5t-15 -18.5q2 -9 24 -9
q31 -2 54 21q5 6 13 14t17 16.5t13 12.5q26 26 47 39q4 4 10 4q2 0 12 -4q20 -20 2 -29q-1 -1 -3 -1.5t-5.5 -1t-5.5 -1.5q-8 -6 -21 -19t-23 -22t-13 -10l15 -2q85 -10 86 -23q0 -4 -7 -8q-10 -7 -45 0q-12 1 -33 6t-29 6q-11 0 -33 -11t-36 -9q-16 0 -41 10q-10 8 -19 10
q-7 7 -7.5 8.5t-0.5 12.5q0 14 6 20l15 11q2 4 8 10q8 4 10 4q20 10 35 10q-4 4 -17 13t-21 17t-7 15q0 7 10 17q0 14 4 20q11 22 21 12q5 8 16.5 15t16.5 -2zM2130 608q6 0 12.5 -16.5t3.5 -22.5q0 -10 -2.5 -20t-7 -23t-6.5 -18q-1 -2 -1.5 -4.5t-1 -4.5t-1.5 -4.5
t-2.5 -3.5t-3 -3t-3.5 -3t-5 -1.5t-7 -0.5q-10 0 -23.5 12t-19.5 13q-8 2 -20 -6l-12 -8l-17 -11q-1 -1 -2.5 -4t-3.5 -6t-6 -4q-8 -8 -14 6q-2 5 12 19q1 2 7 6t7 6q10 8 19 12q10 6 36.5 7.5t34.5 -9.5l13 31q0 25 2 33q6 26 12 28zM2327 387q4 -7 6.5 -21.5t-0.5 -21.5
q4 -4 -7.5 -31t-17.5 -30q-8 -8 -14 4q-3 5 -0.5 10.5t8 11l6.5 6.5q8 24 -8 70q-1 3 -33 47q-6 6 -17.5 24t-19.5 25q-3 4 -9.5 8.5t-10.5 9t-4 9.5q3 15 16 13q9 -2 8 -13q8 5 19.5 -9.5t13.5 -23.5q25 -35 35 -47q23 -28 29 -41zM1595 299q1 -3 -12.5 -13.5t-28.5 -21
t-16 -12.5q-25 -25 -27 -29q-20 -16 -26 -24q-8 -8 -23.5 -27t-23.5 -27q-9 -22 -24 -32q-10 -7 -14 6q-1 1 -1 2q-3 3 -1 17.5t5 17.5l6 12t6 14q7 2 12 11q42 52 54 47q0 2 -1.5 5.5t1.5 4.5q-12 9 -28.5 2.5t-29.5 5.5q-33 11 -24 64q5 13 16 24t23 12q16 7 63 -12
q2 0 5.5 3t6.5 3q2 -3 11 -8t10 -6q2 -1 6 -4.5t7.5 -6.5t4.5 -3q4 -1 12.5 3.5t17.5 11t13 7.5q49 43 103 72q85 53 110 65q9 6 17 9t17.5 4.5t11.5 -5.5t-1 -22v-8l-2 -4t-4 -2q0 -2 -3.5 -5.5t-4.5 -5.5q-4 -8 -13 -21t-14.5 -24t-7.5 -22q-9 -21 -1.5 -32t36.5 1
q11 8 19 23t8 30q0 6 -5.5 16t-9 18t-0.5 11q8 25 28 -11q7 -13 7 -17q8 -37 -2 -60q-10 -19 -34.5 -31t-43.5 -10q-55 13 -11 108q2 5 3 7q-28 -24 -59 -33q-41 -27 -56 -39l-3 1q-2 1 -5 1t-6 -2q-16 -20 -24 -23.5t-9 -4.5q-30 -20 -41 -31zM2148 432q33 -22 49.5 -34.5
t40.5 -36t39 -50.5q0 -20 -8 -20q-3 -4 -7 -2.5t-5.5 2.5t-4.5 6.5t-5 7.5q-14 36 -47 62q-55 38 -86 69q-35 22 -86 -47q-16 -16 -21 -31q-5 -6 -31 -45q-9 -7 -20 -2t-10 19q0 5 6 15t12 13q9 15 30.5 37.5t28.5 32.5q39 48 76 37q8 -1 16 -6t17.5 -14t15.5 -13zM1178 461
l8 1q9 1 14.5 1.5t7.5 -0.5q5 4 19 0t16 -10q10 -5 10 -37q0 -21 -24 -41q-13 -5 -31 -8q-22 -5 -57 -5q-7 -1 -13.5 -1t-9 -0.5t-5 -0.5t-3 -2t-1 -3t0 -7t0.5 -10q0 -32 -29 -47q-17 -14 -71 -21q-10 1 -18.5 1.5t-10.5 0.5t-7.5 1t-12 3t-21.5 7l-9 3t-11 3.5t-7 1.5
q-9 2 -15 8t-2.5 11t17.5 5q5 0 35 -10t43 -10q12 0 37 10q22 0 39 17q10 8 9.5 27t6.5 30q1 2 2 4.5t1 3t1.5 1l4.5 1.5q10 0 21 1t15.5 1t8.5 -2q5 0 19.5 -1.5t23.5 -1.5t21 5t20 17q16 28 -12 26q-9 0 -26 -4q-8 -2 -9 -2q-43 0 -48 10l-3 7.5t3.5 4.5t8 2.5t9 1.5
t7.5 1q17 0 27 6zM2267 227q8 2 8 -22q-1 -3 -5.5 -3.5t-6.5 -2.5t-4.5 -6t-5 -6t-6.5 -3q-4 -3 -7.5 -4t-7.5 -0.5t-6 1.5t-7.5 3.5t-6.5 3.5q-9 7 -19 31q-1 3 -12 31q0 -4 -4 -4l6 -10q1 -2 2 -6.5t2 -6.5q10 -16 0 -26q3 1 5 -2t2.5 -8.5t0 -10.5l-1 -10t-0.5 -6
q1 -4 4 -10.5t2.5 -8t-1.5 -10.5q-33 -48 -58 -63q-35 -21 -67 -21q-15 0 -33 6q-20 10 -27 22q-4 6 4 7q-17 8 -20 22v17h-1q-3 -1 -4 1q-1 1 -1 3q-6 10 -6 35q0 12 1 29.5t1 27.5q0 15 4 23q0 3 3.5 8.5t-1.5 11.5q-5 -8 -20.5 -18.5t-24.5 -10.5q-41 -5 -56 21
q-14 37 15 100q13 21 32 51l10 14l-1 -1q2 4 8 10q1 1 2 3t6 3q10 14 20.5 12t0.5 -22q-5 -5 -15 -14t-16.5 -17t-9.5 -16q-2 -4 -8 -13.5t-9.5 -16t-7 -15.5t-4.5 -17q0 -28 8 -39q6 -9 18 -15t15 -9q0 4 6 8.5t16 9.5l9 6q21 12 26 5q5 -5 7.5 -11t1.5 -14t-2 -13.5
t-3.5 -14.5t-3.5 -11q0 -50 2 -62.5t13 -31.5q1 -4 4 -10.5t4 -10t0 -8.5q3 0 15.5 -6.5t14.5 -7.5q18 -9 37 -2q24 2 42.5 16t25.5 37q11 28 -14 86l-3 8q-2 4 -9.5 5t-8.5 1q-9 4 -25 21t-18 18q-1 -11 6 -34t8 -27q0 -1 2.5 -9.5l5 -17t1.5 -8.5q-17 -10 -29 10
q-4 5 -7 12t-5.5 17.5t-3.5 17.5t-2.5 20t-2.5 17q-6 30 -6 64q4 48 11 63q2 5 5 10t7.5 8.5t8.5 1t7 -11.5q2 -5 -2 -20.5t-4 -18.5q-5 -45 0 -57l2 -2t3 -3.5t3.5 -4t1.5 -0.5q4 -3 23 -27q2 -2 6.5 -4.5t7.5 -4t6 -5t4 -6.5q1 2 2.5 9.5t3 11t5 7.5t8.5 5q10 2 22 -7
q1 -2 7 -10t8 -12q3 -3 6 -21t6 -22q3 -2 29 -2q5 1 11.5 10t8.5 10zM678 326q8 -8 28 -12q16 -1 15 10q-1 5 -3.5 18.5t-4.5 24.5t-6 22t-9.5 16.5t-13.5 2.5q-20 -4 -20.5 -36.5t14.5 -45.5zM389 205h7t2.5 -2t4.5 -4q7 -7 2.5 -14.5t-9 -11t-13.5 -8t-10 -5.5
q-17 -10 -20.5 -24.5t5.5 -26.5q1 -3 2 -7q1 -5 3 -5.5t4 -0.5q4 -2 10.5 -2t8 -2.5t-0.5 -11.5q-4 -12 -10 -14q-2 -3 -8.5 -1.5t-8.5 1.5q-4 1 -8 0t-8 4q-6 4 -7 8.5t-3 7.5q-4 10 -6.5 18t-3 12.5t-1 8t0 5t1.5 2.5t2 1.5t1 1.5l2 4q0 1 0.5 2.5l1.5 4.5l2 6l10 14v0
q2 1 2 5t2 5q1 3 4.5 4.5t6.5 1.5h3q0 15 -6 15h-6l-6 -5q-7 -4 -12 -4q-10 0 -19 9q-8 0 -28 10q-11 0 -17 2q-1 3 -7 8.5t-7 9.5q-25 30 -7.5 76t50.5 59q7 3 43 7q15 6 33 6q12 -6 18 -6q13 0 17 -2l26 -13q6 -8 6 -16q2 2 5.5 0t5.5 -3t4.5 -4.5t3.5 -4.5q2 0 5 -1h3
q2 3 8 5q5 2 9 5.5t5.5 6t5 8t5.5 8.5q19 42 61 39q12 -3 29 -21t20 -30q4 -25 4 -31q-3 -27 -19 -14q-9 8 -13 21q-2 4 -2 8t-3 8q-2 5 -10 12.5t-14 7.5q-7 5 -10 0q-4 0 -5.5 -1.5t-3.5 -2.5q2 0 -5 -7l-3 -3q-1 -2 -9 -13.5t-12 -17t-12 -14t-16 -12.5t-16 -4
q-5 0 -8.5 2t-7.5 6.5t-7 7.5q-2 5 -9 15.5t-11 11.5q-3 3 -9.5 4.5t-16.5 3t-15 2.5q-60 10 -96 -21q-12 -9 -17 -23t2 -30q3 -17 25 -26q5 -2 10 -2.5t10 -2.5q32 -4 49 -12q1 0 11 -1t15.5 -4t4.5 -9zM1659 143q0 3 1 13t1 15t-4 10.5t-12 6.5q-4 0 -14 8t-15 9h-6.5h-6
t-5 0.5t-3 2t-1.5 5.5t1 10q1 6 8 21.5t9 21.5q9 26 21 33t36 -4q3 -1 7 -2.5t5.5 -2.5t4 -0.5t5.5 2.5t7 7q8 24 22 31q20 12 41.5 0.5t24.5 -35.5q11 -36 -21 -68q37 6 50 0q19 -19 -24 -25q-23 -3 -24 -3t-14.5 -4t-19.5 -2q-12 7 2 34q2 4 8.5 11t9.5 12q7 29 14 29
q-2 4 -3 13t-5 13.5t-14 5.5q-22 0 -27 -12q-9 -15 -18 -41q-4 -22 -16 -31q-7 -6 -12 7q-1 1 -1 2q-2 6 2 19t-2 19q-1 0 -5.5 3t-9.5 5.5t-9 0.5q-8 -1 -13.5 -13.5t-5.5 -23.5q-3 -27 19 -37q27 -9 41 -16q38 -19 55 -21q4 -2 15.5 -4.5t18.5 -6t7 -9.5q0 -8 -9 -9.5
t-23 3t-27.5 9.5t-26 10.5t-15.5 6.5q-3 -15 4.5 -41.5t4.5 -38.5q-1 -3 -0.5 -6t0.5 -3.5t-2 -1.5t-7 1q-9 0 -14 14q-4 6 -10 47zM1487 283q4 3 20 11.5t21 14.5q-7 1 -21 7t-26 10.5t-24 7t-20 -3.5t-10 -21t3 -22.5t15 -8.5t23 1q1 1 4.5 1.5t8 1t6.5 1.5zM748 258
q52 13 60 6q6 -4 -1 -16q-10 -10 -45 -10q-8 -1 -18.5 -7t-16.5 -8q-7 -2 -19 -3.5t-14 -2.5q-40 -13 -43 -12q0 -2 0.5 -9.5t1 -15.5t0.5 -16t-1.5 -13.5t-4.5 -5.5q2 -25 -31 -65q-2 -1 -16.5 -10t-25.5 -15t-11 -2q-1 0 -1.5 -1.5t-2 -3t-4.5 -1.5q-6 -2 -16 -2
q-33 -7 -43 33q-3 5 -6.5 16.5t-4.5 14.5q-2 4 -3.5 6t-3.5 2t-3 -0.5t-4 -3t-6 -4.5q-5 -2 -15.5 -9.5t-13.5 -7.5q-10 -2 -17 4.5t-3 16.5q18 10 18 12q7 2 18.5 7.5t20.5 8.5t16 2t11.5 -2.5t7 -6.5l4 -8t3.5 -11t3 -11t2.5 -8.5t2.5 -8.5t3 -7t4.5 -6t6 -4t8.5 -2
q28 0 49 24q4 5 8 11.5t7.5 14.5t6.5 13q4 18 9 29l1 6q2 7 3.5 14t1.5 14t-2 9q-1 1 -18 1t-19 -1q-12 -3 -15 -11.5t-1 -18t-1 -19.5q0 -13 -2 -19q-2 -11 -3 -12q-1 0 -7 -2q-26 -14 -25 8q0 2 10 42q1 2 1 3q3 22 0.5 26t-21.5 5q-5 0 -18 2l-12 2q-9 0 -26.5 -17.5
t-25.5 -19.5q-14 -6 -22 2q-6 10 10 14q1 3 12.5 15t10.5 20q-4 -2 -9.5 2.5t-9.5 5.5q-2 5 -16 5q-17 6 -21 14q-6 15 5 26.5t26 4.5q5 -3 17.5 -9.5t17.5 -9t17.5 -8t18.5 -6t19.5 -3t20.5 0.5l20 2q20 -3 20 -6q0 -1 -2 -3l-1 -1h6q4 -6 33 -2t36 4h27q13 5 39 10
q5 1 14.5 4.5t12.5 3.5zM1182 207q-4 5 0 27t0 28q-1 1 -3 7t-8 12q-16 3 -26 0q-8 -4 -13.5 -10t-9 -15.5t-5 -15.5t-4 -18.5t-3.5 -16.5h25q3 0 22 1.5t25 0.5zM1884 188v-36q0 -44 -6 -54q-6 -11 -15 -14.5t-16.5 -2.5t-20.5 4.5t-18 4.5q-3 1 -11.5 3t-13.5 3t-12.5 2
t-12 0t-10 -3t-8.5 -7t-5 -12q-1 -9 -0.5 -19.5t-0.5 -20.5t-3.5 -18.5t-9.5 -14t-19 -5.5q-19 0 -41 17t-23 34q0 10 3 15t14 4q7 -1 12 -17t8 -18q13 -11 23 -5t14 19q3 10 3.5 24.5t2.5 20.5q0 4 4 12q2 0 11.5 9t9.5 10q17 6 53 -6t55 -6q7 2 10 5t3 5.5t-1 8.5t-1 11
t2 19.5t1 24.5t-7 18q-1 1 -8.5 4t-9.5 6.5t-1 9.5q5 9 21 4q27 -16 24 -39z" />
    <glyph glyph-name="ICON4" horiz-adv-x="1632" 
d="M1587 236q17 -29 -16 -50q-57 -50 -131 -77t-148 -27q0 -21 -26 -47q-23 -23 -68 -23q-227 -34 -536 -16q6 -9 2 -24.5t-11 -22.5q-31 -21 -55 -21q-250 0 -375 -8q-1 0 -49.5 -4.5t-88.5 -4.5t-44 9q-3 7 21 23.5t55.5 35t38.5 25.5q-66 0 -105 8q-7 0 -7 12.5t7 18.5
q3 2 15 7.5t18.5 9t14 12t10.5 18.5v508q0 95 1.5 147.5t12.5 133.5t33 147q64 178 220.5 302.5t342.5 146.5q195 22 377 -64t282 -252q115 -174 115 -446q12 -217 0 -428q5 7 13.5 6.5t17 -9.5t8.5 -20q0 -8 -2 -14t-8.5 -17t-8.5 -16q4 0 30.5 15t43.5 6zM145 301
q0 -10 -3.5 -57t-3.5 -87t7 -57q10 -12 41.5 -12t72 6t50.5 6q30 0 39 11q24 24 29 28q27 27 76 27q223 38 555 20q-14 28 18 50q8 8 47 8q19 -1 84 -7t96 -7.5t79 1.5t85 13l29 8q30 27 8 59q-4 75 -3 165.5t4 168t-3.5 168.5t-26.5 166q-41 143 -141.5 252.5t-239.5 167.5
q-134 51 -288 41t-275 -80q-128 -71 -215 -197t-110 -270q0 -27 -11 -49v-543zM1501 166q0 9 10 12h-10q-4 0 -8.5 -3t-6.5 -6l-3 -3q-8 -8 -18.5 -10t-18.5 10q-1 3 -1.5 6t-0.5 5t1 4.5t1.5 4.5t2.5 4.5t2.5 3.5t3.5 3.5t3.5 3l3.5 3.5t4 3l17 16v13q-6 0 -18.5 -7.5
t-18.5 -13.5q-10 0 -24.5 -4t-24.5 -4q-35 0 -58 -10h-47q-14 0 -38 5t-37 5h-105q116 -21 172 -21h8q5 0 10.5 5.5t10.5 5.5q7 0 11 -11t-3 -20v-8q-8 -10 -8 -19q0 -4 -5 -14t-5 -14q4 0 20.5 4t26.5 4q17 0 67 20q20 0 58 19q4 0 13 4t13 4zM1284 139v19q-4 -4 -12 -4
t-17 2t-12 2q-4 0 -12.5 -5.5t-13.5 -5.5q-2 0 -8 2t-11.5 2t-9.5 -4h-115q-51 0 -96 11h-217q-64 0 -98 -11q-6 0 -17 2t-19 2t-12 -4h-49q-27 0 -45 -8h-31q-18 0 -28 -8q-35 0 -58 -12h-8l-10 -8q-8 -11 -8 -21h-10v-16h-11l-8 -13q0 -10 -4 -27t-4 -22h63q12 0 36 6.5
t32 6.5h514q10 4 20 4t18.5 -2t10.5 -2q10 10 39 10h39q19 0 37 8h18q21 0 21 10q4 0 7 -2t6 -2t7 4h19l8 8q7 0 18 13q0 6 1.5 8t11.5 8v21q0 14 18 28zM557 -31h8q-27 8 -84 8h-20q-4 0 -13 4.5t-14 4.5h-125q0 4 -2.5 8.5t-4.5 7.5l-3 2q0 4 5 9.5t5 11.5l7.5 22.5
t13.5 26.5h-68q-48 0 -67 -13q-40 0 -58 -8q-18 -10 -47 -10q29 -8 78 -8q4 0 8.5 -2.5t7.5 -4.5l2 -3q18 0 27 -13q18 -7 -15 -32l-3 -3q-4 -2 -24 -7.5t-26 -12.5h97q6 0 21 2.5t28.5 2.5t25.5 -5h39q8 9 11 9t10 -9h104q20 12 76 12z" />
    <glyph glyph-name="ICON5" horiz-adv-x="1228" 
d="M492 981q5 12 6 22t0 21.5t0 19.5q2 18 12 58q15 54 31 78q2 3 15 32t27 45.5t31 16.5q14 0 19 -5t12 -20q1 -3 0.5 -5.5t-1.5 -6t-1 -4.5q1 -3 6 -5.5t6 -4.5q29 -59 33 -68q7 -12 24 -40t26.5 -45.5t18.5 -44t9 -50.5q0 -30 -13.5 -79.5t-33.5 -49.5q-5 -8 -8.5 -11.5
t-7.5 -5t-6 -1.5t-8.5 0.5t-12.5 0.5q-4 0 -19 -3t-18 -3q-6 -6 -55 4q-16 4 -45 37q-26 30 -33 58q-1 4 -3 27.5t-11 31.5zM578 1202q0 -8 2 -12q-7 0 -11 -4q3 -7 -4 -22t-8 -21q-2 -14 -2 -41q0 -57 -2 -86q-9 -119 29 -164q11 -13 24.5 -15t23 1t29.5 12q24 11 31 18.5
t10 26.5q4 31 -2.5 62t-20 67.5t-18.5 56.5q-5 18 -18 45q-5 10 -16 43q-4 13 -9.5 38t-9.5 38l-5 -4q-5 -4 -6 -5.5t-5 -5t-4.5 -6t-2 -6t0 -7t4.5 -7.5q-4 -2 -10 -2zM1001 410q0 -4 2.5 -8t2.5 -7q1 -9 -0.5 -14.5t-1.5 -11.5t1 -17.5t1 -17.5q0 -139 -64 -221
q-85 -108 -242 -95q-43 3 -117.5 -6t-107.5 -8q-23 1 -42 9t-45 24t-42 24q-14 7 -18 11q-3 3 -6.5 10t-6.5 10q-17 17 -20 21q-23 34 -33 57q-9 21 -22 59v17q0 2 -4.5 5t-4.5 5q0 3 4.5 7.5t4.5 6.5v33q0 18 -3.5 50.5t-3.5 52.5q0 10 1.5 30.5t1.5 32.5q0 4 -1.5 13.5
t-1.5 13.5t1.5 12t1.5 12q0 2 -2.5 8t-2.5 9q0 2 2.5 6.5t2.5 7.5q0 6 -5 75t2 76q3 14 18.5 36t27.5 28h24q3 -1 5.5 2.5t4.5 3.5t7.5 -3t7.5 -3q6 0 23 -2.5t24 -1.5q36 4 41 4t14.5 -1t13.5 -1q55 0 66 -2q37 -6 79 -6t93.5 3t79.5 3q34 0 112 8q9 1 22.5 -0.5t29 -4
t22.5 -3.5q29 -3 41 -25q7 -11 10 -35q11 -43 11 -131q0 -58 -4 -79v-29l2 -21q0 -4 -3.5 -16t-3.5 -16zM678 37q38 -12 84 6q6 2 26 7t29 9q2 1 3.5 6.5t2.5 6.5t7.5 1t7.5 1l10 12q5 5 14.5 12.5t14.5 12.5q33 33 53 82q18 46 18 126q0 20 -4 66q-1 11 -1 25t0.5 29.5
t0.5 21.5v162q0 4 0.5 14.5t0 17t-1 15t-3 14.5t-6.5 10q-13 13 -72 13q-43 0 -130.5 2t-125.5 2q-16 0 -76.5 -2.5t-74.5 0.5q-14 1 -34.5 -4t-33.5 -3q-56 7 -90 -8q4 -5 2.5 -30t-0.5 -29v-53q0 -88 -2 -127q-3 -3 -1.5 -84t1.5 -82q0 -100 53 -160q36 -40 70 -61
q3 -2 15 -3t14 -2q4 -1 11 -4.5l11 -5.5q9 -3 45 -8q14 -2 39.5 -1.5t40.5 -0.5q9 -1 27.5 -3.5t27.5 -3t27 0.5z" />
    </font>
</defs>
</svg>
