<?xml version="1.0" standalone="no"?>
<!DOCTYPE svg PUBLIC "-//W3C//DTD SVG 1.1//EN" "http://www.w3.org/Graphics/SVG/1.1/DTD/svg11.dtd" >
<svg xmlns="http://www.w3.org/2000/svg" xmlns:xlink="http://www.w3.org/1999/xlink" version="1.1">
<metadata>
Created by FontForge 20170731 at Wed Dec 13 19:47:31 2023
 By Aleksey,,,
copyright missing
</metadata>
<defs>
<font id="AH-Vertebra" horiz-adv-x="4126" >
  <font-face 
    font-family="VERTEBRA EXPANDED"
    font-weight="400"
    font-stretch="normal"
    units-per-em="2048"
    panose-1="0 0 0 0 0 0 0 0 0 0"
    ascent="1638"
    descent="-410"
    x-height="1434"
    cap-height="1434"
    bbox="102 -481 4057 2030"
    underline-thickness="102"
    underline-position="-409"
    unicode-range="U+000A-F002"
  />
<missing-glyph horiz-adv-x="1024" 
 />
    <glyph glyph-name=".notdef" horiz-adv-x="1024" 
 />
    <glyph glyph-name=".null" horiz-adv-x="0" 
 />
    <glyph glyph-name="nonmarkingreturn" horiz-adv-x="682" 
 />
    <glyph glyph-name="uni000A" unicode="&#xa;" horiz-adv-x="0" 
 />
    <glyph glyph-name="controlCR" unicode="&#xd;" horiz-adv-x="0" 
 />
    <glyph glyph-name="space" unicode=" " horiz-adv-x="2062" 
 />
    <glyph glyph-name="ampersand" unicode="&#x26;" 
d="M3676 209q0 -86 -61.5 -147.5t-147.5 -61.5h-3045q-132 0 -226 93.5t-94 225.5v205q0 105 74.5 179.5t179.5 74.5h-34q-91 0 -155.5 64t-64.5 155v303q0 92 64.5 157t155.5 65h2832v-525h-2566q-29 0 -48.5 -19.5t-19.5 -47.5t19.5 -48t48.5 -20h3436v-196h-348v-457z
M520 596q0 -31 20.5 -51.5t51.5 -20.5h2595q29 0 50 21t21 51q0 29 -21 49.5t-50 20.5h-2595q-31 0 -51.5 -20.5t-20.5 -49.5z" />
    <glyph glyph-name="zero" unicode="0" 
d="M3887 494h137v-494h-3922v494h138v446h-138v494h3922v-494h-137v-446zM618 717q0 -67 48 -115.5t116 -48.5h2495q67 0 115.5 48.5t48.5 115.5t-48.5 115.5t-115.5 48.5h-2495q-68 0 -116 -48.5t-48 -115.5z" />
    <glyph glyph-name="one" unicode="1" 
d="M2220 696q0 92 -65.5 158t-157.5 66h-1895v251l3922 242v-493h-1042q-92 0 -157.5 -66t-65.5 -158q0 -106 84 -174h-707q84 68 84 174zM102 -20v493h3922v-493h-3922z" />
    <glyph glyph-name="two" unicode="2" 
d="M2879 549l1139 90v-657h-3916v352l1489 117h2l1284 98h2zM102 920q0 134 66.5 247.5t180 179.5t247.5 66h3037l391 -493h-876q-27 0 -51 -17l-275 -201q-28 -21 -33.5 -53t9.5 -57l-1117 -86l387 299q23 18 24.5 45.5t-17 48.5t-47.5 21h-1926z" />
    <glyph glyph-name="three" unicode="3" 
d="M4024 924h-264v-447l-366 -493h-3292v741h539q0 -102 73 -175t175 -73h2265q28 0 46.5 19t18.5 47t-18.5 47.5t-46.5 19.5h-2263q-36 0 -61 25t-25 61t25 61t61 25h2259q29 0 49 20.5t20 49.5q0 30 -20 51t-49 21h-3048v493h3922v-493z" />
    <glyph glyph-name="four" unicode="4" 
d="M3582 518h442v-493h-1962v493h916q27 0 46 20t19 48q0 26 -19.5 44.5t-47.5 18.5h-2874v316l729 493h3193v-493h-2984l-59 -43q-29 -20 -17.5 -54t46.5 -34h1966q23 0 41.5 14.5t23.5 36.5q5 19 -2 37h543v-88h264v-185h-264v-131z" />
    <glyph glyph-name="five" unicode="5" 
d="M709 924q-28 0 -48 -20t-20 -48t20 -48t48 -20h3051v-311l-366 -493h-2798q-134 0 -247.5 66t-180 179.5t-66.5 247.5h3048q29 0 49 20.5t20 49.5q0 28 -20 48.5t-49 20.5h-3048v801h3922v-493h-3315z" />
    <glyph glyph-name="six" unicode="6" 
d="M709 924q-28 0 -48 -20t-20 -48t20 -48t48 -20h3051v-311l-366 -493h-2798q-134 0 -247.5 66t-180 179.5t-66.5 247.5v940h3922v-493h-3315zM641 545q0 -28 20 -48t48 -20h2441q29 0 49 20.5t20 49.5q0 28 -20 48.5t-49 20.5h-2441q-28 0 -48 -19.5t-20 -47.5v-4z" />
    <glyph glyph-name="seven" unicode="7" 
d="M3097 965q-32 0 -50 -21q-31 -32 -12.5 -73.5t62.5 -41.5h927v-172h-1220q-29 0 -51 -22q-31 -32 -13 -74.5t64 -42.5h358v-493h-1960v493h604q29 0 52 23q31 32 12.5 74t-64.5 42h-604v172h901q28 0 49 21q31 32 13 73.5t-62 41.5h-1063l-440 -316h-498v809h3922v-493
h-927z" />
    <glyph glyph-name="eight" unicode="8" 
d="M3531 1460q204 0 348.5 -145t144.5 -350v-308h-264v-163l-366 -467h-2798q-197 0 -340 135.5t-154 331.5v335h265v136l364 495h2800zM641 590q0 -29 20.5 -49.5t49.5 -20.5h2441q28 0 47.5 20.5t19.5 49.5q0 28 -19.5 47.5t-47.5 19.5h-2441q-29 0 -49.5 -19.5
t-20.5 -47.5zM907 897q0 -28 19.5 -48t48.5 -20h2441q29 0 49.5 20t20.5 48q0 29 -20.5 48.5t-49.5 19.5h-2441q-29 0 -48.5 -19.5t-19.5 -48.5z" />
    <glyph glyph-name="nine" unicode="9" 
d="M3531 1460q134 0 247.5 -66t179.5 -179.5t66 -247.5v-617q0 -134 -95 -228.5t-230 -94.5h-3597v493h3384v135h-3119v312l364 493h2800zM907 827h2579v140h-2579v-140z" />
    <glyph glyph-name="A" unicode="A" 
d="M4024 494v-494h-1939v659h469q31 0 51.5 20.5t20.5 49.5v4q0 30 -21 51t-51 21h-985q-29 0 -50.5 -21.5t-21.5 -50.5v-4q0 -29 21.5 -49.5t50.5 -20.5h473v-659h-1940v473h1280q9 0 15 6t6 15q0 20 -21 20h-659l467 426h-436v494h2619v-473h-1194q-9 0 -15.5 -6t-6.5 -15
t6.5 -14.5t15.5 -5.5h780l467 -426h598z" />
    <glyph glyph-name="A" unicode="&#xc5;" 
d="M4024 494v-494h-1939v659h469q31 0 51.5 20.5t20.5 49.5v4q0 30 -21 51t-51 21h-985q-29 0 -50.5 -21.5t-21.5 -50.5v-4q0 -29 21.5 -49.5t50.5 -20.5h473v-659h-1940v473h1280q9 0 15 6t6 15q0 20 -21 20h-659l467 426h-436v494h2619v-473h-1194q-9 0 -15.5 -6t-6.5 -15
t6.5 -14.5t15.5 -5.5h780l467 -426h598z" />
    <glyph glyph-name="A" unicode="&#xc4;" 
d="M4024 494v-494h-1939v659h469q31 0 51.5 20.5t20.5 49.5v4q0 30 -21 51t-51 21h-985q-29 0 -50.5 -21.5t-21.5 -50.5v-4q0 -29 21.5 -49.5t50.5 -20.5h473v-659h-1940v473h1280q9 0 15 6t6 15q0 20 -21 20h-659l467 426h-436v494h2619v-473h-1194q-9 0 -15.5 -6t-6.5 -15
t6.5 -14.5t15.5 -5.5h780l467 -426h598z" />
    <glyph glyph-name="A" unicode="&#xc3;" 
d="M4024 494v-494h-1939v659h469q31 0 51.5 20.5t20.5 49.5v4q0 30 -21 51t-51 21h-985q-29 0 -50.5 -21.5t-21.5 -50.5v-4q0 -29 21.5 -49.5t50.5 -20.5h473v-659h-1940v473h1280q9 0 15 6t6 15q0 20 -21 20h-659l467 426h-436v494h2619v-473h-1194q-9 0 -15.5 -6t-6.5 -15
t6.5 -14.5t15.5 -5.5h780l467 -426h598z" />
    <glyph glyph-name="A" unicode="&#xc2;" 
d="M4024 494v-494h-1939v659h469q31 0 51.5 20.5t20.5 49.5v4q0 30 -21 51t-51 21h-985q-29 0 -50.5 -21.5t-21.5 -50.5v-4q0 -29 21.5 -49.5t50.5 -20.5h473v-659h-1940v473h1280q9 0 15 6t6 15q0 20 -21 20h-659l467 426h-436v494h2619v-473h-1194q-9 0 -15.5 -6t-6.5 -15
t6.5 -14.5t15.5 -5.5h780l467 -426h598z" />
    <glyph glyph-name="A" unicode="&#xc0;" 
d="M4024 494v-494h-1939v659h469q31 0 51.5 20.5t20.5 49.5v4q0 30 -21 51t-51 21h-985q-29 0 -50.5 -21.5t-21.5 -50.5v-4q0 -29 21.5 -49.5t50.5 -20.5h473v-659h-1940v473h1280q9 0 15 6t6 15q0 20 -21 20h-659l467 426h-436v494h2619v-473h-1194q-9 0 -15.5 -6t-6.5 -15
t6.5 -14.5t15.5 -5.5h780l467 -426h598z" />
    <glyph glyph-name="B" unicode="B" 
d="M4024 940l-499 -223l499 -223v-494h-3922v494h441v446h-441v494h3922v-494zM1083 559q0 -28 19 -46.5t47 -18.5h2156q34 0 53 25t11.5 55.5t-39.5 43.5q-14 7 -25 7h-2156q-28 0 -47 -19t-19 -47zM1083 874q0 -28 19 -46.5t47 -18.5h2156q13 0 25 6q32 13 39.5 43.5
t-11.5 56t-53 25.5h-2156q-28 0 -47 -19t-19 -47z" />
    <glyph glyph-name="C" unicode="C" 
d="M1307 940q-92 0 -158 -65.5t-66 -157.5t66 -157.5t158 -65.5h2717v-494h-3922v494h441v446h-441v494h3922v-494h-2717z" />
    <glyph glyph-name="C" unicode="&#xc7;" 
d="M1307 940q-92 0 -158 -65.5t-66 -157.5t66 -157.5t158 -65.5h2717v-494h-3922v494h441v446h-441v494h3922v-494h-2717z" />
    <glyph glyph-name="D" unicode="D" 
d="M4024 940l-487 -940h-3435v494h441v446h-441v494h3922v-494zM1083 717q0 -92 66 -157.5t158 -65.5h1814q35 0 65.5 18.5t47.5 50.5l100 191q32 64 -5.5 125t-109.5 61h-1912q-92 0 -158 -65.5t-66 -157.5z" />
    <glyph glyph-name="E" unicode="E" 
d="M102 1434h3922v-473h-3922v473zM102 0v494h441v426h557q-17 -20 -17 -46q0 -28 19 -46.5t47 -18.5h2169v-184h-2169q-28 0 -47 -19t-19 -47t19 -46.5t47 -18.5h2875v-494h-3922z" />
    <glyph glyph-name="E" unicode="&#xcb;" 
d="M102 1434h3922v-473h-3922v473zM102 0v494h441v426h557q-17 -20 -17 -46q0 -28 19 -46.5t47 -18.5h2169v-184h-2169q-28 0 -47 -19t-19 -47t19 -46.5t47 -18.5h2875v-494h-3922z" />
    <glyph glyph-name="E" unicode="&#xca;" 
d="M102 1434h3922v-473h-3922v473zM102 0v494h441v426h557q-17 -20 -17 -46q0 -28 19 -46.5t47 -18.5h2169v-184h-2169q-28 0 -47 -19t-19 -47t19 -46.5t47 -18.5h2875v-494h-3922z" />
    <glyph glyph-name="E" unicode="&#xc8;" 
d="M102 1434h3922v-473h-3922v473zM102 0v494h441v426h557q-17 -20 -17 -46q0 -28 19 -46.5t47 -18.5h2169v-184h-2169q-28 0 -47 -19t-19 -47t19 -46.5t47 -18.5h2875v-494h-3922z" />
    <glyph glyph-name="F" unicode="F" 
d="M102 1434h3922v-473h-3922v473zM102 0v494h441v426h557q-17 -20 -17 -46q0 -28 19 -46.5t47 -18.5h2169v-184h-2169q-28 0 -47 -19t-19 -47t19 -46.5t47 -18.5h913v-494h-1960z" />
    <glyph glyph-name="G" unicode="G" 
d="M1307 940q-92 0 -158 -65.5t-66 -157.5t66 -157.5t158 -65.5h2197v131h-2163q-38 0 -65 27t-27 65t27 65t65 27h2683v-809h-3922v494h441v446h-441v494h3922v-494h-2717z" />
    <glyph glyph-name="H" unicode="H" 
d="M3582 494h442v-494h-1939v494h897q26 0 43.5 18t17.5 43q0 26 -17.5 44.5t-43.5 18.5h-1819q-26 0 -44.5 -18.5t-18.5 -44.5q0 -25 18.5 -43t44.5 -18h879v-494h-1940v494h441v446h-441v494h1940v-494h-879q-26 0 -44.5 -18t-18.5 -43v-13q0 -26 18.5 -44.5t44.5 -18.5
h1819q26 0 43.5 18.5t17.5 44.5v13q0 25 -17.5 43t-43.5 18h-897v494h1939v-494h-442v-446z" />
    <glyph glyph-name="I" unicode="I" 
d="M2556 940q-92 0 -157.5 -65.5t-65.5 -157.5q0 -64 33 -117.5t88 -81.5h-781q55 28 88 81.5t33 117.5q0 92 -65.5 157.5t-157.5 65.5h-1469v494h3922v-494h-1468zM102 0v469h3922v-469h-3922z" />
    <glyph glyph-name="I" unicode="&#xcf;" 
d="M2556 940q-92 0 -157.5 -65.5t-65.5 -157.5q0 -64 33 -117.5t88 -81.5h-781q55 28 88 81.5t33 117.5q0 92 -65.5 157.5t-157.5 65.5h-1469v494h3922v-494h-1468zM102 0v469h3922v-469h-3922z" />
    <glyph glyph-name="I" unicode="&#xce;" 
d="M2556 940q-92 0 -157.5 -65.5t-65.5 -157.5q0 -64 33 -117.5t88 -81.5h-781q55 28 88 81.5t33 117.5q0 92 -65.5 157.5t-157.5 65.5h-1469v494h3922v-494h-1468zM102 0v469h3922v-469h-3922z" />
    <glyph glyph-name="I" unicode="&#xcc;" 
d="M2556 940q-92 0 -157.5 -65.5t-65.5 -157.5q0 -64 33 -117.5t88 -81.5h-781q55 28 88 81.5t33 117.5q0 92 -65.5 157.5t-157.5 65.5h-1469v494h3922v-494h-1468zM102 0v469h3922v-469h-3922z" />
    <glyph glyph-name="J" unicode="J" 
d="M4024 940h-446v-446l-367 -494h-3109v741l539 -247h2173q93 0 158 65t65 158t-65 158t-158 65h-2712v494h3922v-494z" />
    <glyph glyph-name="K" unicode="K" 
d="M2863 809h395l183 -315h583v-494h-1937v494h747q33 0 50 29t2 57l-11 16q-18 29 -49 29h-1665q-28 0 -46.5 -19t-18.5 -47q0 -10 2 -16h-543v397h-453v494h1936v-494h-877q-28 0 -46.5 -19t-18.5 -47t18.5 -46.5t46.5 -18.5h1102q4 0 12 4l135 88q14 7 9.5 23t-21.5 16
h-311v494h1937v-494h-960zM102 0v494h1936v-494h-1936z" />
    <glyph glyph-name="L" unicode="L" 
d="M102 0v469h3922v-469h-3922zM102 940v494h1960v-494h-729q-93 0 -158 -65t-65 -158q0 -64 33 -117.5t88 -81.5h-662v422h-467z" />
    <glyph glyph-name="M" unicode="M" 
d="M3531 494h493v-494h-1718v485h389q2 0 5 1t5 1l433 193q61 26 61 72q0 42 -61 71q-52 23 -125 23t-125 -23l-566 -250q-55 -23 -59 -61v-10v-254h-387v254q3 7 0 10q-4 38 -59 61l-566 250q-53 23 -125 23t-125 -23q-61 -29 -61 -71q0 -46 61 -72l435 -193q1 0 3.5 -1
t4.5 -1h389v-485h-1731v494h494v446h-494v494h1940v-494q0 -9 6 -14.5t14 -5.5q9 0 16 5.5t7 14.5v494h1939v-494h-493v-446z" />
    <glyph glyph-name="N" unicode="N" 
d="M3531 494h493v-494h-1939v512q-9 40 -60 61l-565 250q-53 23 -125.5 23t-126.5 -23q-61 -29 -61 -71q0 -46 61 -72l434 -193q2 0 5.5 -1t5.5 -1h389v-485h-1940v494h494v446h-494v494h1940v-510q10 -39 59 -62l565 -248q52 -24 125 -24q71 0 127 24q62 27 62 72
q0 43 -62 72l-434 190q-4 2 -10 2h-389v484h1939v-494h-493v-446z" />
    <glyph glyph-name="N" unicode="&#xd1;" 
d="M3531 494h493v-494h-1939v512q-9 40 -60 61l-565 250q-53 23 -125.5 23t-126.5 -23q-61 -29 -61 -71q0 -46 61 -72l434 -193q2 0 5.5 -1t5.5 -1h389v-485h-1940v494h494v446h-494v494h1940v-510q10 -39 59 -62l565 -248q52 -24 125 -24q71 0 127 24q62 27 62 72
q0 43 -62 72l-434 190q-4 2 -10 2h-389v484h1939v-494h-493v-446z" />
    <glyph glyph-name="O" unicode="O" 
d="M3582 494h442v-494h-3922v494h441v446h-441v494h3922v-494h-442v-446zM1016 717q0 -49 34.5 -83t84.5 -34h1792q48 0 82 34t34 83t-34 83t-82 34h-1792q-50 0 -84.5 -34t-34.5 -83z" />
    <glyph glyph-name="O" unicode="&#xd8;" 
d="M3582 494h442v-494h-3922v494h441v446h-441v494h3922v-494h-442v-446zM1016 717q0 -49 34.5 -83t84.5 -34h1792q48 0 82 34t34 83t-34 83t-82 34h-1792q-50 0 -84.5 -34t-34.5 -83z" />
    <glyph glyph-name="O" unicode="&#xd6;" 
d="M3582 494h442v-494h-3922v494h441v446h-441v494h3922v-494h-442v-446zM1016 717q0 -49 34.5 -83t84.5 -34h1792q48 0 82 34t34 83t-34 83t-82 34h-1792q-50 0 -84.5 -34t-34.5 -83z" />
    <glyph glyph-name="O" unicode="&#xd5;" 
d="M3582 494h442v-494h-3922v494h441v446h-441v494h3922v-494h-442v-446zM1016 717q0 -49 34.5 -83t84.5 -34h1792q48 0 82 34t34 83t-34 83t-82 34h-1792q-50 0 -84.5 -34t-34.5 -83z" />
    <glyph glyph-name="O" unicode="&#xd4;" 
d="M3582 494h442v-494h-3922v494h441v446h-441v494h3922v-494h-442v-446zM1016 717q0 -49 34.5 -83t84.5 -34h1792q48 0 82 34t34 83t-34 83t-82 34h-1792q-50 0 -84.5 -34t-34.5 -83z" />
    <glyph glyph-name="O" unicode="&#xd2;" 
d="M3582 494h442v-494h-3922v494h441v446h-441v494h3922v-494h-442v-446zM1016 717q0 -49 34.5 -83t84.5 -34h1792q48 0 82 34t34 83t-34 83t-82 34h-1792q-50 0 -84.5 -34t-34.5 -83z" />
    <glyph glyph-name="P" unicode="P" 
d="M1083 514q-9 0 -15.5 -5.5t-6.5 -14.5t6.5 -15t15.5 -6h963v-473h-1944v494h441v446h-441v494h3922v-920h-2941zM1083 836q0 -43 30.5 -74t74.5 -31h2193q43 0 74 31t31 74t-31 73.5t-74 30.5h-2193q-44 0 -74.5 -30.5t-30.5 -73.5z" />
    <glyph glyph-name="Q" unicode="Q" 
d="M3582 494h442v-494h-1704v-481h-481v481h-1737v494h441v446h-441v494h3922v-494h-442v-446zM1016 717q0 -49 34.5 -83t84.5 -34h1792q48 0 82 34t34 83t-34 83t-82 34h-1792q-50 0 -84.5 -34t-34.5 -83z" />
    <glyph glyph-name="R" unicode="R" 
d="M3203 573q-23 0 -35 -19.5t0 -39.5q10 -20 35 -20h803v-494h-1940v494h781q25 0 36 19.5t-1 41.5q-9 18 -35 18h-1725q-16 0 -27.5 -10.5t-11.5 -27.5t12 -29t27 -12h901v-494h-1921v494h441v446h-441v494h3922v-861h-821zM1083 850q0 -38 26.5 -64t64.5 -26h2222
q37 0 63.5 26t26.5 64q0 37 -26.5 63.5t-63.5 26.5h-2222q-38 0 -64.5 -26.5t-26.5 -63.5z" />
    <glyph glyph-name="S" unicode="S" 
d="M4024 872h-489v68h-1358q-44 0 -78 -31.5t-37 -77.5q-1 -47 32.5 -80.5t80.5 -33.5h1653q82 0 139 -57.5t57 -139.5v-520h-3922v557h490v-65h1358q47 0 79.5 32.5t32.5 79.5q0 46 -32.5 79.5t-79.5 33.5h-1651q-82 0 -139.5 57t-57.5 139v521h3922v-562z" />
    <glyph glyph-name="T" unicode="T" 
d="M1092 469h1943v-469h-1943v469zM102 872v562h3922v-562h-489v68h-979q-92 0 -157.5 -65.5t-65.5 -157.5q0 -64 33 -117.5t88 -81.5h-781q55 28 88 81.5t33 117.5q0 92 -65.5 157.5t-157.5 65.5h-979v-68h-490z" />
    <glyph glyph-name="U" unicode="U" 
d="M4024 940h-442v-446q0 -204 -144.5 -349t-349.5 -145h-2050q-205 0 -350 145t-145 349v446h-441v494h1719v-494h-570q-97 0 -166 -68.5t-69 -166.5t69 -167t166 -69h1557q98 0 166.5 69t68.5 167q0 97 -68.5 166t-166.5 69h-502v494h1718v-494z" />
    <glyph glyph-name="U" unicode="&#xdc;" 
d="M4024 940h-442v-446q0 -204 -144.5 -349t-349.5 -145h-2050q-205 0 -350 145t-145 349v446h-441v494h1719v-494h-570q-97 0 -166 -68.5t-69 -166.5t69 -167t166 -69h1557q98 0 166.5 69t68.5 167q0 97 -68.5 166t-166.5 69h-502v494h1718v-494z" />
    <glyph glyph-name="U" unicode="&#xdb;" 
d="M4024 940h-442v-446q0 -204 -144.5 -349t-349.5 -145h-2050q-205 0 -350 145t-145 349v446h-441v494h1719v-494h-570q-97 0 -166 -68.5t-69 -166.5t69 -167t166 -69h1557q98 0 166.5 69t68.5 167q0 97 -68.5 166t-166.5 69h-502v494h1718v-494z" />
    <glyph glyph-name="U" unicode="&#xd9;" 
d="M4024 940h-442v-446q0 -204 -144.5 -349t-349.5 -145h-2050q-205 0 -350 145t-145 349v446h-441v494h1719v-494h-570q-97 0 -166 -68.5t-69 -166.5t69 -167t166 -69h1557q98 0 166.5 69t68.5 167q0 97 -68.5 166t-166.5 69h-502v494h1718v-494z" />
    <glyph glyph-name="V" unicode="V" 
d="M2744 961q-20 0 -20 -21q0 -20 20 -20h662l-418 -426h385v-494h-2619v473h1194q9 0 15.5 6t6.5 15t-6.5 14.5t-15.5 5.5h-830l-418 426h-598v494h1868v-625q0 -34 22 -60t56 -30q8 -8 14 -8q9 0 17 8q32 5 55 30.5t23 59.5v625h1867v-473h-1280z" />
    <glyph glyph-name="W" unicode="W" 
d="M3428 494h596v-494h-1939v494q0 9 -7 14.5t-16 5.5q-8 0 -14 -5.5t-6 -14.5v-494h-1940v494h596l-202 446h-394v494h1719v-486h-389q-2 0 -5.5 -1t-5.5 -1l-432 -192q-61 -26 -61 -72q0 -44 61 -72q55 -22 125 -22t125 22l565 250q56 23 60 62v393h387v-383q-3 -7 0 -10
q4 -39 59 -62l565 -250q55 -22 125 -22t125 22q62 29 62 72q0 45 -62 72l-434 192q-1 0 -3.5 1t-4.5 1h-391v486h1732v-494h-393z" />
    <glyph glyph-name="X" unicode="X" 
d="M2087 1434h1937v-492h-1937v492zM102 0v494h1936v-494h-1936zM102 940v494h1936v-494h-494l484 -104q30 -6 59 0l264 57h1053l-658 -141q-28 -6 -28 -35t28 -35l877 -188h401v-494h-1937v494h483l-491 106q-21 3 -43 0l-264 -57h-1053l649 139q28 6 28 35t-28 35
l-876 188h-390z" />
    <glyph glyph-name="Y" unicode="Y" 
d="M4024 940h-401l-942 -203q-43 -9 -69.5 -43t-26.5 -78q0 -51 35.5 -86.5t86.5 -35.5h336v-494h-1960v494h324q51 0 87 35.5t36 86.5q0 44 -26.5 78t-69.5 43l-942 203h-390v494h1936v-494h-494l479 -102q35 -9 66 0l481 102h-483v494h1937v-494z" />
    <glyph glyph-name="Y" unicode="&#xdd;" 
d="M4024 940h-401l-942 -203q-43 -9 -69.5 -43t-26.5 -78q0 -51 35.5 -86.5t86.5 -35.5h336v-494h-1960v494h324q51 0 87 35.5t36 86.5q0 44 -26.5 78t-69.5 43l-942 203h-390v494h1936v-494h-494l479 -102q35 -9 66 0l481 102h-483v494h1937v-494z" />
    <glyph glyph-name="Z" unicode="Z" 
d="M2040 600q-30 -7 -39.5 -33t5 -49.5t44.5 -23.5h1974v-494h-3922v494h390l1583 340q30 7 39.5 33t-6 49.5t-46.5 23.5h-1960v494h3922v-494h-401z" />
    <glyph glyph-name="a" unicode="a" 
d="M3770 494h254v-494h-3922v809h3064q27 0 46.5 19t19.5 46t-19.5 46.5t-46.5 19.5h-2814q-103 0 -176.5 73.5t-73.5 176.5l3922 244v-494h-254v-446zM641 559q0 -27 19.5 -46t46.5 -19h2459q27 0 46.5 19t19.5 46t-19.5 46.5t-46.5 19.5h-2459q-27 0 -46.5 -19.5
t-19.5 -46.5z" />
    <glyph glyph-name="a" unicode="&#xe5;" 
d="M3770 494h254v-494h-3922v809h3064q27 0 46.5 19t19.5 46t-19.5 46.5t-46.5 19.5h-2814q-103 0 -176.5 73.5t-73.5 176.5l3922 244v-494h-254v-446zM641 559q0 -27 19.5 -46t46.5 -19h2459q27 0 46.5 19t19.5 46t-19.5 46.5t-46.5 19.5h-2459q-27 0 -46.5 -19.5
t-19.5 -46.5z" />
    <glyph glyph-name="a" unicode="&#xe4;" 
d="M3770 494h254v-494h-3922v809h3064q27 0 46.5 19t19.5 46t-19.5 46.5t-46.5 19.5h-2814q-103 0 -176.5 73.5t-73.5 176.5l3922 244v-494h-254v-446zM641 559q0 -27 19.5 -46t46.5 -19h2459q27 0 46.5 19t19.5 46t-19.5 46.5t-46.5 19.5h-2459q-27 0 -46.5 -19.5
t-19.5 -46.5z" />
    <glyph glyph-name="a" unicode="&#xe3;" 
d="M3770 494h254v-494h-3922v809h3064q27 0 46.5 19t19.5 46t-19.5 46.5t-46.5 19.5h-2814q-103 0 -176.5 73.5t-73.5 176.5l3922 244v-494h-254v-446zM641 559q0 -27 19.5 -46t46.5 -19h2459q27 0 46.5 19t19.5 46t-19.5 46.5t-46.5 19.5h-2459q-27 0 -46.5 -19.5
t-19.5 -46.5z" />
    <glyph glyph-name="a" unicode="&#xe2;" 
d="M3770 494h254v-494h-3922v809h3064q27 0 46.5 19t19.5 46t-19.5 46.5t-46.5 19.5h-2814q-103 0 -176.5 73.5t-73.5 176.5l3922 244v-494h-254v-446zM641 559q0 -27 19.5 -46t46.5 -19h2459q27 0 46.5 19t19.5 46t-19.5 46.5t-46.5 19.5h-2459q-27 0 -46.5 -19.5
t-19.5 -46.5z" />
    <glyph glyph-name="a" unicode="&#xe0;" 
d="M3770 494h254v-494h-3922v809h3064q27 0 46.5 19t19.5 46t-19.5 46.5t-46.5 19.5h-2814q-103 0 -176.5 73.5t-73.5 176.5l3922 244v-494h-254v-446zM641 559q0 -27 19.5 -46t46.5 -19h2459q27 0 46.5 19t19.5 46t-19.5 46.5t-46.5 19.5h-2459q-27 0 -46.5 -19.5
t-19.5 -46.5z" />
    <glyph glyph-name="b" unicode="b" 
d="M4024 809v-809h-3922v1434h959v-494h-354q-27 0 -46.5 -19.5t-19.5 -46.5t19.5 -46t46.5 -19h3317zM641 559q0 -27 19.5 -46t46.5 -19h2713q27 0 46.5 19t19.5 46t-19.5 46.5t-46.5 19.5h-2713q-27 0 -46.5 -19.5t-19.5 -46.5z" />
    <glyph glyph-name="c" unicode="c" 
d="M1128 940q-92 0 -156.5 -65.5t-64.5 -157.5t64.5 -157.5t156.5 -65.5h2896v-494h-3293l-364 494v446h-265v494h3922v-494h-2896z" />
    <glyph glyph-name="c" unicode="&#xe7;" 
d="M1128 940q-92 0 -156.5 -65.5t-64.5 -157.5t64.5 -157.5t156.5 -65.5h2896v-494h-3293l-364 494v446h-265v494h3922v-494h-2896z" />
    <glyph glyph-name="d" unicode="d" 
d="M4024 0h-3922v809h3318q27 0 46.5 19t19.5 46t-19.5 46.5t-46.5 19.5h-416v494h1020v-1434zM641 559q0 -27 19.5 -46t46.5 -19h2713q27 0 46.5 19t19.5 46t-19.5 46.5t-46.5 19.5h-2713q-27 0 -46.5 -19.5t-19.5 -46.5z" />
    <glyph glyph-name="e" unicode="e" 
d="M971 612q-26 0 -45 -19.5t-19 -45.5q0 -28 19 -47t45 -19h3053v-493h-3293l-364 493v447h-265v493h3558l364 -493v-316h-3053zM907 862q0 -28 18.5 -46.5t45.5 -18.5h2449q27 0 46.5 19t19.5 46q0 26 -20 46t-46 20h-2449q-26 0 -45 -20t-19 -46z" />
    <glyph glyph-name="e" unicode="&#xeb;" 
d="M971 612q-26 0 -45 -19.5t-19 -45.5q0 -28 19 -47t45 -19h3053v-493h-3293l-364 493v447h-265v493h3558l364 -493v-316h-3053zM907 862q0 -28 18.5 -46.5t45.5 -18.5h2449q27 0 46.5 19t19.5 46q0 26 -20 46t-46 20h-2449q-26 0 -45 -20t-19 -46z" />
    <glyph glyph-name="e" unicode="&#xea;" 
d="M971 612q-26 0 -45 -19.5t-19 -45.5q0 -28 19 -47t45 -19h3053v-493h-3293l-364 493v447h-265v493h3558l364 -493v-316h-3053zM907 862q0 -28 18.5 -46.5t45.5 -18.5h2449q27 0 46.5 19t19.5 46q0 26 -20 46t-46 20h-2449q-26 0 -45 -20t-19 -46z" />
    <glyph glyph-name="e" unicode="&#xe8;" 
d="M971 612q-26 0 -45 -19.5t-19 -45.5q0 -28 19 -47t45 -19h3053v-493h-3293l-364 493v447h-265v493h3558l364 -493v-316h-3053zM907 862q0 -28 18.5 -46.5t45.5 -18.5h2449q27 0 46.5 19t19.5 46q0 26 -20 46t-46 20h-2449q-26 0 -45 -20t-19 -46z" />
    <glyph glyph-name="f" unicode="f" 
d="M4024 627h-538v313h-2525q-27 0 -46.5 -19.5t-19.5 -46.5t19.5 -46t46.5 -19h1744v-184h-1744q-27 0 -46.5 -19.5t-19.5 -46.5t19.5 -46t46.5 -19h415v-494h-1274v494h254v131h-254v184h254v131h-254v494h3558l364 -494v-313z" />
    <glyph glyph-name="g" unicode="g" 
d="M1552 625q-28 0 -46.5 -19t-18.5 -47t18.5 -46.5t46.5 -18.5h2343q40 0 58.5 -35.5t-4.5 -67.5l-64 -88h-2l-82 -113l-141 -190h-3558v190h3281q29 0 45 23q20 29 4.5 59.5t-49.5 30.5h-2435v322h-846v315l365 494h3557v-494h-264v-315h-2208zM641 874q0 -27 19.5 -46
t46.5 -19h2449q26 0 44.5 18.5t18.5 46.5t-18.5 47t-44.5 19h-2449q-27 0 -46.5 -19.5t-19.5 -46.5z" />
    <glyph glyph-name="h" unicode="h" 
d="M4024 809v-809h-1020v494h416q27 0 46.5 19t19.5 46t-19.5 46.5t-46.5 19.5h-2654q-27 0 -46.5 -19.5t-19.5 -46.5t19.5 -46t46.5 -19h354v-494h-1018v1434h1018v-494h-354q-27 0 -46.5 -19.5t-19.5 -46.5t19.5 -46t46.5 -19h3258z" />
    <glyph glyph-name="i" unicode="i" 
d="M3774 1456q103 0 176.5 -74t73.5 -178q0 -103 -73.5 -176.5t-176.5 -73.5h-3422q-103 0 -176.5 73.5t-73.5 176.5q0 104 73.5 178t176.5 74h3422zM102 0v502h1203q133 0 227 93.5t94 225.5h903q0 -132 94 -225.5t226 -93.5h1175v-502h-3922z" />
    <glyph glyph-name="i" unicode="&#xef;" 
d="M3774 1456q103 0 176.5 -74t73.5 -178q0 -103 -73.5 -176.5t-176.5 -73.5h-3422q-103 0 -176.5 73.5t-73.5 176.5q0 104 73.5 178t176.5 74h3422zM102 0v502h1203q133 0 227 93.5t94 225.5h903q0 -132 94 -225.5t226 -93.5h1175v-502h-3922z" />
    <glyph glyph-name="i" unicode="&#xee;" 
d="M3774 1456q103 0 176.5 -74t73.5 -178q0 -103 -73.5 -176.5t-176.5 -73.5h-3422q-103 0 -176.5 73.5t-73.5 176.5q0 104 73.5 178t176.5 74h3422zM102 0v502h1203q133 0 227 93.5t94 225.5h903q0 -132 94 -225.5t226 -93.5h1175v-502h-3922z" />
    <glyph glyph-name="i" unicode="&#xec;" 
d="M3774 1456q103 0 176.5 -74t73.5 -178q0 -103 -73.5 -176.5t-176.5 -73.5h-3422q-103 0 -176.5 73.5t-73.5 176.5q0 104 73.5 178t176.5 74h3422zM102 0v502h1203q133 0 227 93.5t94 225.5h903q0 -132 94 -225.5t226 -93.5h1175v-502h-3922z" />
    <glyph glyph-name="j" unicode="j" 
d="M4024 985h-278v-467l-383 -518h-3005l-256 309v469h566v-260h2279q97 0 165.5 68.5t68.5 165.5t-68.5 165t-165.5 68h-334v518h1411v-518z" />
    <glyph glyph-name="k" unicode="k" 
d="M1305 0h-1203v492h1203v-492zM102 940v494h1203v-494h-334q-28 0 -47 -19t-19 -47q0 -26 19 -44.5t47 -18.5h1698v-2l182 -315h1173v-494h-2676v494h1128q38 0 57 33t0 65q-20 33 -57 33h-1479q-38 0 -65 -27.5t-27 -65.5h-538v408h-265zM1348 940v494h2654
q0 -134 -66.5 -247.5t-180 -180t-247.5 -66.5h-2160z" />
    <glyph glyph-name="l" unicode="l" 
d="M4024 0h-3922v1434h959v-494h-197q-92 0 -157.5 -65.5t-65.5 -157.5t65.5 -157.5t157.5 -65.5h3160v-494z" />
    <glyph glyph-name="m" unicode="m" 
d="M4024 0h-1081v494h350q55 0 93 38.5t38 92.5q0 56 -38 94.5t-93 38.5h-801q-56 0 -94.5 -39t-38.5 -94q0 -54 39 -92.5t94 -38.5h383v-494h-1624v494h383q54 0 92.5 38.5t38.5 92.5q0 55 -38.5 94t-92.5 39h-800q-56 0 -95 -39t-39 -94q0 -54 39.5 -92.5t94.5 -38.5h352
v-494h-1084v1434h1018v-361h-354q-26 0 -46 -19.5t-20 -45.5q0 -27 19.5 -46.5t46.5 -19.5h2894l364 -493v-449z" />
    <glyph glyph-name="n" unicode="n" 
d="M4024 0h-1081v494h350q55 0 93 38.5t38 92.5q0 56 -38 94.5t-93 38.5h-2459q-56 0 -95 -39t-39 -94q0 -54 39.5 -92.5t94.5 -38.5h352v-494h-1084v1434h1018v-361h-354q-26 0 -46 -19.5t-20 -45.5q0 -27 19.5 -46.5t46.5 -19.5h2894l364 -493v-449z" />
    <glyph glyph-name="n" unicode="&#xf1;" 
d="M4024 0h-1081v494h350q55 0 93 38.5t38 92.5q0 56 -38 94.5t-93 38.5h-2459q-56 0 -95 -39t-39 -94q0 -54 39.5 -92.5t94.5 -38.5h352v-494h-1084v1434h1018v-361h-354q-26 0 -46 -19.5t-20 -45.5q0 -27 19.5 -46.5t46.5 -19.5h2894l364 -493v-449z" />
    <glyph glyph-name="o" unicode="o" 
d="M3531 1434q134 0 247.5 -66.5t179.5 -180t66 -247.5v-446q0 -134 -66 -247.5t-179.5 -180t-247.5 -66.5h-2935q-134 0 -247.5 66.5t-180 180t-66.5 247.5v446q0 134 66.5 247.5t180 180t247.5 66.5h2935zM575 705q0 -98 69 -167t167 -69h2439q97 0 165.5 69t68.5 167
q0 97 -68.5 165t-165.5 68h-2439q-98 0 -167 -68t-69 -165z" />
    <glyph glyph-name="o" unicode="&#xf8;" 
d="M3531 1434q134 0 247.5 -66.5t179.5 -180t66 -247.5v-446q0 -134 -66 -247.5t-179.5 -180t-247.5 -66.5h-2935q-134 0 -247.5 66.5t-180 180t-66.5 247.5v446q0 134 66.5 247.5t180 180t247.5 66.5h2935zM575 705q0 -98 69 -167t167 -69h2439q97 0 165.5 69t68.5 167
q0 97 -68.5 165t-165.5 68h-2439q-98 0 -167 -68t-69 -165z" />
    <glyph glyph-name="o" unicode="&#xf6;" 
d="M3531 1434q134 0 247.5 -66.5t179.5 -180t66 -247.5v-446q0 -134 -66 -247.5t-179.5 -180t-247.5 -66.5h-2935q-134 0 -247.5 66.5t-180 180t-66.5 247.5v446q0 134 66.5 247.5t180 180t247.5 66.5h2935zM575 705q0 -98 69 -167t167 -69h2439q97 0 165.5 69t68.5 167
q0 97 -68.5 165t-165.5 68h-2439q-98 0 -167 -68t-69 -165z" />
    <glyph glyph-name="o" unicode="&#xf5;" 
d="M3531 1434q134 0 247.5 -66.5t179.5 -180t66 -247.5v-446q0 -134 -66 -247.5t-179.5 -180t-247.5 -66.5h-2935q-134 0 -247.5 66.5t-180 180t-66.5 247.5v446q0 134 66.5 247.5t180 180t247.5 66.5h2935zM575 705q0 -98 69 -167t167 -69h2439q97 0 165.5 69t68.5 167
q0 97 -68.5 165t-165.5 68h-2439q-98 0 -167 -68t-69 -165z" />
    <glyph glyph-name="o" unicode="&#xf4;" 
d="M3531 1434q134 0 247.5 -66.5t179.5 -180t66 -247.5v-446q0 -134 -66 -247.5t-179.5 -180t-247.5 -66.5h-2935q-134 0 -247.5 66.5t-180 180t-66.5 247.5v446q0 134 66.5 247.5t180 180t247.5 66.5h2935zM575 705q0 -98 69 -167t167 -69h2439q97 0 165.5 69t68.5 167
q0 97 -68.5 165t-165.5 68h-2439q-98 0 -167 -68t-69 -165z" />
    <glyph glyph-name="o" unicode="&#xf2;" 
d="M3531 1434q134 0 247.5 -66.5t179.5 -180t66 -247.5v-446q0 -134 -66 -247.5t-179.5 -180t-247.5 -66.5h-2935q-134 0 -247.5 66.5t-180 180t-66.5 247.5v446q0 134 66.5 247.5t180 180t247.5 66.5h2935zM575 705q0 -98 69 -167t167 -69h2439q97 0 165.5 69t68.5 167
q0 97 -68.5 165t-165.5 68h-2439q-98 0 -167 -68t-69 -165z" />
    <glyph glyph-name="p" unicode="p" 
d="M4024 627h-16v-2h-3301q-27 0 -46.5 -19.5t-19.5 -46.5q0 -28 19 -46.5t47 -18.5h413v-494h-1018v940h2v494h3556l364 -494v-313zM641 874q0 -28 19 -46.5t47 -18.5h2713q27 0 46.5 19t19.5 46t-19.5 46.5t-46.5 19.5h-2713q-28 0 -47 -19t-19 -47z" />
    <glyph glyph-name="q" unicode="q" 
d="M4024 494v-494h-1274v494h416q27 0 46.5 19t19.5 46t-19.5 46.5t-46.5 19.5h-3047v2h-17v313l365 494h3557v-494h-254v-446h254zM641 874q0 -27 19.5 -46t46.5 -19h2459q27 0 46.5 19t19.5 46t-19.5 46.5t-46.5 19.5h-2459q-27 0 -46.5 -19.5t-19.5 -46.5z" />
    <glyph glyph-name="r" unicode="r" 
d="M4024 627h-538v313h-2368q-92 0 -157.5 -65.5t-65.5 -157.5t65.5 -157.5t157.5 -65.5h256v-494h-1272v494h254v446h-254v494h3558l364 -494v-313z" />
    <glyph glyph-name="s" unicode="s" 
d="M1087 940q-41 0 -71.5 -30.5t-30.5 -73.5q0 -41 30.5 -72t71.5 -31h2741q82 0 139 -57t57 -139v-537h-3922v494h3097q26 0 44.5 18.5t18.5 46.5q0 27 -18.5 46.5t-44.5 19.5h-2900q-82 0 -139.5 57t-57.5 139v613h3922v-494h-2937z" />
    <glyph glyph-name="s" unicode="&#xdf;" 
d="M1087 940q-41 0 -71.5 -30.5t-30.5 -73.5q0 -41 30.5 -72t71.5 -31h2741q82 0 139 -57t57 -139v-537h-3922v494h3097q26 0 44.5 18.5t18.5 46.5q0 27 -18.5 46.5t-44.5 19.5h-2900q-82 0 -139.5 57t-57.5 139v613h3922v-494h-2937z" />
    <glyph glyph-name="t" unicode="t" 
d="M4024 494l-364 -494h-2939l-365 494v131h-254v184h254v625h539v-551h2q-2 -2 -2 -4v-7q2 -26 21 -44.5t45 -18.5h1744v-184h-1744q-27 0 -46.5 -19.5t-19.5 -46.5t19.5 -46t46.5 -19h2525v131h538v-131z" />
    <glyph glyph-name="u" unicode="u" 
d="M4024 940h-442v-446q0 -134 -66.5 -247.5t-180 -180t-247.5 -66.5h-2050q-205 0 -350 145t-145 349v446h-441v494h1719v-494h-570q-97 0 -166 -68.5t-69 -166.5t69 -167t166 -69h1557q98 0 166.5 69t68.5 167q0 97 -68.5 166t-166.5 69h-502v494h1718v-494z" />
    <glyph glyph-name="u" unicode="&#xfc;" 
d="M4024 940h-442v-446q0 -134 -66.5 -247.5t-180 -180t-247.5 -66.5h-2050q-205 0 -350 145t-145 349v446h-441v494h1719v-494h-570q-97 0 -166 -68.5t-69 -166.5t69 -167t166 -69h1557q98 0 166.5 69t68.5 167q0 97 -68.5 166t-166.5 69h-502v494h1718v-494z" />
    <glyph glyph-name="u" unicode="&#xfb;" 
d="M4024 940h-442v-446q0 -134 -66.5 -247.5t-180 -180t-247.5 -66.5h-2050q-205 0 -350 145t-145 349v446h-441v494h1719v-494h-570q-97 0 -166 -68.5t-69 -166.5t69 -167t166 -69h1557q98 0 166.5 69t68.5 167q0 97 -68.5 166t-166.5 69h-502v494h1718v-494z" />
    <glyph glyph-name="u" unicode="&#xf9;" 
d="M4024 940h-442v-446q0 -134 -66.5 -247.5t-180 -180t-247.5 -66.5h-2050q-205 0 -350 145t-145 349v446h-441v494h1719v-494h-570q-97 0 -166 -68.5t-69 -166.5t69 -167t166 -69h1557q98 0 166.5 69t68.5 167q0 97 -68.5 166t-166.5 69h-502v494h1718v-494z" />
    <glyph glyph-name="v" unicode="v" 
d="M2744 961q-20 0 -20 -21q0 -20 20 -20h662l-418 -426h385v-494h-2619v473h1194q9 0 15.5 6t6.5 15t-6.5 14.5t-15.5 5.5h-830l-418 426h-598v494h1868v-625q0 -34 22 -60t56 -30q8 -8 14 -8q9 0 17 8q32 5 55 30.5t23 59.5v625h1867v-473h-1280z" />
    <glyph glyph-name="w" unicode="w" 
d="M4024 469l-364 -469h-3193l-365 469v965h1098v-494h-264q-97 0 -166.5 -68.5t-69.5 -166.5q0 -97 69.5 -166.5t166.5 -69.5h596q97 0 166 69.5t69 166.5t-69 166t-166 69h-264v494h1591v-494h-264q-97 0 -166.5 -68.5t-69.5 -166.5q0 -97 69.5 -166.5t166.5 -69.5h596
q96 0 164.5 69.5t68.5 166.5q0 98 -68 166.5t-165 68.5h-264v494h1097v-965z" />
    <glyph glyph-name="x" unicode="x" 
d="M4024 1139q0 -82 -57 -139.5t-139 -57.5h-1741v492h1937v-295zM102 0v297q0 82 57.5 139.5t139.5 57.5h1739v-494h-1936zM102 1137v297h1936v-494h-494l484 -104q30 -6 59 0l264 57h1053l-658 -141q-28 -6 -28 -35t28 -35l877 -188h205q82 0 139 -57.5t57 -139.5v-297
h-1937v494h483l-491 106q-21 3 -43 0l-264 -57h-1053l649 139q28 6 28 35t-28 35l-876 188h-193q-82 0 -139.5 57.5t-57.5 139.5z" />
    <glyph glyph-name="y" unicode="y" 
d="M4024 985h-278v-467l-383 -518h-3005l-256 309v469h566v-260h2445q28 0 48 20t20 48q0 29 -20 49t-48 20h-2105q-80 0 -136.5 56.5t-56.5 136.5v137h-713v518h1848v-518h-873q-29 0 -49 -19.5t-20 -47.5q0 -29 20 -49.5t49 -20.5h2036q28 0 48 20.5t20 49.5
q0 28 -20 47.5t-48 19.5h-1112v518h2023v-518z" />
    <glyph glyph-name="y" unicode="&#xff;" 
d="M4024 985h-278v-467l-383 -518h-3005l-256 309v469h566v-260h2445q28 0 48 20t20 48q0 29 -20 49t-48 20h-2105q-80 0 -136.5 56.5t-56.5 136.5v137h-713v518h1848v-518h-873q-29 0 -49 -19.5t-20 -47.5q0 -29 20 -49.5t49 -20.5h2036q28 0 48 20.5t20 49.5
q0 28 -20 47.5t-48 19.5h-1112v518h2023v-518z" />
    <glyph glyph-name="y" unicode="&#xfd;" 
d="M4024 985h-278v-467l-383 -518h-3005l-256 309v469h566v-260h2445q28 0 48 20t20 48q0 29 -20 49t-48 20h-2105q-80 0 -136.5 56.5t-56.5 136.5v137h-713v518h1848v-518h-873q-29 0 -49 -19.5t-20 -47.5q0 -29 20 -49.5t49 -20.5h2036q28 0 48 20.5t20 49.5
q0 28 -20 47.5t-48 19.5h-1112v518h2023v-518z" />
    <glyph glyph-name="z" unicode="z" 
d="M2040 600q-30 -7 -39.5 -33t5 -49.5t44.5 -23.5h1778q82 0 139 -57.5t57 -139.5v-297h-3922v494h390l1583 340q30 7 39.5 33t-6 49.5t-46.5 23.5h-1763q-82 0 -139.5 57.5t-57.5 139.5v297h3922v-494h-401z" />
    <glyph glyph-name="uni00A0" unicode="&#xa0;" horiz-adv-x="2062" 
 />
    <glyph glyph-name="acute" unicode="&#xb4;" 
d="M102 1589v140l3922 284v-424h-3922z" />
    <glyph glyph-name="Aacute" unicode="&#xc1;" 
d="M4024 494v-494h-1939v659h469q31 0 51.5 20.5t20.5 49.5v4q0 30 -21 51t-51 21h-985q-29 0 -50.5 -21.5t-21.5 -50.5v-4q0 -29 21.5 -49.5t50.5 -20.5h473v-659h-1940v473h1280q9 0 15 6t6 15q0 20 -21 20h-657l465 426h-436v494h2619v-473h-1194q-9 0 -15.5 -6t-6.5 -15
t6.5 -14.5t15.5 -5.5h780l467 -426h598zM102 1606v139l3922 285v-424h-3922z" />
    <glyph glyph-name="Eacute" unicode="&#xc9;" 
d="M102 1434h3922v-473h-3922v473zM102 0v494h441v426h557q-17 -20 -17 -46q0 -28 19 -46.5t47 -18.5h2169v-184h-2169q-28 0 -47 -19t-19 -47t19 -46.5t47 -18.5h2875v-494h-3922zM102 1606v139l3922 285v-424h-3922z" />
    <glyph glyph-name="Iacute" unicode="&#xcd;" 
d="M4024 1434v-494h-1468q-92 0 -157.5 -65.5t-65.5 -157.5q0 -64 33 -117.5t88 -81.5h-781q55 28 88 81.5t33 117.5q0 92 -65.5 157.5t-157.5 65.5h-1469v494h3922zM102 0v469h3922v-469h-3922zM102 1606v139l3922 285v-424h-3922z" />
    <glyph glyph-name="Oacute" unicode="&#xd3;" horiz-adv-x="4159" 
d="M3564 1434q134 0 247.5 -66.5t179.5 -180t66 -247.5v-446q0 -134 -66 -247.5t-179.5 -180t-247.5 -66.5h-2935q-134 0 -247.5 66.5t-180 180t-66.5 247.5v446q0 134 66.5 247.5t180 180t247.5 66.5h2935zM102 1606v139l3922 285v-424h-3922zM608 645q0 -72 52.5 -124
t125.5 -52h2554q73 0 125.5 52t52.5 124v117q0 73 -52 124.5t-126 51.5h-2554q-74 0 -126 -51.5t-52 -124.5v-117z" />
    <glyph glyph-name="Uacute" unicode="&#xda;" 
d="M4024 1434v-494h-442v-446q0 -204 -144.5 -349t-349.5 -145h-2050q-205 0 -350 145t-145 349v446h-441v494h1719v-494h-570q-97 0 -165 -68.5t-68 -166.5t68 -167t165 -69h1557q98 0 166.5 69t68.5 167q0 97 -68.5 166t-166.5 69h-502v494h1718zM102 1606v139l3922 285
v-424h-3922z" />
    <glyph glyph-name="aacute" unicode="&#xe1;" 
d="M3770 940v-446h254v-494h-3922v809h3064q27 0 46.5 19t19.5 46t-19.5 46.5t-46.5 19.5h-2814q-103 0 -176.5 73.5t-73.5 176.5l3922 244v-494h-254zM102 1595v140l3922 282v-422h-3922zM641 559q0 -27 19.5 -46t46.5 -19h2459q27 0 46.5 19t19.5 46t-19.5 46.5
t-46.5 19.5h-2459q-27 0 -46.5 -19.5t-19.5 -46.5z" />
    <glyph glyph-name="eacute" unicode="&#xe9;" 
d="M971 625q-26 0 -45 -19t-19 -47q0 -27 18.5 -46t45.5 -19h3053v-494h-3293l-364 494v446h-265v494h3558l364 -494v-315h-3053zM102 1606v139l3922 285v-424h-3922zM907 874q0 -28 18.5 -46.5t45.5 -18.5h2449q27 0 46.5 19t19.5 46t-19.5 46.5t-46.5 19.5h-2449
q-26 0 -45 -19t-19 -47z" />
    <glyph glyph-name="iacute" unicode="&#xed;" 
d="M3774 1456q103 0 176.5 -74t73.5 -178q0 -103 -73.5 -176.5t-176.5 -73.5h-3422q-103 0 -176.5 73.5t-73.5 176.5q0 104 73.5 178t176.5 74h3422zM102 0v502h1203q133 0 227 93.5t94 225.5h903q0 -132 94 -225.5t226 -93.5h1175v-502h-3922zM102 1606v139l3922 285v-424
h-3922z" />
    <glyph glyph-name="oacute" unicode="&#xf3;" horiz-adv-x="4159" 
d="M3564 1434q134 0 247.5 -66.5t179.5 -180t66 -247.5v-446q0 -134 -66 -247.5t-179.5 -180t-247.5 -66.5h-2935q-134 0 -247.5 66.5t-180 180t-66.5 247.5v446q0 134 66.5 247.5t180 180t247.5 66.5h2935zM102 1606v139l3922 285v-424h-3922zM608 645q0 -72 52.5 -124
t125.5 -52h2554q73 0 125.5 52t52.5 124v117q0 73 -52 124.5t-126 51.5h-2554q-74 0 -126 -51.5t-52 -124.5v-117z" />
    <glyph glyph-name="uacute" unicode="&#xfa;" 
d="M4024 1434v-494h-442v-446q0 -204 -144.5 -349t-349.5 -145h-2050q-205 0 -350 145t-145 349v446h-441v494h1719v-494h-570q-97 0 -165 -68.5t-68 -166.5t68 -167t165 -69h1557q98 0 166.5 69t68.5 167q0 97 -68.5 166t-166.5 69h-502v494h1718zM102 1606v139l3922 285
v-424h-3922z" />
    <glyph glyph-name="uniF002" unicode="&#xf002;" 
d="M4024 940h-598v-446q0 -134 -66 -247.5t-179.5 -180t-247.5 -66.5h-1739q-134 0 -247.5 66.5t-180 180t-66.5 247.5v446h-598v494h1868v-811q0 -38 26.5 -65.5t63.5 -29.5h2h4q37 2 64 29.5t27 65.5v811h1867v-494z" />
  </font>
</defs>
</svg>
