<?xml version="1.0" standalone="no"?>
<!DOCTYPE svg PUBLIC "-//W3C//DTD SVG 1.1//EN" "http://www.w3.org/Graphics/SVG/1.1/DTD/svg11.dtd" >
<svg xmlns="http://www.w3.org/2000/svg" xmlns:xlink="http://www.w3.org/1999/xlink" version="1.1">
<metadata>
Created by FontForge 20170731 at Wed Dec 13 02:55:43 2023
 By Aleksey,,,
copyright missing
</metadata>
<defs>
<font id="AH-Plank" horiz-adv-x="942" >
  <font-face 
    font-family="Plank"
    font-weight="700"
    font-stretch="normal"
    units-per-em="2048"
    panose-1="0 0 0 0 0 0 0 0 0 0"
    ascent="1638"
    descent="-410"
    x-height="844"
    cap-height="1266"
    bbox="-252 -377 1815 1677"
    underline-thickness="102"
    underline-position="-409"
    unicode-range="U+000A-FB04"
  />
<missing-glyph horiz-adv-x="1228" 
 />
    <glyph glyph-name="uniFB00" unicode="ff" horiz-adv-x="1189" 
d="M973 997v211l-211 -104v-258h211v-107h-211v-635l104 -104h-422l107 106v633h-211v-635l104 -104h-421l106 106v633h-106v107h106v258l422 211l139 -141l72 34l211 107l211 -211v-107h-211zM340 846h211v362l-211 -104v-258z" />
    <glyph glyph-name="fi.liga" unicode="fi" horiz-adv-x="944" 
d="M522 0l105 104v635l-88 88v-88h-211v-635l104 -104h-422l105 104v635h-105v107h105v258l512 211l211 -211v-107h-211v211l-299 -104v-258h510v-740l106 -106h-422z" />
    <glyph glyph-name="uniFB03" unicode="ffi" horiz-adv-x="1366" 
d="M954 0l107 104v635l-88 88v-88h-213v-635l106 -104h-422l105 104v635h-209v-635l104 -104h-421l106 104v635h-106v107h106v258l422 211l139 -141l371 141l211 -211v-107h-211v211l-299 -104v-107h-2v-151h512v-740l106 -106h-424zM338 846h211v258h2v104l-213 -104v-258z
" />
    <glyph glyph-name="uniFB04" unicode="ffl" horiz-adv-x="1329" 
d="M936 0l106 104v1104l-299 -104v-107h-2v-151h213v-107h-213v-635l107 -104h-422l104 104v635h-208v-635l104 -104h-422l105 104v635h-105v107h105v258l423 211l140 -141l370 141l211 -211v-998l107 -106h-424zM319 846h211v258h2v104l-213 -104v-258z" />
    <glyph glyph-name=".notdef" horiz-adv-x="1228" 
 />
    <glyph glyph-name=".null" horiz-adv-x="0" 
 />
    <glyph glyph-name="nonmarkingreturn" horiz-adv-x="682" 
 />
    <glyph glyph-name="uni000A" unicode="&#xa;" horiz-adv-x="409" 
 />
    <glyph glyph-name="controlCR" unicode="&#xd;" horiz-adv-x="409" 
 />
    <glyph glyph-name="space" unicode=" " horiz-adv-x="407" 
 />
    <glyph glyph-name="exclam" unicode="!" horiz-adv-x="489" 
d="M139 211h211v-211h-211v211zM102 1264h285l-37 -422l-22 -527h-166l-23 527z" />
    <glyph glyph-name="quotedbl" unicode="&#x22;" horiz-adv-x="731" 
d="M524 1053h105v-211h-211v317l211 105v-105l-105 -53v-53zM102 842v317l211 105v-105l-106 -53v-53h106v-211h-211z" />
    <glyph glyph-name="numbersign" unicode="#" horiz-adv-x="1243" 
d="M846 459h194l97 -135h-291v-273l-135 -47v320h-279v-273l-135 -47v320h-195l-96 135h291l96 260h-194l-97 133h291v272l135 50v-322h279v272l135 50v-322h195l96 -133h-291zM432 459h279l96 260h-279z" />
    <glyph glyph-name="dollar" unicode="$" 
d="M629 1180l-105 -39v-492h105q90 0 150.5 -51t60.5 -137v-303l-211 -78l-105 -41v-143h-106v104l-105 -39l-211 211v219l211 66v-389l105 36v441h-105q-88 0 -149.5 61.5t-61.5 149.5v334l316 116v162h106v-123l105 39l172 -172l39 21v-277l-211 -68v392zM313 649h105v455
l-105 -39v-416zM524 141l105 39v365h-105v-404z" />
    <glyph glyph-name="percent" unicode="%" horiz-adv-x="1085" 
d="M252 0h-150l738 1264h143zM121 844v420h422v-420h-422zM264 987h133v133h-133v-133zM547 0v422h422v-422h-422zM692 143h131v133h-131v-133z" />
    <glyph glyph-name="ampersand" unicode="&#x26;" horiz-adv-x="1290" 
d="M1204 0h-416l60 57l-78 93l-303 -150h-299l-123 123v297l352 170l-247 293l106 254l420 147l211 -211v-231l-211 -66v402l-354 -119l587 -707l37 17v215l-153 153h411l-153 -153v-273l-76 -37zM119 346l272 -272l314 151l-244 289z" />
    <glyph glyph-name="quotesingle" unicode="'" horiz-adv-x="415" 
d="M102 852v104l105 54v53h-105v211h211v-318z" />
    <glyph glyph-name="parenleft" unicode="(" horiz-adv-x="415" 
d="M238 -16l75 -76v-107h-106l-105 107v1345l105 105h106v-105l-75 -69v-1200z" />
    <glyph glyph-name="parenright" unicode=")" horiz-adv-x="415" 
d="M209 -197h-107v107l76 76v1200l-76 69v105h107l104 -105v-1345z" />
    <glyph glyph-name="asterisk" unicode="*" horiz-adv-x="665" 
d="M565 813l-51 -86l-127 127v-156l-98 -24v186l-103 -100l-92 33l137 135h-151l-41 88h184l-108 110l47 93l127 -129v147l98 33v-187l100 103l93 -33l-136 -137h150l41 -88h-184z" />
    <glyph glyph-name="plus" unicode="+" horiz-adv-x="663" 
d="M643 545h-231v-203l-136 -35v238h-229v121h229v192l136 45v-237h231v-121z" />
    <glyph glyph-name="comma" unicode="," horiz-adv-x="374" 
d="M61 -213v104l105 54v53h-105v211h211v-318z" />
    <glyph glyph-name="hyphen" unicode="-" horiz-adv-x="559" 
d="M102 455h355v-115h-355v115z" />
    <glyph glyph-name="period" unicode="." horiz-adv-x="374" 
d="M61 209h211v-211h-211v211z" />
    <glyph glyph-name="slash" unicode="/" horiz-adv-x="1085" 
d="M252 0h-150l738 1264h143z" />
    <glyph glyph-name="zero" unicode="0" 
d="M629 1198q88 0 149.5 -61.5t61.5 -147.5v-782q0 -88 -61.5 -149.5t-149.5 -61.5h-316q-77 0 -144 67t-67 144v782q0 86 61.5 147.5t149.5 61.5h316zM313 115h316v964h-316v-964z" />
    <glyph glyph-name="one" unicode="1" horiz-adv-x="815" 
d="M82 -4l104 119h107v964h-107l-104 119h422v-1083h104l105 -119h-631z" />
    <glyph glyph-name="two" unicode="2" horiz-adv-x="987" 
d="M885 -4h-783v225l527 451v368l-316 113v-391l-211 67v220l211 208l527 -194v-459l-564 -489h519l90 92v-211z" />
    <glyph glyph-name="three" unicode="3" 
d="M629 696q88 0 149.5 -61.5t61.5 -147.5v-360l-527 -197l-211 211v219h211v-323l316 113v442h-422v67l401 416h-393l-113 -137v256h678v-119l-352 -379h201z" />
    <glyph glyph-name="four" unicode="4" horiz-adv-x="1148" 
d="M836 311v-194l104 -121h-420l105 119v196h-564v105l564 782h315l-104 -104v-678h211l-107 -105h-104zM240 416h385v526z" />
    <glyph glyph-name="five" unicode="5" horiz-adv-x="903" 
d="M547 739q88 0 149.5 -61.5t61.5 -149.5v-391l-527 -196l-211 211v235h211v-340l316 113v473h-527l103 571h678l-105 -184h-415l-52 -281h318z" />
    <glyph glyph-name="six" unicode="6" 
d="M840 147l-527 -196l-211 211v917l527 195l211 -209v-41l-211 -68v213l-316 -112v-312l527 -194v-404zM313 57l316 113v358l-316 113v-584z" />
    <glyph glyph-name="seven" unicode="7" horiz-adv-x="995" 
d="M893 973l-512 -977h-195v67l533 1016h-504l-113 -137v256h791v-225z" />
    <glyph glyph-name="eight" unicode="8" 
d="M840 713l-142 -140l142 -51v-375l-181 -67l-28 -10l-2 -2l-316 -117l-211 211v344l140 139l-140 53v373l527 197l211 -211v-344zM313 57l316 113v328l-316 114v-555zM313 721l316 -113v553l-316 -112v-328z" />
    <glyph glyph-name="nine" unicode="9" 
d="M313 -57l-211 211v39l211 67v-211l316 113v323l-527 195v389l527 197l211 -211v-916zM313 702l316 -112v571l-316 -114v-345z" />
    <glyph glyph-name="colon" unicode=":" horiz-adv-x="415" 
d="M102 209h211v-211h-211v211zM102 627v211h211v-211h-211z" />
    <glyph glyph-name="semicolon" unicode=";" horiz-adv-x="415" 
d="M102 838h211v-211h-211v211zM102 -213v104l107 54v53h-107v211h211v-318z" />
    <glyph glyph-name="less" unicode="&#x3c;" horiz-adv-x="706" 
d="M604 0h-178l-324 352v131l328 361h174l-348 -400v-49z" />
    <glyph glyph-name="equal" unicode="=" horiz-adv-x="731" 
d="M102 799h527v-115h-527v115zM102 406v116h527v-116h-527z" />
    <glyph glyph-name="greater" unicode="&#x3e;" horiz-adv-x="706" 
d="M102 844h174l328 -361v-131l-323 -352h-179l349 395v49z" />
    <glyph glyph-name="question" unicode="?" horiz-adv-x="825" 
d="M250 211h211v-211h-211v211zM61 836v217l211 211l240 -95l211 -79v-420l-283 -355h-172v107l244 315v330l-240 92v-391z" />
    <glyph glyph-name="at" unicode="@" horiz-adv-x="1409" 
d="M1337 -137l-106 -90h-1053l-106 104v1084l104 104h1055l104 -104v-859l-104 -104h-481l8 104l-217 -104q-88 0 -145.5 61.5t-51.5 149.5l8 106q6 86 72 147.5t154 61.5h208l17 211h-211l-12 -174l-177 174v2q3 42 38.5 72.5t78.5 30.5h289q88 0 145.5 -61.5t51.5 -147.5
l-37 -529l75 -79l156 157v705l-61 61h-871l-61 -61v-932l61 -59h893l70 59h106v-90zM547 102l219 107l14 211h-211l-14 -211z" />
    <glyph glyph-name="A" unicode="A" horiz-adv-x="1157" 
d="M819 0l-114 422h-326l-86 -316l104 -106h-346l107 104l315 1162h211l317 -1162l105 -104h-287zM403 510h277l-139 508z" />
    <glyph glyph-name="A" unicode="&#xc5;" horiz-adv-x="1157" 
d="M819 0l-114 422h-326l-86 -316l104 -106h-346l107 104l315 1162h211l317 -1162l105 -104h-287zM403 510h277l-139 508z" />
    <glyph glyph-name="A" unicode="&#xc3;" horiz-adv-x="1157" 
d="M819 0l-114 422h-326l-86 -316l104 -106h-346l107 104l315 1162h211l317 -1162l105 -104h-287zM403 510h277l-139 508z" />
    <glyph glyph-name="A" unicode="&#xc2;" horiz-adv-x="1157" 
d="M819 0l-114 422h-326l-86 -316l104 -106h-346l107 104l315 1162h211l317 -1162l105 -104h-287zM403 510h277l-139 508z" />
    <glyph glyph-name="A" unicode="&#xc0;" horiz-adv-x="1157" 
d="M819 0l-114 422h-326l-86 -316l104 -106h-346l107 104l315 1162h211l317 -1162l105 -104h-287zM403 510h277l-139 508z" />
    <glyph glyph-name="B" unicode="B" horiz-adv-x="1007" 
d="M944 211q0 -77 -67 -144t-144 -67l-358 104v-104h-318l107 106l-2 1055l-105 105h590q79 0 136 -56.5t57 -134.5v-125q0 -76 -68 -143.5t-143 -67.5v422h-254v-422h379q78 0 134 -56.5t56 -135.5v-336zM375 211l358 -105v527h-358v-422z" />
    <glyph glyph-name="C" unicode="C" horiz-adv-x="876" 
d="M838 211q0 -88 -61.5 -149.5t-149.5 -61.5h-314q-88 0 -149.5 61.5t-61.5 149.5v915l527 197l139 -139l70 35v-353l-209 -127v478l-316 -113v-1000h314v107l2 209l209 106v-315z" />
    <glyph glyph-name="D" unicode="D" horiz-adv-x="983" 
d="M711 1266q78 0 134 -56.5t56 -134.5v-864q0 -77 -67.5 -144t-143.5 -67h-633l105 106v1055l-105 105h654zM373 106h317v1055h-315z" />
    <glyph glyph-name="E" unicode="E" horiz-adv-x="974" 
d="M944 0h-887l105 104v1057l-105 105h834v-316l-174 211h-344v-422h307l106 105v-316l-106 105h-307v-527l360 -2l211 211v-315z" />
    <glyph glyph-name="E" unicode="&#xca;" horiz-adv-x="974" 
d="M944 0h-887l105 104v1057l-105 105h834v-316l-174 211h-344v-422h307l106 105v-316l-106 105h-307v-527l360 -2l211 211v-315z" />
    <glyph glyph-name="E" unicode="&#xc8;" horiz-adv-x="974" 
d="M944 0h-887l105 104v1057l-105 105h834v-316l-174 211h-344v-422h307l106 105v-316l-106 105h-307v-527l360 -2l211 211v-315z" />
    <glyph glyph-name="F" unicode="F" horiz-adv-x="931" 
d="M690 844v-316l-104 105h-211l-2 -529l106 -104h-422l105 104v1057l-105 105h844v-316l-211 211h-317v-422h213z" />
    <glyph glyph-name="G" unicode="G" horiz-adv-x="978" 
d="M926 0h-633q-88 0 -149.5 61.5t-61.5 149.5v844q0 88 61.5 149.5t149.5 61.5h317q87 0 149 -62t62 -149v-105l-211 -211v420h-317v-948q0 -44 31 -74.5t75 -30.5l211 -2v318h-106l-105 106h527l-107 -106l2 -318z" />
    <glyph glyph-name="H" unicode="H" horiz-adv-x="1169" 
d="M690 0l105 104v529h-422v-633h-316l105 104v1057l-105 105h422l-106 -105v-440h422v545h317l-106 -105v-1057l106 -104h-422z" />
    <glyph glyph-name="I" unicode="I" horiz-adv-x="536" 
d="M57 0l105 104v1057l-105 105h422l-106 -105v-1055l106 -106h-422z" />
    <glyph glyph-name="I" unicode="&#xce;" horiz-adv-x="536" 
d="M57 0l105 104v1057l-105 105h422l-106 -105v-1055l106 -106h-422z" />
    <glyph glyph-name="I" unicode="&#xcc;" horiz-adv-x="536" 
d="M57 0l105 104v1057l-105 105h422l-106 -105v-1055l106 -106h-422z" />
    <glyph glyph-name="J" unicode="J" horiz-adv-x="811" 
d="M659 1163v-1071l-405 -209l-203 203v152h203v-254l203 102v1077l-103 101h406z" />
    <glyph glyph-name="K" unicode="K" horiz-adv-x="1263" 
d="M797 0l59 57l-393 465l-88 -108v-308l104 -106h-422l105 104v1057l-105 105h422l-104 -105v-610l315 377v338h391l-463 -557l594 -709h-415z" />
    <glyph glyph-name="L" unicode="L" horiz-adv-x="954" 
d="M901 0h-844l105 104v1057l-105 105h422l-104 -105v-1055h315l211 211v-317z" />
    <glyph glyph-name="M" unicode="M" horiz-adv-x="1484" 
d="M1425 0h-421l106 106v1063l-315 -1063h-213l-308 1035v-1035l105 -106h-324l107 106v1055l-107 105h394l276 -934l279 934h421l-104 -105v-1055z" />
    <glyph glyph-name="N" unicode="N" horiz-adv-x="1273" 
d="M1114 1159v-1177h-233l-607 1048v-924l107 -106h-326l107 106v1053l-107 107h318l628 -1088v981l-106 107h326z" />
    <glyph glyph-name="O" unicode="O" horiz-adv-x="1007" 
d="M715 1264q88 0 149.5 -61.5t61.5 -149.5v-842q0 -88 -61.5 -149.5t-149.5 -61.5h-422q-77 0 -144 67t-67 144v842q0 88 61.5 149.5t149.5 61.5h422zM293 104h422v1055h-422v-1055z" />
    <glyph glyph-name="O" unicode="&#xd8;" horiz-adv-x="1007" 
d="M715 1264q88 0 149.5 -61.5t61.5 -149.5v-842q0 -88 -61.5 -149.5t-149.5 -61.5h-422q-77 0 -144 67t-67 144v842q0 88 61.5 149.5t149.5 61.5h422zM293 104h422v1055h-422v-1055z" />
    <glyph glyph-name="O" unicode="&#xd5;" horiz-adv-x="1007" 
d="M715 1264q88 0 149.5 -61.5t61.5 -149.5v-842q0 -88 -61.5 -149.5t-149.5 -61.5h-422q-77 0 -144 67t-67 144v842q0 88 61.5 149.5t149.5 61.5h422zM293 104h422v1055h-422v-1055z" />
    <glyph glyph-name="O" unicode="&#xd4;" horiz-adv-x="1007" 
d="M715 1264q88 0 149.5 -61.5t61.5 -149.5v-842q0 -88 -61.5 -149.5t-149.5 -61.5h-422q-77 0 -144 67t-67 144v842q0 88 61.5 149.5t149.5 61.5h422zM293 104h422v1055h-422v-1055z" />
    <glyph glyph-name="O" unicode="&#xd2;" horiz-adv-x="1007" 
d="M715 1264q88 0 149.5 -61.5t61.5 -149.5v-842q0 -88 -61.5 -149.5t-149.5 -61.5h-422q-77 0 -144 67t-67 144v842q0 88 61.5 149.5t149.5 61.5h422zM293 104h422v1055h-422v-1055z" />
    <glyph glyph-name="P" unicode="P" horiz-adv-x="983" 
d="M711 1266q78 0 134 -56.5t56 -134.5v-442q0 -88 -61.5 -149.5t-149.5 -61.5h-315v-316l104 -106h-422l107 106l-2 1055l-105 105h654zM375 528h315v633h-315v-633z" />
    <glyph glyph-name="Q" unicode="Q" horiz-adv-x="1083" 
d="M821 -319l-422 210v105h-106q-75 0 -143 68t-68 143v846q0 88 61.5 149.5t149.5 61.5h422q88 0 149.5 -61.5t61.5 -149.5v-846q0 -87 -62 -149t-149 -62h-105v-105l211 -104v104h211zM293 102h422v1055h-422v-1055z" />
    <glyph glyph-name="R" unicode="R" horiz-adv-x="1058" 
d="M758 68l-230 460h-153v-422l104 -106h-422l107 106v1055l-107 105h654q78 0 134 -56.5t56 -134.5v-231q0 -88 -61.5 -149.5t-149.5 -61.5v528h-315v-528h315l318 -633h-318z" />
    <glyph glyph-name="S" unicode="S" horiz-adv-x="970" 
d="M930 211q0 -88 -61.5 -149.5t-149.5 -61.5h-406q-88 0 -149.5 61.5t-61.5 149.5v174l211 104v-385h406v418q0 19 -12 31t-31 12h-318q-89 0 -150 55.5t-61 141.5v360l527 197l141 -141l70 36v-346l-211 -65v409l-316 -112v-430h361q88 0 149.5 -61.5t61.5 -149.5v-248z
" />
    <glyph glyph-name="T" unicode="T" horiz-adv-x="1157" 
d="M895 1161h-211v-1055l104 -106h-419l104 106v1055h-211l-211 -213v318h1055v-316z" />
    <glyph glyph-name="U" unicode="U" horiz-adv-x="1169" 
d="M1008 211q0 -88 -61.5 -149.5t-149.5 -61.5h-422q-77 0 -144 67t-67 144v950l-107 105h422l-104 -107v-1055h422v1057l-107 105h422l-104 -105v-950z" />
    <glyph glyph-name="U" unicode="&#xdb;" horiz-adv-x="1169" 
d="M1008 211q0 -88 -61.5 -149.5t-149.5 -61.5h-422q-77 0 -144 67t-67 144v950l-107 105h422l-104 -107v-1055h422v1057l-107 105h422l-104 -105v-950z" />
    <glyph glyph-name="U" unicode="&#xd9;" horiz-adv-x="1169" 
d="M1008 211q0 -88 -61.5 -149.5t-149.5 -61.5h-422q-77 0 -144 67t-67 144v950l-107 105h422l-104 -107v-1055h422v1057l-107 105h422l-104 -105v-950z" />
    <glyph glyph-name="V" unicode="V" horiz-adv-x="1157" 
d="M999 1161l-315 -1161h-211l-317 1161l-105 105h287l278 -1018l254 936l-79 82h315z" />
    <glyph glyph-name="W" unicode="W" horiz-adv-x="1865" 
d="M1708 1161l-315 -1161h-211l-250 911l-248 -911h-211l-317 1161l-105 105h287l278 -1018l248 911v2l-104 105h287l278 -1018l248 913l-105 105h347z" />
    <glyph glyph-name="X" unicode="X" horiz-adv-x="1323" 
d="M991 0l-358 508l-279 -350l82 -158h-385l158 158l356 444l-356 506l-158 158h283l356 -508l314 391l-117 117h385l-160 -158l-354 -444l358 -506l156 -158h-281z" />
    <glyph glyph-name="Y" unicode="Y" horiz-adv-x="1157" 
d="M684 104l104 -104h-421l106 104v422l-301 645l-121 95h422l-100 -74l248 -528l247 530l-69 72h307l-121 -95l-301 -645v-422z" />
    <glyph glyph-name="Y" unicode="&#xdd;" horiz-adv-x="1157" 
d="M684 104l104 -104h-421l106 104v422l-301 645l-121 95h422l-100 -74l248 -528l247 530l-69 72h307l-121 -95l-301 -645v-422z" />
    <glyph glyph-name="Z" unicode="Z" horiz-adv-x="1214" 
d="M57 0l738 1167h-484l2 -112l-211 -211v422h1010l-733 -1160h567v105l211 211v-422h-1100z" />
    <glyph glyph-name="asciicircum" unicode="^" horiz-adv-x="911" 
d="M809 844l-334 293h-41l-332 -293v170l295 270h111l301 -274v-166z" />
    <glyph glyph-name="underscore" unicode="_" horiz-adv-x="1120" 
d="M102 88h916v-90h-916v90z" />
    <glyph glyph-name="grave" unicode="`" horiz-adv-x="647" 
d="M428 1032l-246 76l-80 158l117 -35l246 -76l80 -158z" />
    <glyph glyph-name="a" unicode="a" horiz-adv-x="817" 
d="M463 0v102l-211 -102q-88 0 -149.5 61.5t-61.5 149.5v106q0 88 61.5 149.5t149.5 61.5h211v211h-211v-176l-189 176v2q0 42 33.5 72.5t75.5 30.5h291q88 0 149.5 -61.5t61.5 -149.5v-529l106 -104h-317zM252 106l211 105v211h-211v-316z" />
    <glyph glyph-name="a" unicode="&#xe5;" horiz-adv-x="817" 
d="M463 0v102l-211 -102q-88 0 -149.5 61.5t-61.5 149.5v106q0 88 61.5 149.5t149.5 61.5h211v211h-211v-176l-189 176v2q0 42 33.5 72.5t75.5 30.5h291q88 0 149.5 -61.5t61.5 -149.5v-529l106 -104h-317zM252 106l211 105v211h-211v-316z" />
    <glyph glyph-name="a" unicode="&#xe3;" horiz-adv-x="817" 
d="M463 0v102l-211 -102q-88 0 -149.5 61.5t-61.5 149.5v106q0 88 61.5 149.5t149.5 61.5h211v211h-211v-176l-189 176v2q0 42 33.5 72.5t75.5 30.5h291q88 0 149.5 -61.5t61.5 -149.5v-529l106 -104h-317zM252 106l211 105v211h-211v-316z" />
    <glyph glyph-name="a" unicode="&#xe2;" horiz-adv-x="817" 
d="M463 0v102l-211 -102q-88 0 -149.5 61.5t-61.5 149.5v106q0 88 61.5 149.5t149.5 61.5h211v211h-211v-176l-189 176v2q0 42 33.5 72.5t75.5 30.5h291q88 0 149.5 -61.5t61.5 -149.5v-529l106 -104h-317zM252 106l211 105v211h-211v-316z" />
    <glyph glyph-name="a" unicode="&#xe0;" horiz-adv-x="817" 
d="M463 0v102l-211 -102q-88 0 -149.5 61.5t-61.5 149.5v106q0 88 61.5 149.5t149.5 61.5h211v211h-211v-176l-189 176v2q0 42 33.5 72.5t75.5 30.5h291q88 0 149.5 -61.5t61.5 -149.5v-529l106 -104h-317zM252 106l211 105v211h-211v-316z" />
    <glyph glyph-name="b" unicode="b" horiz-adv-x="845" 
d="M563 844q87 0 149 -62t62 -149v-422q0 -76 -68 -143.5t-143 -67.5l-211 104v-104h-317l106 106v1055l-106 105h317v-422h211zM352 211l211 -105v633h-211v-528z" />
    <glyph glyph-name="c" unicode="c" horiz-adv-x="765" 
d="M705 211q0 -88 -61.5 -149.5t-149.5 -61.5h-211q-88 0 -149.5 61.5t-61.5 149.5v422q0 88 61.5 149.5t149.5 61.5h211q88 0 149.5 -61.5t61.5 -149.5l-211 -107v213h-211v-635h211v107l211 106v-106z" />
    <glyph glyph-name="d" unicode="d" horiz-adv-x="845" 
d="M494 0v104l-211 -104q-77 0 -144 67t-67 144v422q0 88 61.5 149.5t149.5 61.5h211v317l-105 105h316v-1162l106 -104h-317zM283 106l211 105v528h-211v-633z" />
    <glyph glyph-name="e" unicode="e" horiz-adv-x="765" 
d="M705 209q0 -86 -61.5 -147.5t-147.5 -61.5h-213q-77 0 -144 67t-67 144v422q0 88 61.5 149.5t149.5 61.5h211q88 0 149.5 -61.5t61.5 -149.5v-105l-422 -213v-211h211v107l211 106v-108zM283 422l211 106v211h-211v-317z" />
    <glyph glyph-name="e" unicode="&#xea;" horiz-adv-x="765" 
d="M705 209q0 -86 -61.5 -147.5t-147.5 -61.5h-213q-77 0 -144 67t-67 144v422q0 88 61.5 149.5t149.5 61.5h211q88 0 149.5 -61.5t61.5 -149.5v-105l-422 -213v-211h211v107l211 106v-108zM283 422l211 106v211h-211v-317z" />
    <glyph glyph-name="e" unicode="&#xe8;" horiz-adv-x="765" 
d="M705 209q0 -86 -61.5 -147.5t-147.5 -61.5h-213q-77 0 -144 67t-67 144v422q0 88 61.5 149.5t149.5 61.5h211q88 0 149.5 -61.5t61.5 -149.5v-105l-422 -213v-211h211v107l211 106v-108zM283 422l211 106v211h-211v-317z" />
    <glyph glyph-name="f" unicode="f" horiz-adv-x="718" 
d="M567 1208l-211 -104v-258h211v-107h-211v-635l105 -104h-422l106 106v633h-106v107h106v258l422 211l211 -211v-107h-211v211z" />
    <glyph glyph-name="g" unicode="g" horiz-adv-x="815" 
d="M621 104q63 0 108 -44t45 -107v-117q0 -63 -45 -108t-108 -45h-375q-76 0 -143.5 68t-67.5 143l211 106v-211h317v211h-377q-48 0 -84.5 31t-42.5 78q-6 45 19 83t67 52q-47 30 -78.5 79t-31.5 99v211q0 88 61.5 149.5t149.5 61.5h542l-106 -105h-43q29 -53 29 -106v-211
q0 -88 -61.5 -149.5t-149.5 -61.5h-211q-32 0 -62 12v-119h437zM246 317h211v422h-211v-422z" />
    <glyph glyph-name="h" unicode="h" horiz-adv-x="909" 
d="M567 0v739l-213 -106v-633h-315l104 106v1055l-104 105h315v-527h2l211 105q87 0 149 -62t62 -149v-527l105 -106h-316z" />
    <glyph glyph-name="i" unicode="i" horiz-adv-x="495" 
d="M39 0l104 106v633l-104 105h317v-738l105 -106h-422zM145 997v211h209v-211h-209z" />
    <glyph glyph-name="i" unicode="&#xee;" horiz-adv-x="495" 
d="M39 0l104 106v633l-104 105h317v-738l105 -106h-422zM145 997v211h209v-211h-209z" />
    <glyph glyph-name="i" unicode="&#xec;" horiz-adv-x="495" 
d="M39 0l104 106v633l-104 105h317v-738l105 -106h-422zM145 997v211h209v-211h-209z" />
    <glyph glyph-name="j" unicode="j" horiz-adv-x="473" 
d="M170 1204h211v-211h-211v211zM-252 -162h211v-104l211 104v897l-107 107h318v-1004l-422 -211z" />
    <glyph glyph-name="k" unicode="k" horiz-adv-x="954" 
d="M641 0l59 59l-221 383l-125 -127v-315h-315l104 104v1057l-104 105h315v-852l244 252v178h264l-266 -279l338 -565h-293z" />
    <glyph glyph-name="l" unicode="l" horiz-adv-x="487" 
d="M143 0v1161l-104 105h315v-1160l107 -106h-318z" />
    <glyph glyph-name="m" unicode="m" horiz-adv-x="1329" 
d="M985 0v739l-211 -106v-527l105 -106h-316v739l-213 -106v-633h-315l104 106v633l-104 105h317v-105l211 105q51 0 101.5 -34t80.5 -85l240 119q75 0 143 -67.5t68 -143.5v-527l104 -106h-315z" />
    <glyph glyph-name="n" unicode="n" horiz-adv-x="909" 
d="M563 0v739l-213 -106v-633h-315l104 106v633l-104 105h315v-105l213 105q75 0 143 -67.5t68 -143.5v-527l105 -106h-316z" />
    <glyph glyph-name="o" unicode="o" horiz-adv-x="798" 
d="M504 844q88 0 149.5 -61.5t61.5 -149.5v-422q0 -88 -61.5 -149.5t-149.5 -61.5h-211q-77 0 -144 67t-67 144v422q0 88 61.5 149.5t149.5 61.5h211zM293 104h211v635h-211v-635z" />
    <glyph glyph-name="o" unicode="&#xf8;" horiz-adv-x="798" 
d="M504 844q88 0 149.5 -61.5t61.5 -149.5v-422q0 -88 -61.5 -149.5t-149.5 -61.5h-211q-77 0 -144 67t-67 144v422q0 88 61.5 149.5t149.5 61.5h211zM293 104h211v635h-211v-635z" />
    <glyph glyph-name="o" unicode="&#xf5;" horiz-adv-x="798" 
d="M504 844q88 0 149.5 -61.5t61.5 -149.5v-422q0 -88 -61.5 -149.5t-149.5 -61.5h-211q-77 0 -144 67t-67 144v422q0 88 61.5 149.5t149.5 61.5h211zM293 104h211v635h-211v-635z" />
    <glyph glyph-name="o" unicode="&#xf4;" horiz-adv-x="798" 
d="M504 844q88 0 149.5 -61.5t61.5 -149.5v-422q0 -88 -61.5 -149.5t-149.5 -61.5h-211q-77 0 -144 67t-67 144v422q0 88 61.5 149.5t149.5 61.5h211zM293 104h211v635h-211v-635z" />
    <glyph glyph-name="o" unicode="&#xf2;" horiz-adv-x="798" 
d="M504 844q88 0 149.5 -61.5t61.5 -149.5v-422q0 -88 -61.5 -149.5t-149.5 -61.5h-211q-77 0 -144 67t-67 144v422q0 88 61.5 149.5t149.5 61.5h211zM293 104h211v635h-211v-635z" />
    <glyph glyph-name="p" unicode="p" horiz-adv-x="837" 
d="M766 211q0 -87 -62 -149t-149 -62h-211v-272l105 -105h-422l106 105v1011l-106 105h317v-105l211 105q75 0 143 -67.5t68 -143.5v-422zM344 104h211v635l-211 -106v-529z" />
    <glyph glyph-name="q" unicode="q" horiz-adv-x="845" 
d="M389 -377l105 105v272h-211q-88 0 -149.5 61.5t-61.5 149.5v422q0 77 67 144t144 67l211 -105v105h317l-106 -105v-1011l106 -105h-422zM283 104h211v529l-211 106v-635z" />
    <glyph glyph-name="r" unicode="r" horiz-adv-x="837" 
d="M563 844q87 0 149 -62t62 -149v-107l-211 107v104l-213 -104v-529l107 -104h-422l104 104v633l-104 107h315v-107z" />
    <glyph glyph-name="s" unicode="s" horiz-adv-x="724" 
d="M471 739h-211v-260h211q88 0 149.5 -61.5t61.5 -147.5v-59q0 -88 -61.5 -149.5t-149.5 -61.5h-211q-88 0 -149.5 61.5t-61.5 149.5l211 106v-213h211v271h-211q-82 0 -146.5 61.5t-64.5 149.5v47q0 88 61.5 149.5t149.5 61.5h211q88 0 149.5 -61.5t61.5 -149.5l-211 -105
v211z" />
    <glyph glyph-name="s" unicode="&#xdf;" horiz-adv-x="724" 
d="M471 739h-211v-260h211q88 0 149.5 -61.5t61.5 -147.5v-59q0 -88 -61.5 -149.5t-149.5 -61.5h-211q-88 0 -149.5 61.5t-61.5 149.5l211 106v-213h211v271h-211q-82 0 -146.5 61.5t-64.5 149.5v47q0 88 61.5 149.5t149.5 61.5h211q88 0 149.5 -61.5t61.5 -149.5l-211 -105
v211z" />
    <glyph glyph-name="t" unicode="t" horiz-adv-x="620" 
d="M584 106l-107 -106h-127l-211 106v633h-104v105h104v211l211 106v-317h211v-105h-211v-633h127v105l107 106v-211z" />
    <glyph glyph-name="u" unicode="u" horiz-adv-x="897" 
d="M555 0v104l-211 -104q-88 0 -149.5 61.5t-61.5 149.5v526l-106 107h317v-740l211 107v633h211v-738l104 -106h-315z" />
    <glyph glyph-name="u" unicode="&#xfb;" horiz-adv-x="897" 
d="M555 0v104l-211 -104q-88 0 -149.5 61.5t-61.5 149.5v526l-106 107h317v-740l211 107v633h211v-738l104 -106h-315z" />
    <glyph glyph-name="u" unicode="&#xf9;" horiz-adv-x="897" 
d="M555 0v104l-211 -104q-88 0 -149.5 61.5t-61.5 149.5v526l-106 107h317v-740l211 107v633h211v-738l104 -106h-315z" />
    <glyph glyph-name="v" unicode="v" horiz-adv-x="989" 
d="M862 739l-250 -739h-211l-274 739l-107 105h277l246 -654l184 549l-104 105h346z" />
    <glyph glyph-name="w" unicode="w" horiz-adv-x="1540" 
d="M1436 739l-250 -739h-213l-199 535l-182 -535h-211l-277 739l-104 105h276l246 -654l180 537l-10 27l-90 90h346l-57 -58l223 -596l184 549l-104 105h346z" />
    <glyph glyph-name="x" unicode="x" horiz-adv-x="911" 
d="M647 0l-219 309l-188 -231l77 -78h-297l107 106l240 293l-240 340l-107 105h242l217 -305l187 227l-78 78h295l-105 -105l-235 -290l241 -345l105 -104h-242z" />
    <glyph glyph-name="y" unicode="y" horiz-adv-x="989" 
d="M610 0l-125 -369h-204l104 105l90 264h-74l-274 739l-107 105h277l244 -651l186 546l-104 105h346l-107 -105z" />
    <glyph glyph-name="y" unicode="&#xff;" horiz-adv-x="989" 
d="M610 0l-125 -369h-204l104 105l90 264h-74l-274 739l-107 105h277l244 -651l186 546l-104 105h346l-107 -105z" />
    <glyph glyph-name="y" unicode="&#xfd;" horiz-adv-x="989" 
d="M610 0l-125 -369h-204l104 105l90 264h-74l-274 739l-107 105h277l244 -651l186 546l-104 105h346l-107 -105z" />
    <glyph glyph-name="z" unicode="z" horiz-adv-x="704" 
d="M668 0h-633l381 762h-170v-76l-211 -106v264h633l-381 -760h170v76l211 104v-264z" />
    <glyph glyph-name="braceleft" unicode="{" horiz-adv-x="555" 
d="M377 31l76 -76v-105h-105l-106 105v567l-140 115l140 98v568l106 104h105v-104l-76 -70v-1202z" />
    <glyph glyph-name="braceright" unicode="}" horiz-adv-x="555" 
d="M102 1407h107l104 -104v-568l140 -98l-140 -115v-567l-104 -105h-107v105l76 76v1202l-76 67v107z" />
    <glyph glyph-name="uni00A0" unicode="&#xa0;" horiz-adv-x="899" 
 />
    <glyph glyph-name="exclamdown" unicode="&#xa1;" horiz-adv-x="489" 
d="M139 1264h211v-211h-211v211zM102 0l37 422l23 526h166l22 -526l37 -422h-285z" />
    <glyph glyph-name="dieresis" unicode="&#xa8;" horiz-adv-x="829" 
d="M102 1208h207v-207h-207v207zM520 1001v207h207v-207h-207z" />
    <glyph glyph-name="copyright" unicode="&#xa9;" horiz-adv-x="1523" 
d="M1077 449q0 -88 -61.5 -149.5t-147.5 -61.5h-213q-88 0 -149.5 61.5t-61.5 149.5v421q0 88 61.5 149.5t149.5 61.5h211q88 0 149.5 -61.5t61.5 -149.5l-211 -106v211h-211v-633h213v107l209 104v-104zM102 659q0 133 52 255t140.5 211t211 141.5t256.5 52.5
q178 0 330 -89t240.5 -241t88.5 -330q0 -134 -52.5 -256.5t-141 -210.5t-210.5 -140t-255 -52q-134 0 -256.5 52t-211 140t-140.5 210.5t-52 256.5zM152 659q0 -166 81.5 -306.5t222 -222t306.5 -81.5q165 0 305.5 81.5t222.5 222t82 306.5q0 165 -82 306t-222.5 223
t-305.5 82q-166 0 -306.5 -82t-222 -223t-81.5 -306z" />
    <glyph glyph-name="registered" unicode="&#xae;" horiz-adv-x="815" 
d="M455 1114h-95v-156h95v156zM102 958q0 126 90 216t216 90t215.5 -90t89.5 -216t-89.5 -215.5t-215.5 -89.5t-216 89.5t-90 215.5zM121 958q0 -118 84 -202t203 -84q120 0 203 83.5t83 202.5q0 120 -83 203.5t-203 83.5q-119 0 -203 -83.5t-84 -203.5zM268 774l31 31v309
l-31 31h193q23 0 39 -16.5t16 -41.5v-67q0 -25 -18 -43.5t-43 -18.5l92 -184h-92l18 19l-65 135h-46v-123l31 -31h-125z" />
    <glyph glyph-name="acute" unicode="&#xb4;" horiz-adv-x="647" 
d="M219 1028l-117 -35l80 158l246 76l117 35l-80 -158z" />
    <glyph glyph-name="questiondown" unicode="&#xbf;" horiz-adv-x="866" 
d="M365 1264h210v-211h-210v211zM102 174v420l283 354h172v-106l-244 -316v-329l240 -93v392l211 -66v-219l-211 -211l-240 94z" />
    <glyph glyph-name="Aacute" unicode="&#xc1;" horiz-adv-x="1146" 
d="M446 1569l363 108l-80 -157l-246 -74v-2l-116 -35zM41 0l106 104l316 1162h211l317 -1162l105 -104h-287l-115 422h-325l-86 -316l104 -106h-346zM393 510h277l-140 508z" />
    <glyph glyph-name="Adieresis" unicode="&#xc4;" horiz-adv-x="1146" 
d="M809 0l-115 422h-325l-86 -318l104 -104h-346l106 104l316 1162h211l317 -1162l105 -104h-287zM256 1409v207h207v-207h-207zM393 510h277l-140 508zM674 1409v207h207v-207h-207z" />
    <glyph glyph-name="Ccedilla" unicode="&#xc7;" horiz-adv-x="940" 
d="M838 213q0 -88 -61.5 -149.5t-149.5 -61.5h-107l-26 -111h77v-102h-182v102l25 111h-101q-88 0 -149.5 61.5t-61.5 149.5v915l527 197l139 -139l70 35v-355l-209 -125v478l-316 -113v-1000h314v107h2v209l209 104v-313z" />
    <glyph glyph-name="Eacute" unicode="&#xc9;" horiz-adv-x="974" 
d="M358 1567l365 110l-80 -157l-362 -111zM57 0l105 106v1055l-105 105h834v-316l-174 211h-344v-422h307l106 105v-316l-106 105h-307v-527h360v-2l211 211v-315h-887z" />
    <glyph glyph-name="Edieresis" unicode="&#xcb;" horiz-adv-x="976" 
d="M946 0h-887l105 106v1055l-105 105h834v-316l-176 211h-342v-422h307l104 105v-316l-104 105h-307v-527h360l211 211v-317zM190 1409v207h207v-207h-207zM608 1409v207h205v-207h-205z" />
    <glyph glyph-name="Iacute" unicode="&#xcd;" horiz-adv-x="557" 
d="M479 0h-422l105 104v1057l-105 105h422l-106 -105v-1057zM57 1409l80 158l246 75l117 35l-80 -157l-246 -76z" />
    <glyph glyph-name="Idieresis" unicode="&#xcf;" horiz-adv-x="739" 
d="M580 0h-422l106 104v1057l-106 105h422l-105 -105v-1055zM57 1409v207h207v-207h-207zM475 1409v207h207v-207h-207z" />
    <glyph glyph-name="Ntilde" unicode="&#xd1;" horiz-adv-x="1370" 
d="M1161 1159v-1177h-233l-606 1048v-924l106 -106h-326l107 106v1053l-107 107h318l629 -1088v983l-107 105h326zM449 1411v92l180 84h2q0 4 4 0l176 -80l184 84v-94l-182 -84h-2h-2l-176 82z" />
    <glyph glyph-name="Oacute" unicode="&#xd3;" horiz-adv-x="1007" 
d="M715 1264q88 0 149.5 -61.5t61.5 -149.5v-842q0 -88 -61.5 -149.5t-149.5 -61.5h-422q-77 0 -144 67t-67 144v842q0 88 61.5 149.5t149.5 61.5h422zM283 1409l77 158l365 110l-80 -157l-246 -76zM293 104h422v1055h-422v-1055z" />
    <glyph glyph-name="Odieresis" unicode="&#xd6;" horiz-adv-x="1007" 
d="M715 1264q88 0 149.5 -61.5t61.5 -147.5v-844q0 -88 -61.5 -149.5t-149.5 -61.5h-422q-77 0 -144 67t-67 144v842q0 88 61.5 149.5t149.5 61.5h422zM193 1409v207h204v-207h-204zM293 104h422v1055h-422v-1055zM608 1409v207h207v-207h-207z" />
    <glyph glyph-name="Uacute" unicode="&#xda;" horiz-adv-x="1169" 
d="M1008 211q0 -88 -61.5 -149.5t-149.5 -61.5h-422q-77 0 -144 67t-67 144v950l-2 -2l-105 107h422l-104 -107v-1055h422v1057l-107 105h422l-104 -105v-950zM365 1409l77 160l365 108l-80 -157l-248 -74z" />
    <glyph glyph-name="Udieresis" unicode="&#xdc;" horiz-adv-x="1169" 
d="M1008 211q0 -88 -61.5 -149.5t-149.5 -61.5h-422q-77 0 -144 67t-67 144v948h-2l-105 107h422l-104 -107v-1055h422v1055l-107 107h422l-104 -107v-948zM272 1409v207h207v-207h-207zM690 1409v207h207v-207h-207z" />
    <glyph glyph-name="aacute" unicode="&#xe1;" horiz-adv-x="817" 
d="M463 0v102l-211 -102q-88 0 -149.5 61.5t-61.5 149.5v106q0 88 61.5 149.5t149.5 61.5h211v211h-211v-176l-189 176v2q0 42 33.5 72.5t75.5 30.5h291q88 0 149.5 -61.5t61.5 -149.5v-529l106 -104h-317zM170 997l78 158l364 111l-80 -158zM252 106l211 105v211h-211v-316
z" />
    <glyph glyph-name="adieresis" unicode="&#xe4;" horiz-adv-x="817" 
d="M463 0v102l-211 -102q-88 0 -149.5 61.5t-61.5 149.5v106q0 88 61.5 149.5t149.5 61.5h211v211h-211v-176l-189 176v2q0 42 33.5 72.5t75.5 30.5h291q88 0 149.5 -61.5t61.5 -149.5v-529l106 -104h-317zM45 1001v207h207v-207h-207zM252 104l211 107v211h-211v-318z
M463 1001v207h207v-207h-207z" />
    <glyph glyph-name="ae" unicode="&#xe6;" horiz-adv-x="1257" 
d="M1155 209q0 -87 -61 -148t-148 -61h-422v102l-211 -102q-88 0 -149.5 61.5t-61.5 149.5v106q0 86 61.5 147.5t149.5 61.5h211v211h-211v-174l-188 174v4q0 41 33 71t75 30h291q53 0 105 -27q52 27 104 27h211q88 0 149.5 -61.5t61.5 -147.5v-107l-211 -104l-209 -107
v-211h209v107l211 104v-106zM313 104l211 107v211h-211v-318zM733 635l2 -2v-213l209 106v211h-211v-102z" />
    <glyph glyph-name="ccedilla" unicode="&#xe7;" horiz-adv-x="837" 
d="M735 209q0 -88 -61.5 -149.5t-149.5 -61.5h-55l-25 -107h78v-102h-182v102l25 107h-52q-88 0 -149.5 61.5t-61.5 149.5v422q0 88 61.5 149.5t149.5 61.5h211q88 0 149.5 -61.5t61.5 -149.5l-211 -107v213h-211v-635h211v107l211 106v-106z" />
    <glyph glyph-name="eacute" unicode="&#xe9;" horiz-adv-x="768" 
d="M705 209q0 -86 -61.5 -147.5t-147.5 -61.5h-213q-77 0 -144 67t-67 144v422q0 88 61.5 149.5t149.5 61.5h211q88 0 149.5 -61.5t61.5 -149.5v-105l-422 -213v-211h211v107l211 106v-108zM168 997l78 158l364 111l-80 -158zM283 422l211 106v211h-211v-317z" />
    <glyph glyph-name="edieresis" unicode="&#xeb;" horiz-adv-x="765" 
d="M705 209q0 -86 -61.5 -147.5t-147.5 -61.5h-213q-77 0 -144 67t-67 144v422q0 88 61.5 149.5t149.5 61.5h211q88 0 149.5 -61.5t61.5 -149.5v-105l-422 -213v-211h211v107l211 106v-108zM76 1001v207h207v-207h-207zM283 422l211 106v211h-211v-317zM494 1001v207h206
v-207h-206z" />
    <glyph glyph-name="iacute" unicode="&#xed;" horiz-adv-x="518" 
d="M471 0h-422l105 106v633l-105 105h316v-738zM39 997l80 158l246 76l116 35l-80 -158l-245 -76z" />
    <glyph glyph-name="idieresis" unicode="&#xef;" horiz-adv-x="829" 
d="M625 0h-422l106 104v635l-106 105h317v-738zM102 1001v207h207v-207h-207zM520 1001v207h207v-207h-207z" />
    <glyph glyph-name="ntilde" unicode="&#xf1;" horiz-adv-x="911" 
d="M565 0v739l-211 -106v-633h-317l104 106v633l-104 105h315v-105l213 105q75 0 143 -67.5t68 -143.5v-527l105 -106h-316zM207 936v94q166 84 168 84h4l164 -82l170 86v-94l-170 -84h-4l-162 82z" />
    <glyph glyph-name="oacute" unicode="&#xf3;" horiz-adv-x="800" 
d="M504 844q88 0 149.5 -61.5t61.5 -149.5v-422q0 -88 -61.5 -149.5t-149.5 -61.5h-211q-77 0 -144 67t-67 144v422q0 88 61.5 149.5t149.5 61.5h211zM178 997l78 158l365 111l-80 -158zM293 104h211v635h-211v-635z" />
    <glyph glyph-name="odieresis" unicode="&#xf6;" horiz-adv-x="798" 
d="M504 844q88 0 149.5 -61.5t61.5 -149.5v-422q0 -88 -61.5 -149.5t-149.5 -61.5h-211q-77 0 -144 67t-67 144v422q0 88 61.5 149.5t149.5 61.5h211zM86 1001v207h207v-207h-207zM293 104h211v635h-211v-635zM504 1001v207h207v-207h-207z" />
    <glyph glyph-name="uacute" unicode="&#xfa;" horiz-adv-x="899" 
d="M555 0v104l-211 -104q-88 0 -149.5 61.5t-61.5 149.5v526l-106 107h317v-740l211 107v633h211v-740l104 -104h-315zM227 997l80 158l246 76l117 35l-78 -158z" />
    <glyph glyph-name="udieresis" unicode="&#xfc;" horiz-adv-x="897" 
d="M555 0v104l-211 -104q-88 0 -149.5 61.5t-61.5 149.5v526l-106 107h317v-740l211 107v633h211v-738l104 -106h-315zM137 1001v207h207v-207h-207zM555 1001v207h207v-207h-207z" />
    <glyph glyph-name="emdash" unicode="&#x2014;" horiz-adv-x="1081" 
d="M102 426h877v-86h-877v86z" />
    <glyph glyph-name="quotedblright" unicode="&#x201d;" horiz-adv-x="731" 
d="M102 846v104l105 54v53h-105v211h211v-318zM418 846v104l106 54v53h-106v211h211v-318z" />
    <glyph glyph-name="trademark" unicode="&#x2122;" horiz-adv-x="1224" 
d="M455 1223h-88v-441l43 -43h-177l46 43v441h-89l-88 -88v133h441v-133zM553 739l43 43v441l-43 45h162l116 -389l115 389h178l-45 -45v-441l45 -43h-176l43 43v445l-131 -445h-88l-129 432v-432l43 -43h-133z" />
    <glyph glyph-name="uniE900" unicode="&#xe900;" horiz-adv-x="1452" 
d="M1167 1065q88 -90 135.5 -203.5t47.5 -238.5q0 -124 -47.5 -237.5t-135.5 -203.5q-185 -182 -442 -182q-124 0 -237 47t-203 135q-88 90 -135.5 203.5t-47.5 237.5q0 125 47.5 238.5t135.5 203.5q90 88 203 135t237 47q257 0 442 -182zM133 623q0 -119 44.5 -227
t127.5 -193q85 -83 193 -127.5t227 -44.5q120 0 228.5 44.5t191.5 127.5q85 85 129.5 193t44.5 227q0 248 -174 419q-83 85 -191.5 130t-228.5 45q-119 0 -227 -45t-193 -130q-83 -83 -127.5 -191t-44.5 -228zM248 627h37q0 -182 128.5 -310.5t309.5 -128.5t309.5 128.5
t128.5 310.5h37q0 -195 -139.5 -334t-335.5 -139t-335.5 139t-139.5 334zM631 973v49l190 72v-41l-41 -15v-82l41 -16v-39zM668 997l75 -28v55z" />
    <glyph glyph-name="uniF001" unicode="&#xf001;" horiz-adv-x="823" 
d="M750 -162l-422 -211l-211 211v62h211v-168l211 106v293h-211q-88 0 -149.5 61.5t-61.5 149.5v393l-105 105h316v-604h211v499l-107 105h318v-1002z" />
    <glyph glyph-name="uniF004" unicode="&#xf004;" horiz-adv-x="800" 
d="M668 735v-897l-422 -211l-211 211v62h211v-166l211 104v160h-211q-87 0 -149 62t-62 149v422q0 87 62 149t149 62l211 -105v105h317zM246 102h211v529l-211 104v-633z" />
    <glyph glyph-name="uniF006" unicode="&#xf006;" horiz-adv-x="1024" 
d="M973 -213h-365l43 43l-252 168h-106q-75 0 -143 67.5t-68 143.5v844q0 88 61.5 149.5t149.5 61.5h422q88 0 149.5 -61.5t61.5 -149.5v-844q0 -88 -61.5 -149.5t-149.5 -61.5h-80l209 -131h129v-80zM293 102h422v1057h-422v-1057z" />
    <glyph glyph-name="uniF007" unicode="&#xf007;" horiz-adv-x="968" 
d="M686 709q88 0 149.5 -61.5t61.5 -149.5v-287q0 -88 -61.5 -149.5t-147.5 -61.5h-405q-88 0 -149.5 62.5t-61.5 150.5v172l211 107v-386h403v455q0 17 -12 29t-29 12h-364q-87 2 -148 62.5t-61 146.5v246q0 86 61.5 147.5t147.5 61.5h346q71 0 127 -43l84 43v-279
l-211 -106v280h-346v-411q0 -17 13 -29t30 -12h362z" />
    <glyph glyph-name="uniF00D" unicode="&#xf00d;" horiz-adv-x="1648" 
d="M1372 0v739l-211 -106v-633h-315l104 106v996l-57 59h-211v-1055l104 -106h-419l104 106v1055h-211l-211 -213v318h1112v-527l211 105q88 0 149.5 -61.5t61.5 -149.5v-527l107 -106h-318z" />
    </font>
</defs>
</svg>
