<?xml version="1.0" standalone="no"?>
<!DOCTYPE svg PUBLIC "-//W3C//DTD SVG 1.1//EN" "http://www.w3.org/Graphics/SVG/1.1/DTD/svg11.dtd" >
<svg xmlns="http://www.w3.org/2000/svg" xmlns:xlink="http://www.w3.org/1999/xlink" version="1.1">
<metadata>
Created by FontForge 20170731 at Wed Dec 13 02:55:42 2023
 By Aleksey,,,
copyright missing
</metadata>
<defs>
<font id="AH-Plank-Italic" horiz-adv-x="942" >
  <font-face 
    font-family="Plank Bold"
    font-weight="700"
    font-style="italic"
    font-stretch="normal"
    units-per-em="2048"
    panose-1="0 0 0 0 0 0 0 0 0 0"
    ascent="1638"
    descent="-410"
    x-height="844"
    cap-height="1266"
    bbox="-350 -377 1892 1677"
    underline-thickness="102"
    underline-position="-358"
    unicode-range="U+000A-FB04"
  />
<missing-glyph horiz-adv-x="1228" 
 />
    <glyph glyph-name="uniFB00" unicode="ff" horiz-adv-x="1189" 
d="M1016 997l14 107l12 104l-223 -104l-33 -258h211l-12 -107h-211l-78 -635l92 -104h-421l118 106l78 633h-211l-78 -635l93 -104h-422l118 106l78 633h-106l14 107h105l32 258l447 211l125 -141l297 141l186 -211l-14 -107h-211zM365 846h210l19 151l14 107l13 104
l-224 -104z" />
    <glyph glyph-name="fi.liga" unicode="fi" horiz-adv-x="944" 
d="M444 0l117 104l78 635l-78 88l-10 -88h-211l-78 -635l92 -104h-422l119 104l78 635h-106l14 107h104l33 258l537 211l184 -211l-12 -107h-211l12 107l14 104l-313 -104l-33 -258h512l-92 -740l94 -106h-422z" />
    <glyph glyph-name="uniFB03" unicode="ffi" horiz-adv-x="1366" 
d="M879 0l116 104l78 635l-78 88l-10 -88h-211l-78 -635l92 -104h-421l118 104l78 635h-211l-78 -635l93 -104h-422l118 104l78 635h-106l14 107h105l32 258l447 211l125 -141l387 141l184 -211l-12 -107h-211l12 107l12 104l-311 -104l-14 -107l-19 -151h512l-92 -740
l94 -106h-421zM365 846h210l33 258l13 104l-224 -104z" />
    <glyph glyph-name="uniFB04" unicode="ffl" horiz-adv-x="1329" 
d="M860 0l117 104l115 934l8 66l12 104l-311 -104l-15 -107l-18 -151h211l-12 -107h-211l-78 -635l92 -104h-422l119 104l78 635h-211l-78 -635l92 -104h-422l119 104l78 635h-107l15 107h104l33 258l446 211l125 -141l387 141l185 -211l-13 -107l-110 -891l94 -106h-422z
M346 846h211l33 258l12 104l-223 -104z" />
    <glyph glyph-name=".notdef" horiz-adv-x="1228" 
 />
    <glyph glyph-name=".null" horiz-adv-x="0" 
 />
    <glyph glyph-name="nonmarkingreturn" horiz-adv-x="682" 
 />
    <glyph glyph-name="uni000A" unicode="&#xa;" horiz-adv-x="409" 
 />
    <glyph glyph-name="controlCR" unicode="&#xd;" horiz-adv-x="409" 
 />
    <glyph glyph-name="space" unicode=" " horiz-adv-x="407" 
 />
    <glyph glyph-name="exclam" unicode="!" horiz-adv-x="489" 
d="M377 842l-88 -527h-166l43 527l14 422h285zM61 0l27 211h211l-27 -211h-211z" />
    <glyph glyph-name="quotedbl" unicode="&#x22;" horiz-adv-x="731" 
d="M168 1159l223 105l-14 -105l-111 -53l-6 -53h105l-27 -211h-209l25 211zM444 842l25 211l14 106l224 105l-13 -105l-112 -53l-7 -53h105l-25 -211h-211z" />
    <glyph glyph-name="numbersign" unicode="#" horiz-adv-x="1243" 
d="M846 459h194l97 -135h-291v-273l-135 -47v320h-279v-273l-135 -47v320h-195l-96 135h291l96 260h-194l-97 133h291v272l135 50v-322h279v272l135 50v-322h195l96 -133h-291zM432 459h279l96 260h-279z" />
    <glyph glyph-name="dollar" unicode="$" 
d="M901 1133l-8 -60l-27 -217l-219 -68l31 238l6 47l12 107l-110 -39l-60 -492h105q90 0 144 -51t44 -137l-39 -303l-219 -78l-110 -41l-19 -143h-104l12 104l-109 -39l-186 211l27 219l219 66l-35 -285l-12 -104l108 36l56 441h-105q-88 0 -142 61.5t-44 149.5l41 334
l329 116l21 162h106l-16 -123l111 39l149 -172zM315 649h105l55 455l-108 -39zM463 141l110 39l45 365h-106z" />
    <glyph glyph-name="percent" unicode="%" horiz-adv-x="1085" 
d="M174 0h-149l893 1264h141zM147 844l52 420h422l-54 -420h-420zM309 987h133l17 133h-133zM469 0l51 422h422l-51 -422h-422zM631 143h133l16 133h-133z" />
    <glyph glyph-name="ampersand" unicode="&#x26;" horiz-adv-x="1290" 
d="M932 274l194 -274h-415l65 57l-65 93l-322 -150h-299l-108 123l36 297l375 170l-213 293l137 254l441 147l184 -211l-29 -231l-219 -66l37 297l12 105l-370 -119l504 -707l36 17l27 215l-135 153h412l-173 -153l-32 -273zM84 346l66 -76l174 -196l331 151l-209 289z" />
    <glyph glyph-name="quotesingle" unicode="'" horiz-adv-x="415" 
d="M352 956l-223 -104l12 104l113 54l6 53h-104l24 211h211l-24 -211z" />
    <glyph glyph-name="parenleft" unicode="(" horiz-adv-x="415" 
d="M158 -16l65 -76l-12 -107h-105l-94 107l27 211l117 944l22 190l119 105h104l-12 -105l-84 -69z" />
    <glyph glyph-name="parenright" unicode=")" horiz-adv-x="415" 
d="M225 -90l-119 -107h-106l14 107l84 76l148 1200l-68 69l15 105h104l92 -105l-22 -190l-117 -944z" />
    <glyph glyph-name="asterisk" unicode="*" horiz-adv-x="665" 
d="M565 813l-51 -86l-127 127v-156l-98 -24v186l-103 -100l-92 33l137 135h-151l-41 88h184l-108 110l47 93l127 -129v147l98 33v-187l100 103l93 -33l-136 -137h150l41 -88h-184z" />
    <glyph glyph-name="plus" unicode="+" horiz-adv-x="663" 
d="M643 545h-231v-203l-136 -35v238h-229v121h229v192l136 45v-237h231v-121z" />
    <glyph glyph-name="comma" unicode="," horiz-adv-x="374" 
d="M180 -109l-223 -104l14 104l111 54l6 53h-104l26 211h209l-24 -211z" />
    <glyph glyph-name="hyphen" unicode="-" horiz-adv-x="559" 
d="M80 455h354l-14 -115h-354z" />
    <glyph glyph-name="period" unicode="." horiz-adv-x="374" 
d="M10 209h209l-24 -211h-211z" />
    <glyph glyph-name="slash" unicode="/" horiz-adv-x="1085" 
d="M174 0h-149l893 1264h141z" />
    <glyph glyph-name="zero" unicode="0" 
d="M698 1198q88 0 142 -61.5t43 -147.5l-97 -782q-10 -88 -79.5 -149.5t-155.5 -61.5h-315q-77 0 -136.5 67.5t-50.5 143.5l96 782q11 86 80.5 147.5t157.5 61.5h315zM250 115h315l119 964h-315l-109 -872z" />
    <glyph glyph-name="one" unicode="1" horiz-adv-x="815" 
d="M4 -4l119 119h106l117 964h-104l-90 119h419l-131 -1083h105l90 -119h-631z" />
    <glyph glyph-name="two" unicode="2" horiz-adv-x="987" 
d="M807 -4h-782l26 225l582 451l45 368l-301 113l-47 -391l-203 67l27 220l235 208l502 -194l-47 -391l-8 -68l-623 -489h518l103 92z" />
    <glyph glyph-name="three" unicode="3" 
d="M637 696q87 0 141 -61t43 -148l-45 -360l-219 -80l-330 -117l-184 211l27 219h209l-27 -219l-12 -104l329 113l56 442h-422l8 67l451 416h-394l-129 -137l33 256h678l-14 -119l-400 -379h201z" />
    <glyph glyph-name="four" unicode="4" horiz-adv-x="1148" 
d="M797 311l-25 -194l90 -121h-422l121 119l25 196h-563l12 105l659 782h316l-119 -104l-82 -678h211l-119 -105h-104zM213 416h385l66 526z" />
    <glyph glyph-name="five" unicode="5" horiz-adv-x="903" 
d="M559 739q88 0 141.5 -61.5t42.5 -149.5l-47 -391l-551 -196l-184 211l29 235h211l-29 -235l-12 -105l327 113l60 473h-527l173 571h679l-129 -184h-415l-86 -281h317z" />
    <glyph glyph-name="six" unicode="6" 
d="M778 147l-219 -79l-330 -117l-184 211l113 917l549 195l184 -209l-4 -41l-219 -68l14 109l12 104l-329 -112l-37 -312l501 -194zM242 57l329 113l45 358l-303 113l-12 -104l-47 -375z" />
    <glyph glyph-name="seven" unicode="7" horiz-adv-x="995" 
d="M934 973l-631 -977h-197l9 67l659 1016h-506l-127 -137l31 256h791z" />
    <glyph glyph-name="eight" unicode="8" 
d="M848 713l-156 -140l133 -51l-47 -375l-186 -67l-31 -10l-2 -2l-330 -117l-184 211l41 344l158 139l-133 53l45 373l551 197l184 -211zM242 57l329 113l41 328l-303 114l-12 -106l-35 -291zM324 721l301 -113l14 105l41 344l14 104l-329 -112z" />
    <glyph glyph-name="nine" unicode="9" 
d="M559 59l-332 -116l-184 211l6 39l217 67l-12 -106l-12 -105l329 113l39 323l-501 195l47 389l551 197l184 -211l-113 -916zM322 702l301 -112l14 106l43 359l12 106l-327 -114z" />
    <glyph glyph-name="colon" unicode=":" horiz-adv-x="415" 
d="M127 838h211l-27 -211h-209zM25 -2l26 211h209l-24 -211h-211z" />
    <glyph glyph-name="semicolon" unicode=";" horiz-adv-x="415" 
d="M127 838h211l-25 -211h-211zM-2 -213l14 104l111 54l6 53h-104l26 211h209l-24 -211l-15 -107z" />
    <glyph glyph-name="less" unicode="&#x3c;" horiz-adv-x="706" 
d="M526 0h-178l-280 352l16 131l373 361h174l-400 -400l-6 -49z" />
    <glyph glyph-name="equal" unicode="=" horiz-adv-x="731" 
d="M123 799h526l-14 -115h-526zM74 406l14 116h528l-14 -116h-528z" />
    <glyph glyph-name="greater" unicode="&#x3e;" horiz-adv-x="706" 
d="M129 844h172l285 -361l-17 -131l-366 -352h-178l397 395l6 49z" />
    <glyph glyph-name="question" unicode="?" horiz-adv-x="825" 
d="M727 670l-326 -355h-172l13 107l282 315l41 330l-229 92l-12 -106l-35 -285l-203 68l27 217l237 211l228 -95l200 -79l-43 -353zM172 0l27 211h211l-27 -211h-211z" />
    <glyph glyph-name="at" unicode="@" horiz-adv-x="1409" 
d="M1337 -137l-106 -90h-1053l-106 104v1084l104 104h1055l104 -104v-859l-104 -104h-481l8 104l-217 -104q-88 0 -145.5 61.5t-51.5 149.5l8 106q6 86 72 147.5t154 61.5h208l17 211h-211l-12 -174l-177 174v2q3 42 38.5 72.5t78.5 30.5h289q88 0 145.5 -61.5t51.5 -147.5
l-37 -529l75 -79l156 157v705l-61 61h-871l-61 -61v-932l61 -59h893l70 59h106v-90zM547 102l219 107l14 211h-211l-14 -211z" />
    <glyph glyph-name="A" unicode="A" horiz-adv-x="1157" 
d="M741 0l-63 422h-326l-125 -316l92 -106h-346l119 104l459 1162h211l174 -1162l92 -104h-287zM387 510h279l-78 508z" />
    <glyph glyph-name="B" unicode="B" horiz-adv-x="1007" 
d="M766 739q79 0 128 -56t40 -136l-41 -336q-9 -76 -85 -143.5t-153 -67.5l-346 104l-12 -104h-317l118 106l129 1055l-92 105h590q79 0 129 -56.5t39 -134.5l-14 -125q-9 -76 -85 -143.5t-153 -67.5l51 422h-254l-51 -422h379zM322 211l348 -105l63 527h-358z" />
    <glyph glyph-name="C" unicode="C" horiz-adv-x="876" 
d="M786 211q-10 -88 -79.5 -149.5t-155.5 -61.5h-315q-88 0 -142 61.5t-43 149.5l113 915l219 80l330 117l123 -139l73 35l-37 -308l-6 -45l-225 -127l45 373l14 105l-329 -113l-111 -893l-12 -107h315l12 107l27 209l223 106l-14 -106z" />
    <glyph glyph-name="D" unicode="D" horiz-adv-x="983" 
d="M788 1266q78 0 127 -56.5t39 -134.5l-104 -864q-9 -76 -85 -143.5t-153 -67.5h-632l118 106l129 1055l-92 105h653zM309 106h316l131 1055h-318z" />
    <glyph glyph-name="E" unicode="E" horiz-adv-x="974" 
d="M866 0h-886l118 104l129 1057l-92 105h834l-39 -316l-150 211h-342l-51 -422h307l119 105l-39 -316l-94 105h-307l-64 -527l361 -2l235 211z" />
    <glyph glyph-name="F" unicode="F" horiz-adv-x="931" 
d="M717 844l-39 -316l-92 105h-211l-66 -529l92 -104h-421l118 104l129 1057l-92 105h844l-39 -316l-184 211h-318l-51 -422h211z" />
    <glyph glyph-name="G" unicode="G" horiz-adv-x="978" 
d="M848 0h-633q-88 0 -141.5 61.5t-42.5 149.5l102 844q10 88 80 149.5t158 61.5h315q88 0 142 -61.5t44 -149.5l-14 -105l-235 -211l51 420h-316l-116 -948q-6 -44 21.5 -74.5t70.5 -30.5l211 -2l39 318h-107l-92 106h528l-118 -106l-39 -318z" />
    <glyph glyph-name="H" unicode="H" horiz-adv-x="1169" 
d="M612 0l119 104l64 529h-422l-76 -633h-317l118 104l129 1057l-92 105h422l-119 -105l-53 -440h422l65 545h318l-119 -105l-129 -1057l92 -104h-422z" />
    <glyph glyph-name="I" unicode="I" horiz-adv-x="536" 
d="M-20 0l118 104l129 1057l-92 105h422l-119 -105l-129 -1055l92 -106h-421z" />
    <glyph glyph-name="J" unicode="J" horiz-adv-x="811" 
d="M723 1163l-131 -1071l-430 -209l-178 203l18 152h203l-19 -152l-12 -102l215 102v6l133 1071l-90 101h406z" />
    <glyph glyph-name="K" unicode="K" horiz-adv-x="1263" 
d="M719 0l65 57l-333 465l-105 -108l-37 -308l92 -106h-421l118 104l129 1057l-92 105h422l-119 -105l-73 -610l362 377l41 338h391l-532 -557l508 -709h-416z" />
    <glyph glyph-name="L" unicode="L" horiz-adv-x="954" 
d="M823 0h-843l118 104l129 1057l-92 105h422l-119 -105l-129 -1055h318l235 211z" />
    <glyph glyph-name="M" unicode="M" horiz-adv-x="1484" 
d="M1350 0h-422l116 106l132 1063l-447 -1063h-211l-182 1035l-127 -1035l92 -106h-324l119 106l129 1055l-92 105h393l162 -934l393 934h422l-117 -105l-131 -1055z" />
    <glyph glyph-name="N" unicode="N" horiz-adv-x="1273" 
d="M1180 1159l-146 -1177h-233l-477 1048l-115 -924l94 -106h-326l119 106l129 1053l-92 107h318l493 -1088l121 981l-92 107h325z" />
    <glyph glyph-name="O" unicode="O" horiz-adv-x="1007" 
d="M793 1264q86 0 140 -61.5t44 -149.5l-105 -842q-11 -88 -79 -149.5t-156 -61.5h-422q-76 0 -134.5 67t-49.5 144l102 842q10 88 80 149.5t158 61.5h422zM227 104h422l129 1055h-422q-123 -1012 -129 -1055z" />
    <glyph glyph-name="P" unicode="P" horiz-adv-x="983" 
d="M788 1266q78 0 127.5 -56.5t40.5 -134.5l-55 -442q-10 -88 -79.5 -149.5t-157.5 -61.5h-316l-39 -316l92 -106h-421l118 106l129 1055l-92 105h653zM360 528h318l78 633h-318z" />
    <glyph glyph-name="Q" unicode="Q" horiz-adv-x="1083" 
d="M705 -319l-398 210l15 105h-107q-76 0 -135.5 68t-48.5 143l102 846q10 88 80 149.5t158 61.5h422q88 0 142 -61.5t44 -149.5l-105 -846q-11 -87 -80.5 -149t-156.5 -62h-105l-14 -105l199 -104l12 104h211zM227 102h424l117 951l12 104h-422z" />
    <glyph glyph-name="R" unicode="R" horiz-adv-x="1058" 
d="M688 68l-172 460h-156l-51 -422l92 -106h-421l118 106l129 1055l-92 105h653q78 0 127.5 -56.5t40.5 -134.5l-28 -231q-10 -88 -80 -149.5t-158 -61.5l66 528h-318l-63 -528h315l240 -633h-318z" />
    <glyph glyph-name="S" unicode="S" horiz-adv-x="970" 
d="M879 211q-10 -88 -80 -149.5t-158 -61.5h-405q-88 0 -142 61.5t-43 149.5l21 174l225 104l-14 -104l-35 -281h405l52 418q3 19 -7.5 31t-29.5 12h-318q-89 0 -143.5 55.5t-44.5 141.5l45 360l551 197l123 -141l75 36l-36 -299l-5 -47l-219 -65l37 305l12 104l-329 -112
l-54 -430h361q88 0 142 -61.5t44 -149.5z" />
    <glyph glyph-name="T" unicode="T" horiz-adv-x="1157" 
d="M1145 950l-187 211h-208l-132 -1055l95 -106h-422l117 106l131 1055h-211l-238 -213l39 318h1055l-2 -11l2 2z" />
    <glyph glyph-name="U" unicode="U" horiz-adv-x="1169" 
d="M954 211q-11 -88 -79 -149.5t-156 -61.5h-422q-76 0 -135.5 67t-50.5 144l116 950l-92 105h422l-119 -107q-125 -1012 -129 -1055h422l129 1057l-92 105h422l-119 -105z" />
    <glyph glyph-name="V" unicode="V" horiz-adv-x="1157" 
d="M1065 1161l-459 -1161h-211l-174 1161l-92 105h287l153 -1018l369 936l-70 82h316z" />
    <glyph glyph-name="W" unicode="W" horiz-adv-x="1865" 
d="M1774 1161l-459 -1161h-211l-137 911l-361 -911h-211l-174 1161l-92 105h287l153 -1018l361 911v2l-92 105h286l154 -1018l360 913l-92 105h346z" />
    <glyph glyph-name="X" unicode="X" horiz-adv-x="1323" 
d="M913 0l-295 508l-323 -350l65 -158h-387l179 158l411 444l-295 506l-139 158h281l297 -508l360 391l-102 117h385l-179 -158l-409 -444l295 -506l137 -158h-281z" />
    <glyph glyph-name="Y" unicode="Y" horiz-adv-x="1157" 
d="M618 104l95 -104h-424l119 104l53 422l-223 645l-109 95h422l-109 -74l183 -528l313 530l-64 72h310l-133 -95l-379 -645z" />
    <glyph glyph-name="Z" unicode="Z" horiz-adv-x="1214" 
d="M-20 0l880 1167h-481l-14 -112l-238 -211l41 323l10 99h1012l-875 -1160h566l12 105l237 211l-51 -422h-1099z" />
    <glyph glyph-name="asciicircum" unicode="^" horiz-adv-x="911" 
d="M836 844l-299 293h-41l-367 -293l21 170l327 270h111l268 -274z" />
    <glyph glyph-name="underscore" unicode="_" horiz-adv-x="1120" 
d="M35 88h917l-12 -90h-915z" />
    <glyph glyph-name="grave" unicode="`" horiz-adv-x="647" 
d="M428 1032l-246 76l-80 158l117 -35l246 -76l80 -158z" />
    <glyph glyph-name="a" unicode="a" horiz-adv-x="817" 
d="M385 0l12 102l-223 -102q-88 0 -141.5 61.5t-42.5 149.5l12 106q10 88 80 149.5t158 61.5h211l24 211h-211l-20 -176l-168 176v2q6 42 43 72.5t80 30.5h290q88 0 142 -61.5t43 -149.5l-66 -529l94 -104h-317zM186 106l226 105l24 211h-211z" />
    <glyph glyph-name="b" unicode="b" horiz-adv-x="845" 
d="M588 844q88 0 142 -61.5t44 -149.5l-53 -422q-9 -76 -85 -143.5t-151 -67.5l-198 104l-13 -104h-317l119 106l129 1055l-92 105h315l-51 -422h211zM299 211l199 -105l8 60q0 13 4 45l65 528h-210z" />
    <glyph glyph-name="c" unicode="c" horiz-adv-x="765" 
d="M653 211q-10 -88 -79.5 -149.5t-157.5 -61.5h-211q-88 0 -142 61.5t-43 149.5l52 422q10 88 79.5 149.5t157.5 61.5h211q88 0 142 -61.5t43 -149.5l-224 -107l25 213h-211l-64 -528l-14 -107h213l12 107l224 106z" />
    <glyph glyph-name="d" unicode="d" horiz-adv-x="845" 
d="M416 0l12 104l-223 -104q-76 0 -135 67t-50 144l52 422q10 88 79.5 149.5t157.5 61.5h211l39 317l-92 105h315l-143 -1162l94 -104h-317zM217 106l225 105l64 528h-211l-64 -528q-5 -40 -6 -45z" />
    <glyph glyph-name="e" unicode="e" horiz-adv-x="765" 
d="M653 209q-11 -87 -79.5 -148t-155.5 -61h-213q-76 0 -135 67t-50 144l52 422q10 88 79.5 149.5t157.5 61.5h211q88 0 142 -61.5t43 -149.5l-13 -105l-448 -213l-13 -104q-2 -24 -14 -107h211l14 107l224 106zM256 422l225 106l25 211h-211z" />
    <glyph glyph-name="f" unicode="f" horiz-adv-x="718" 
d="M625 1104l12 104l-223 -104l-33 -258h211l-12 -107h-211l-78 -635l92 -104h-422l119 106l78 633h-107l15 107h104l33 258l446 211l187 -211l-15 -107h-211z" />
    <glyph glyph-name="g" unicode="g" horiz-adv-x="815" 
d="M555 104q63 0 102.5 -44t32.5 -107l-14 -117q-7 -63 -58 -108t-114 -45h-375q-75 0 -134 68t-50 143l223 106l-12 -106l-15 -105h318l26 211h-376q-48 0 -80.5 31t-32.5 78q0 45 29.5 83t72.5 52q-44 30 -70 79t-20 99l27 211q10 88 79.5 149.5t157.5 61.5h543l-119 -105
h-43q21 -49 15 -106l-25 -211q-10 -88 -79.5 -149.5t-157.5 -61.5h-211q-32 0 -62 12l-14 -119h436zM207 317h211l51 422h-211l-33 -278q-7 -66 -18 -144z" />
    <glyph glyph-name="h" unicode="h" horiz-adv-x="909" 
d="M489 0l91 739l-226 -106l-75 -633h-318l119 106l129 1055l-92 105h315l-63 -527l223 105q88 0 142 -61.5t44 -149.5l-65 -527l92 -106h-316z" />
    <glyph glyph-name="i" unicode="i" horiz-adv-x="495" 
d="M215 1208h211l-27 -211h-211zM-39 0l119 106l78 633l-92 105h315l-90 -738l92 -106h-422z" />
    <glyph glyph-name="j" unicode="j" horiz-adv-x="473" 
d="M240 1204h213l-27 -211h-211zM-350 -162h211l-13 -104l224 104l110 897l-92 107h316l-123 -1004l-447 -211z" />
    <glyph glyph-name="k" unicode="k" horiz-adv-x="954" 
d="M563 0l66 59l-174 383l-140 -127l-36 -315h-318l119 104l129 1057l-92 105h315l-104 -852l274 252l23 178h262l-299 -279l268 -565h-293z" />
    <glyph glyph-name="l" unicode="l" horiz-adv-x="487" 
d="M68 0l141 1161l-92 105h315l-141 -1160l92 -106h-315z" />
    <glyph glyph-name="m" unicode="m" horiz-adv-x="1329" 
d="M985 633q7 71 12 106l-223 -106l-65 -527l92 -106h-316l78 633q7 71 12 106l-223 -106l-78 -633h-317l119 106l78 633l-93 105h316l-12 -105l223 105q52 0 99 -34t71 -85l252 119q76 0 135.5 -67t50.5 -144l-66 -527l93 -106h-316z" />
    <glyph glyph-name="n" unicode="n" horiz-adv-x="909" 
d="M563 633q7 71 12 106l-225 -106l-76 -633h-317l119 106l78 633l-93 105h316l-12 -105l223 105q76 0 135.5 -67t50.5 -144l-65 -527l92 -106h-316z" />
    <glyph glyph-name="o" unicode="o" horiz-adv-x="798" 
d="M530 844q88 0 142 -61.5t43 -149.5l-51 -422q-10 -88 -80 -149.5t-158 -61.5h-211q-75 0 -134 67.5t-50 143.5l51 422q10 88 79.5 149.5t157.5 61.5h211zM227 104h213l76 635h-211z" />
    <glyph glyph-name="p" unicode="p" horiz-adv-x="837" 
d="M713 211q-11 -88 -79.5 -149.5t-156.5 -61.5h-211l-35 -272l93 -105h-422l118 105l125 1011l-92 105h316l-13 -105l224 105q76 0 135.5 -67t50.5 -144zM279 104h210l78 635l-223 -106z" />
    <glyph glyph-name="q" unicode="q" horiz-adv-x="845" 
d="M264 -377l119 105l33 272h-211q-88 0 -142 61.5t-43 149.5l52 422q9 76 84.5 143.5t152.5 67.5l197 -105l14 105h316l-119 -105l-123 -1011l92 -105h-422zM217 104h211l66 529l-199 106z" />
    <glyph glyph-name="r" unicode="r" horiz-adv-x="837" 
d="M588 844q88 0 141.5 -61.5t42.5 -149.5l-12 -107l-199 107l14 104l-225 -104l-63 -529l92 -104h-422l119 104l78 633l-93 107h316l-12 -107z" />
    <glyph glyph-name="s" unicode="s" horiz-adv-x="724" 
d="M471 633l12 106h-211l-18 -153v-11l-12 -96h211q87 0 141 -61t43 -148l-6 -59q-10 -88 -80 -149.5t-158 -61.5h-211q-88 0 -141.5 61.5t-42.5 149.5l223 106l-24 -213h211l18 164l14 107h-211q-82 0 -139 61.5t-47 149.5l6 47q10 88 80 149.5t158 61.5h211
q88 0 141.5 -61.5t42.5 -149.5l-223 -105z" />
    <glyph glyph-name="t" unicode="t" horiz-adv-x="620" 
d="M518 106l-119 -106h-127l-196 106l78 633h-107l14 105h105l27 211l223 106l-39 -317h211l-13 -105h-210l-78 -633h127l12 105l119 106z" />
    <glyph glyph-name="u" unicode="u" horiz-adv-x="897" 
d="M477 0l12 104l-223 -104q-88 0 -142 61.5t-44 149.5l65 526l-92 107h316l-78 -633l-12 -107l223 107l78 633h211l-91 -738l93 -106h-316z" />
    <glyph glyph-name="v" unicode="v" horiz-adv-x="989" 
d="M877 739l-340 -739h-213l-185 739l-92 105h277l163 -654l252 549l-92 105h346z" />
    <glyph glyph-name="w" unicode="w" horiz-adv-x="1540" 
d="M1448 739l-340 -739h-213l-133 535l-248 -535h-211l-184 739l-92 105h276l164 -654l248 537l-8 27l-80 90h346l-64 -58l150 -596l254 549l-94 105h348z" />
    <glyph glyph-name="x" unicode="x" horiz-adv-x="911" 
d="M569 0l-180 309l-217 -231l68 -78h-297l118 106l277 293l-199 340l-92 105h242l178 -305l215 227l-70 78h297l-118 -105l-273 -290l201 -345l92 -104h-242z" />
    <glyph glyph-name="y" unicode="y" horiz-adv-x="989" 
d="M532 0l-170 -369h-204l116 105l123 264h-73l-185 739l-92 105h277l163 -651l252 546l-92 105h346l-116 -105z" />
    <glyph glyph-name="z" unicode="z" horiz-adv-x="704" 
d="M590 0h-633l473 762h-168l-10 -76l-223 -106l32 264h633l-475 -760h170l10 76l224 104z" />
    <glyph glyph-name="braceleft" unicode="{" horiz-adv-x="555" 
d="M303 31l68 -76l-15 -105h-104l-92 105l24 211l45 356l-127 115l154 98l45 375l23 193l118 104h107l-14 -104l-84 -70z" />
    <glyph glyph-name="braceright" unicode="}" horiz-adv-x="555" 
d="M197 1407h106l92 -104l-24 -193l-45 -375l127 -98l-154 -115l-43 -356l-27 -211l-116 -105h-107l12 105l86 76l148 1202l-68 67z" />
    <glyph glyph-name="uni00A0" unicode="&#xa0;" horiz-adv-x="899" 
 />
    <glyph glyph-name="exclamdown" unicode="&#xa1;" horiz-adv-x="489" 
d="M217 1264h211l-27 -211h-211zM25 0l88 422l88 526h166l-43 -526l-15 -422h-284z" />
    <glyph glyph-name="dieresis" unicode="&#xa8;" horiz-adv-x="829" 
d="M172 1208h207l-25 -207h-207zM565 1001l25 207h207l-25 -207h-207z" />
    <glyph glyph-name="copyright" unicode="&#xa9;" horiz-adv-x="1523" 
d="M762 1319q178 0 330 -89t240.5 -241t88.5 -330q0 -134 -52.5 -256.5t-141 -210.5t-210.5 -140t-255 -52q-134 0 -256.5 52t-211 140t-140.5 210.5t-52 256.5q0 133 52 255t140.5 211t211 141.5t256.5 52.5zM152 659q0 -166 81.5 -306.5t222 -222t306.5 -81.5
q165 0 305.5 81.5t222.5 222t82 306.5q0 165 -82 306t-222.5 223t-305.5 82q-166 0 -306.5 -82t-222 -223t-81.5 -306zM444 449v421q0 88 61.5 149.5t149.5 61.5h211q88 0 149.5 -61.5t61.5 -149.5l-211 -106v211h-211v-633h213v107l209 104v-104q0 -88 -61.5 -149.5
t-147.5 -61.5h-213q-88 0 -149.5 61.5t-61.5 149.5z" />
    <glyph glyph-name="registered" unicode="&#xae;" horiz-adv-x="815" 
d="M408 1264q126 0 215.5 -90t89.5 -216t-89.5 -215.5t-215.5 -89.5t-216 89.5t-90 215.5t90 216t216 90zM121 958q0 -118 84 -202t203 -84q120 0 203 83.5t83 202.5q0 120 -83 203.5t-203 83.5q-119 0 -203 -83.5t-84 -203.5zM268 774l31 31v309l-31 31h193q23 0 39 -16.5
t16 -41.5v-67q0 -25 -18 -43.5t-43 -18.5v156h-95v-156h95l92 -184h-92l18 19l-65 135h-46v-123l31 -31h-125z" />
    <glyph glyph-name="acute" unicode="&#xb4;" horiz-adv-x="647" 
d="M219 1028l-117 -35l80 158l246 76l117 35l-80 -158z" />
    <glyph glyph-name="questiondown" unicode="&#xbf;" horiz-adv-x="866" 
d="M442 1264h211l-26 -211h-211zM47 174l43 352l8 68l326 354h172l-12 -106l-283 -316l-41 -329l229 -93l13 107l35 285l202 -66l-26 -219l-238 -211l-227 94z" />
    <glyph glyph-name="Aacute" unicode="&#xc1;" horiz-adv-x="1146" 
d="M561 1569l377 108l-100 -157l-256 -74v-2l-121 -35zM-37 0l119 104l459 1162h211l174 -1162l92 -104h-287l-63 422h-326l-125 -316l92 -106h-346zM377 510h278l-77 508z" />
    <glyph glyph-name="Adieresis" unicode="&#xc4;" horiz-adv-x="1146" 
d="M377 1616h207l-25 -207h-207zM-37 0l119 104l459 1162h211l174 -1162l92 -104h-287l-63 422h-326l-125 -318l92 -104h-346zM377 510h278l-77 508zM770 1409l25 207h206l-26 -207h-205z" />
    <glyph glyph-name="Ccedilla" unicode="&#xc7;" horiz-adv-x="940" 
d="M813 422h-2l-25 -209q-10 -88 -79.5 -149.5t-155.5 -61.5h-109l-39 -111h78l-12 -102h-184l12 102l39 111h-100q-88 0 -142 61.5t-43 149.5l113 915l219 80l330 117l123 -139l73 35l-43 -355l-225 -125l45 373l14 105l-329 -113l-111 -893l-12 -107h315l12 107l27 209
l223 104z" />
    <glyph glyph-name="Eacute" unicode="&#xc9;" horiz-adv-x="974" 
d="M473 1567l377 110l-98 -157l-377 -111zM-20 0l118 106l129 1055l-92 105h834l-39 -316l-150 211h-342l-51 -422h307l119 105l-39 -316l-94 105h-307l-64 -527h361v-2l235 211l-39 -315h-886z" />
    <glyph glyph-name="Edieresis" unicode="&#xcb;" horiz-adv-x="976" 
d="M311 1616h205l-24 -207h-207zM-18 0l116 106l131 1055l-94 105h836l-39 -316l-150 211h-342l-53 -422h307l119 105l-39 -316l-92 105h-307l-66 -527h361l237 211l-39 -317h-886zM702 1409l27 207h205l-25 -207h-207z" />
    <glyph glyph-name="Iacute" unicode="&#xcd;" horiz-adv-x="557" 
d="M252 1567l377 110l-99 -157l-256 -76h-2l-118 -35zM-20 0l118 104l129 1057l-92 105h422l-119 -105l-129 -1057l92 -104h-421z" />
    <glyph glyph-name="Idieresis" unicode="&#xcf;" horiz-adv-x="739" 
d="M178 1616h207l-27 -207h-204zM80 0l119 104l129 1057l-92 105h421l-118 -105l-129 -1055l92 -106h-422zM569 1409l27 207h207l-27 -207h-207z" />
    <glyph glyph-name="Ntilde" unicode="&#xd1;" horiz-adv-x="1370" 
d="M545 1411l10 92l193 84q4 4 4 0l166 -80l194 84l-10 -94l-195 -84h-2l-166 82zM25 0l118 106l129 1053l-92 107h318l493 -1088l121 983l-92 105h326l-119 -107l-146 -1177h-233l-477 1048l-115 -924l94 -106h-325z" />
    <glyph glyph-name="Oacute" unicode="&#xd3;" horiz-adv-x="1007" 
d="M475 1567l379 110l-100 -157l-377 -111zM31 211l102 842q10 88 80 149.5t158 61.5h422q86 0 140 -61.5t44 -149.5l-105 -842q-11 -88 -79 -149.5t-156 -61.5h-422q-76 0 -134.5 67t-49.5 144zM227 104h422l117 949l12 106h-422l-114 -948q0 -1 -15 -107z" />
    <glyph glyph-name="Odieresis" unicode="&#xd6;" horiz-adv-x="1007" 
d="M311 1616h207l-24 -207h-207zM31 211l102 842q10 88 80 149.5t158 61.5h422q86 0 140 -61.5t44 -147.5l-105 -844q-11 -88 -79 -149.5t-156 -61.5h-422q-76 0 -134.5 67t-49.5 144zM227 104h422l117 951l12 104h-422l-114 -948q0 -1 -15 -107zM705 1409l24 207h207
l-25 -207h-206z" />
    <glyph glyph-name="Uacute" unicode="&#xda;" horiz-adv-x="1169" 
d="M580 1446l-121 -37l98 160l377 108l-98 -157zM111 211l116 948l-92 107h422l-119 -107l-116 -948q-1 -6 -6 -44t-7 -63h422l129 1057l-92 105h422l-119 -105l-117 -950q-11 -88 -79 -149.5t-156 -61.5h-422q-76 0 -135.5 67t-50.5 144z" />
    <glyph glyph-name="Udieresis" unicode="&#xdc;" horiz-adv-x="1169" 
d="M575 1409h-206l24 207h207zM111 211l116 948l-92 107h422l-119 -107l-116 -948q-1 -6 -6 -44t-7 -63h422l129 1055l-92 107h422l-119 -107l-117 -948q-11 -88 -79 -149.5t-156 -61.5h-422q-76 0 -135.5 67t-50.5 144zM786 1409l25 207h207l-27 -207h-205z" />
    <glyph glyph-name="aacute" unicode="&#xe1;" horiz-adv-x="817" 
d="M313 1155l377 111l-100 -158l-377 -111zM-10 211l12 106q10 88 80 149.5t158 61.5h211l24 211h-211l-20 -176l-168 176v2q6 42 43 72.5t80 30.5h290q88 0 142 -61.5t43 -149.5l-66 -529l94 -104h-317l12 102l-223 -102q-88 0 -141.5 61.5t-42.5 149.5zM186 106l226 105
l24 211h-211z" />
    <glyph glyph-name="adieresis" unicode="&#xe4;" horiz-adv-x="817" 
d="M117 1208h205l-25 -207h-207zM-10 211l12 106q10 88 80 149.5t158 61.5h211l24 211h-211l-20 -176l-168 176v2q6 42 43 72.5t80 30.5h290q88 0 142 -61.5t43 -149.5l-66 -529l94 -104h-317l12 102l-223 -102q-88 0 -141.5 61.5t-42.5 149.5zM186 104l226 107l24 211h-211
zM508 1001l27 207h204l-24 -207h-207z" />
    <glyph glyph-name="ae" unicode="&#xe6;" horiz-adv-x="1257" 
d="M1104 209q-11 -86 -79.5 -147.5t-156.5 -61.5h-422l13 102l-223 -102q-88 0 -142 61.5t-43 149.5l12 106q10 86 80 147.5t156 61.5h211l14 107v4l13 100h-211l-21 -174l-168 174v4q6 41 43 71t80 30h289q53 0 102 -27q56 27 109 27h211q87 0 141 -61t43 -148v-2l-12 -105
l-449 -211l-24 -211h211l12 107l223 104zM248 104l223 107l27 211h-211zM709 420l223 106l26 211h-210l-13 -102q0 -2 -2 -2z" />
    <glyph glyph-name="ccedilla" unicode="&#xe7;" horiz-adv-x="837" 
d="M684 209q-10 -88 -80 -149.5t-158 -61.5h-55l-37 -107h78l-12 -102h-184l12 102l39 107h-51q-88 0 -142 61.5t-43 149.5l51 422q10 88 80 149.5t158 61.5h211q86 0 140 -61.5t44 -149.5l-223 -107l25 213h-211l-64 -528l-14 -107h211l14 107l223 106z" />
    <glyph glyph-name="eacute" unicode="&#xe9;" horiz-adv-x="768" 
d="M311 1155l377 111l-100 -158l-377 -111zM20 211l52 422q10 88 79.5 149.5t157.5 61.5h211q88 0 142 -61.5t43 -149.5l-13 -105l-448 -213l-13 -104q-2 -24 -14 -107h211l14 107l224 106l-13 -108q-11 -87 -79.5 -148t-155.5 -61h-213q-76 0 -135 67t-50 144zM256 422
l225 106l25 211h-211z" />
    <glyph glyph-name="edieresis" unicode="&#xeb;" horiz-adv-x="765" 
d="M147 1208h207l-26 -207h-207zM20 211l52 422q10 88 79.5 149.5t157.5 61.5h211q88 0 142 -61.5t43 -149.5l-13 -105l-448 -213l-13 -104q-2 -24 -14 -107h211l14 107l224 106l-13 -108q-11 -87 -79.5 -148t-155.5 -61h-213q-75 0 -134.5 67.5t-50.5 143.5zM256 422
l225 106l25 211h-211zM539 1001l26 207h205l-25 -207h-206z" />
    <glyph glyph-name="iacute" unicode="&#xed;" horiz-adv-x="518" 
d="M182 1155l377 111l-98 -158l-377 -111zM-29 0l119 106l78 633l-92 105h315l-90 -738l92 -106h-422z" />
    <glyph glyph-name="idieresis" unicode="&#xef;" horiz-adv-x="829" 
d="M172 1208h207l-25 -207h-207zM125 0l119 104l78 635l-93 105h316l-90 -738l92 -106h-422zM565 1001l25 207h207l-25 -207h-207z" />
    <glyph glyph-name="ntilde" unicode="&#xf1;" horiz-adv-x="911" 
d="M244 936l10 94l178 84h6l154 -82l180 86l-12 -94l-180 -84h-2l-154 82zM-41 0l119 106l78 633l-93 105h316l-12 -105l223 105q76 0 135.5 -67t50.5 -144l-65 -527l92 -106h-316l78 633q5 45 13 106l-224 -106l-78 -633h-317z" />
    <glyph glyph-name="oacute" unicode="&#xf3;" horiz-adv-x="800" 
d="M322 1155l376 111l-100 -158l-377 -111zM31 211l51 422q10 88 79.5 149.5t157.5 61.5h211q88 0 142 -61.5t43 -149.5l-51 -422q-10 -88 -80 -149.5t-158 -61.5h-211q-75 0 -134 67.5t-50 143.5zM227 104h213l78 635h-213z" />
    <glyph glyph-name="odieresis" unicode="&#xf6;" horiz-adv-x="798" 
d="M158 1208h207l-27 -207h-207zM31 211l51 422q10 88 79.5 149.5t157.5 61.5h211q88 0 142 -61.5t43 -149.5l-51 -422q-10 -88 -80 -149.5t-158 -61.5h-211q-75 0 -134 67.5t-50 143.5zM227 104h213l78 635h-213zM549 1001l26 207h205l-24 -207h-207z" />
    <glyph glyph-name="uacute" unicode="&#xfa;" horiz-adv-x="899" 
d="M371 1155l377 111l-99 -158l-377 -111zM53 844h316l-78 -633l-12 -107l223 107l78 633h211l-91 -740l93 -104h-316l12 104l-223 -104q-88 0 -142 61.5t-44 149.5l65 526z" />
    <glyph glyph-name="udieresis" unicode="&#xfc;" horiz-adv-x="897" 
d="M207 1208h207l-25 -207h-207zM53 844h316l-78 -633l-12 -107l223 107l78 633h211l-91 -738l93 -106h-316l12 104l-223 -104q-88 0 -142 61.5t-44 149.5l65 526zM600 1001l25 207h206l-24 -207h-207z" />
    <glyph glyph-name="emdash" unicode="&#x2014;" horiz-adv-x="1081" 
d="M78 426h876l-10 -86h-878z" />
    <glyph glyph-name="quotedblright" unicode="&#x201d;" horiz-adv-x="731" 
d="M180 1268h211l-26 -211l-13 -107l-223 -104l12 104l113 54l6 53h-106zM444 846l13 104l112 54l6 53h-104l25 211h211l-25 -211l-14 -107z" />
    <glyph glyph-name="trademark" unicode="&#x2122;" horiz-adv-x="1224" 
d="M455 1223h-88v-441l43 -43h-177l46 43v441h-89l-88 -88v133h441v-133zM553 739l43 43v441l-43 45h162l116 -389l115 389h178l-45 -45v-441l45 -43h-176l43 43v445l-131 -445h-88l-129 432v-432l43 -43h-133z" />
    <glyph glyph-name="uniE900" unicode="&#xe900;" horiz-adv-x="1452" 
d="M1167 1065q88 -90 135.5 -203.5t47.5 -238.5q0 -124 -47.5 -237.5t-135.5 -203.5q-185 -182 -442 -182q-124 0 -237 47t-203 135q-88 90 -135.5 203.5t-47.5 237.5q0 125 47.5 238.5t135.5 203.5q90 88 203 135t237 47q257 0 442 -182zM133 623q0 -119 44.5 -227
t127.5 -193q85 -83 193 -127.5t227 -44.5q120 0 228.5 44.5t191.5 127.5q85 85 129.5 193t44.5 227q0 248 -174 419q-83 85 -191.5 130t-228.5 45q-119 0 -227 -45t-193 -130q-83 -83 -127.5 -191t-44.5 -228zM248 627h37q0 -182 128.5 -310.5t309.5 -128.5t309.5 128.5
t128.5 310.5h37q0 -195 -139.5 -334t-335.5 -139t-335.5 139t-139.5 334zM631 973v49l190 72v-41l-41 -15v-82l41 -16v-39zM668 997l75 -28v55z" />
    <glyph glyph-name="uniF001" unicode="&#xf001;" horiz-adv-x="823" 
d="M651 -162l-446 -211l-187 211l9 62h211l-9 -62l-12 -106l223 106l35 293h-209q-88 0 -141.5 61.5t-42.5 149.5l47 393l-92 105h317l-75 -604h210l62 499l-92 105h315z" />
    <glyph glyph-name="uniF004" unicode="&#xf004;" horiz-adv-x="800" 
d="M680 735l-111 -897l-446 -211l-186 211l8 62h211l-9 -62l-12 -104l223 104l21 160h-211q-88 0 -141.5 61.5t-42.5 149.5l51 422q10 88 79.5 149.5t157.5 61.5l197 -105l12 105h318zM182 102h209l66 529l-197 104l-14 -104z" />
    <glyph glyph-name="uniF006" unicode="&#xf006;" horiz-adv-x="1024" 
d="M868 -213h-362l47 43l-231 168h-107q-76 0 -134.5 67t-49.5 144l102 844q10 88 80 149.5t158 61.5h422q88 0 142 -61.5t44 -149.5l-105 -844q-10 -88 -79.5 -149.5t-157.5 -61.5h-80l193 -131h129zM227 102h424l117 951l12 106h-422q-96 -771 -131 -1057z" />
    <glyph glyph-name="uniF007" unicode="&#xf007;" horiz-adv-x="968" 
d="M696 709q88 0 142 -61.5t43 -149.5l-35 -287q-10 -87 -79.5 -149t-156.5 -62h-405q-88 0 -142 62.5t-43 150.5l21 172l223 107l-12 -107l-35 -279h406l55 455q2 17 -9 29t-28 12h-365q-86 2 -139 62.5t-43 146.5l31 246q11 86 79 147.5t154 61.5h347q69 0 122 -43l88 43
l-34 -279l-224 -106l35 280h-346l-51 -411q-2 -17 9 -29t30 -12h362z" />
    <glyph glyph-name="uniF00D" unicode="&#xf00d;" horiz-adv-x="1648" 
d="M1294 0l92 739l-225 -106l-78 -633h-315l119 106l121 996l-52 59h-208l-132 -1055l95 -106h-422l117 106l131 1055h-211l-238 -213l39 318h1112l-63 -527l223 105q88 0 141.5 -61.5t42.5 -149.5l-63 -527l92 -106h-318z" />
    </font>
</defs>
</svg>
